アットウィキロゴ

ヒトガタ

アーティスト HIMEHINA

BPM BASIC ADVANCED EXPERT MASTER Re:MASTER
150 2 6 10+ 13 -

EXPERT MASTER Re:MASTER
譜面制作者 Jack 翠楼屋 -

BASIC


ADVANCED


EXPERT

(150)
{1},,
{2}B3/B4,B5/B6,B2/B3/E4,B6/E6/B7,E3/B3/B4/E5,E5/B5/B6/E7,B2/B3/E2/E4,B6/B7/E6/E8,
{4}18,34,{16}5h[16:3]/6,,,4h[16:3],,,{8}3,,1,1,,28,,37,,
18,,56,,{16}3/4h[16:3],,,5h[16:3],,,6<3[2:1],,{4},,,1b,
{4}4x/5x,6,5,7h[4:1],5,8,6,57,8h[4:1],6h[4:1],5h[4:1],4,45,{8}6^3[4:1],6,{2},
{4}45,7,6,8q5[4:1],,,6,7,4/5h[4:1],7h[4:1],8h[4:1],1,18,{8}7-3[4:1],7,{4},1b,
{4}4x/5x,3,2h[4:1]/4h[4:1],,3,1,4,34,2,2,1h[4:1]/3h[4:1],,24,{8}3^6[4:1],3,{2},
{4}45,2,3,1p4[4:1],,,3,2,1h[4:1],3,4h[4:1],2,18,{8}2-6[4:1],2,{4},8b,
{2}1/7h[4:1],5h[4:1]/6,4/6h[4:1],1/8h[4:1],5/7h[4:1],4/5h[4:1],1/6h[4:1],7-3[8:1]/8,
{4}1,2,45,3h[4:1],4,25,1,18,2h[4:1],3h[4:1],4h[4:1],5<4[4:3],,,,,
{8}1,1x,8x,8x,1x,1x,8b,,
27,27,27,,34,25,,56,{4}47,4^1[8:1]/5^8[8:1],,,18,24,57,{8}8,8,{4}2q6[8:1],7p3[8:1],1x,8x,
{8}27,27,27,,56,47,,34,{4}25,1/6>1[4:1],,,78,12,{8}3,3,{4}4,56,2^4[8:1],7^5[8:1],1b,
{8}2h[4:1]/8h[4:1],,,37,3h[4:1]/7h[4:1],,,46,4h[4:1]/6h[4:1],,,5,5h[4:1],,1,,
{4}2v4[8:1]/8v6[8:1],,5,34,12,78,56,48,
{8}7h[4:1]/1h[4:1],,,62,6h[4:1]/2h[4:1],,,53,5h[4:1]/3h[4:1],,,4,4h[4:1],,8,,
{4}1v4[8:1]/7v4[8:1],,35,12,78,56,34,15,Chf[1:1],,,,
,,1,24,3,18,8,57,6,18,2,35,4,18,7,46,
{2}5h[1:4],E6,E7,E8,E1,E2,E3,E4,
{4}4h[2:1],5,5h[2:1],4,4h[2:1],6,5h[2:1],3,4h[2:1],7,5h[2:1],2,4,36,27,18,
2,2,{16}2h[16:3],,,3h[16:3],,,{8}4,4,,3,,{16}3h[16:3],,,4h[16:3],,,5,,
{4}5,7,{16}7h[16:3],,,6h[16:3],,,{8}5,5,,6,,{16}6h[16:3],,,5h[16:3],,,{8}4,
{1}4,{8}1x/8x,2b,3b,4b,5b,6b,7b,1b/8b,
2x/7x,2x/7x,2x/7x,,5x/7x,75,,24,{4}2x-7[8:1]/4x,6-3[8:1],1,1x/8x,
67,45,23,{8}1,1,{4}8,1q5[8:1]/5q1[8:1],,3x/7x,
{8}26,26,26,,13,13,,68,{4}6x-3[8:1]/8x,2-7[8:1],5,1x/8x,
23,45,67,{8}8,8,{4}1,34,5-1[8:1]/6,7b,
{8}6h[4:1]/8h[4:1],,,15,1h[4:1]/5h[4:1],,,24,2h[4:1]/4h[4:1],,,3,3h[4:1],,Cf,,
{4}7h[4:1],6h[4:1],5,48,7,56,3/4-8[8:1],2b,
{8}3h[4:1]/1h[4:1],,,84,8h[4:1]/4h[4:1],,,75,7h[4:1]/5h[4:1],,,6,6h[4:1],,Cf,,
{4}2h[4:1],3h[4:1],4,51,2,43,6/5-1[8:1],7,{8}8,8x,8x,8x,8x,8x,8b-4[8:1],,
{4}1,2^5[8:1],6,7^4[8:1],2,1-5[8:1],8,18,12,78,{16}1h[16:3],,,2h[16:3],,,3,,{8},35,35,,47,,26,,
{4}78,12,{16}8h[16:3],,,7h[16:3],,,{8}6,,46,46,,25,,37,,
{4}1-4[8:1],4,8-5[8:1],5,1^4[8:1],4,8^5[8:1],5,
{1}1v4[8:3]*v6[8:3],,,,
E

MASTER

(150)
{1}Ch[2:11],,{2}8,7,6,5,4,3,2,1,
{16}27,,3,4,3,,6,5,6,,3,4,2,,6,5,7,,2,4,3,,7,5,{8}6,4,35,26,
17,{16}6,5,7,,3,4,2,,6,5,{4}7s3[4:1],,,1-5[8:1]/5h[4:1],1x,
{8}6,6,5-3[8:1]/7,6,8,7,1h[4:1]/6,,3-5[8:1],,2,2h[4:1],,6,47,8,
3,3,2/4-6[8:1],3,1,1,8V64[4:1],3,4xv6[4:1],3,2,2,,3,45,6,
7-5[8:1],4,3,2,1-3[8:1]/4,5,6,7,4h[4:1]/8-4[8:1],,,3,2,1,8,7,
3b,24,6x,57,3,24,1,8,7x/Cf,,1x/6xp4[4:1],1h[8:3]/6,,,,,
3,3,2/4^7[8:1],1,2,3,4/8p4[8:1]*q4[8:1],,,,3x/5x,3x-1[8:1]/5x,,6,5,4,
1h[4:1],3,4,5,46,3/7h[4:1],,5-1[4:1],8,7,6,5-1[4:1],,3,3,,
4V28[4:1],,8>4[4:1],7,6,5,6h[4:1],,Cf,,1,1,28,37,4-2[8:1]/6,5,
6-8[8:1],6,4-1[8:1],,5-7[8:1],5,3-1[8:1]*-5[8:1],3,,,1x/5x,1x/5x,,46,2b/8b,,
{4}6h[4:1],5h[4:1],7h[4:1],5h[4:1],7h[4:1],6h[4:1],5h[4:1],6h[4:1],8h[4:1],7h[4:1],6h[4:1],5h[4:1],7h[4:1],6h[4:1],5,{8}34,34,
{4}3h[8:1]/4h[8:1],3h[8:1]/4h[8:1],2h[8:1]/4h[8:1],3h[8:1]/4h[8:1],3h[8:1]/4h[8:1],1h[8:1]/4h[8:1],3h[8:1]/4h[8:1],2h[8:1]/4h[8:1],3h[8:1]/4h[8:1],2h[8:1]/3h[8:1],3h[8:1]/4h[8:1],3/4>5[4:3]*q5[4:3],{1}4x,
{8}46,35,46,35,2-6[8:1]/6,37,2b/6,,
8-4[8:1],17,8,,3-5[8:1],3,8-3[8:1],8,6,5,4^1[8:1]*^7[8:1],,4,,2x/6x,3,
7-3[8:1],4,3,2,1-5[8:1],5,6,7,{4}2^5[8:1]/8^5[8:1],2/8z4[4:1],5x,{8}3x,2,
1-5[8:1],1,7^2[8:1],,3-7[8:1],3,5-1[8:1],5,2,3,4^1[8:1]*^7[8:1],,4,,2x/6x,5,
4-2[8:1],3,5-8[8:1],6,4-1[8:1],3,5-7[8:1],6,{4}1x-5[8:1],1v4[8:1]*v6[8:1],1,2b/8b,
{8}1>5[4:1]/5,,6,7,8<4[4:1],,2,1,8V24[4:1],,6,7,8-4[8:1],,2,1h[4:1],
,5,2v5[8:1]/6v1[8:1],,2x/6x,,4x/8x,3,2/6-1[8:1],1,{4}2>7[4:1]/6,8,Cf,
{8}8qq1[4:1],,1,2,3qq4[4:1],,8,7,6pp5[4:1],,5,4,3^8[8:1],,4,5h[4:1],
,1,3-7[8:1]/7-3[8:1],,37,,1x,2V48[4:1]/8,,4,5-1[8:1]*-7[8:1],,5,,3hx[8:5]/8x,7,
{4}6h[8:3],,36,4-8[8:1]/5^7[8:1],4x/5x,4-8[8:1]/5^7[8:1],4x/5x,45,7h[8:1]/8h[8:1],6h[8:1]/7h[8:1],{8}45,36,5-1[8:1]/4^2[8:1],,
{4}5x/4x,5-1[8:1]/4^2[8:1],5x/4x,54,2h[8:1]/1h[8:1],3h[8:1]/2h[8:1],{8}4-7[8:1]/5-2[8:1],36,,,
{1}3x/6x,,{4}3h[1:1]/6,,,B4,6h[4:5],,,B5,
{2}4h[4:1],3h[4:1]/5h[4:1],2h[4:1]/6h[4:1],3h[4:1]/7h[4:1],4/6h[4:1],3h[4:1]/5,7h[4:1]/C,2h[4:1]/C,
{4}1x-5[8:1],5,{16}6h[16:3],,,7h[16:3],,,8,,{4}8-4[8:1],4,{16}3h[16:3],,,2h[16:3],,,1,,
{4}1-5[8:1],5,{16}7h[16:3],,,6h[16:3],,,5,,{4}5-8[8:1],2-5[8:1],{16}1,,,7,,,4h[2:1]/5,,
{1}5h[8:3],{8}3/6b,4/5b,2/7b,4/5b,1/8b,3/6b,B2/B3/B4/B5/B6/B7/E3/E5/E7/Cf,,
1-5[8:1]/8b-4[8:1],1/8b,1/8b,,1-5[8:1],8,7^2[8:1],6,4-8[8:1],3,5bw1[8:1],,5b,,3x/7x,4,
8^5[8:1],5,4,3,2^5[8:1],5,6,7,{4}8x^3[8:1]*^5[8:1],8bw4[8:1],8b,{8}1x/7x,2,
3-7[8:1],5,6^1[8:1],,4-8[8:1],3,5-1[8:1],6,2,3,4bw8[8:1],,4b,,2x/6x,5,
3-1[8:1]/4,5,3/6-4[8:1],7,3-8[8:1]/6,2,3/6-2[8:1],7,1x^4[8:1]*^6[8:1]/6,,1bw5[8:1],,1b,,2b/8b,3,
4>8[4:1]/5,,7,6,5<1[4:1],,3,4,5V31[4:1],,7,6,5-1[8:1],,3,4h[4:1],
,8,3^8[8:1]/7^4[8:1],,3x/7x,,1x/5x,2,3-8[8:1]/7,8,{4}3/7<2[4:1],1,Cf,
{8}1pp8[4:1],,8,7,6pp5[4:1],,1,2,3qq4[4:1],,4,5,6^1[8:1],,5,4h[4:1],
,8,3^8[8:1]/7^4[8:1],,37,,1x,2V48[4:1]/8,,6,5-1[8:1]*-7[8:1],,5,,8x,,
4b/6b,35,47,25,47,15,3/8-4[8:1],26,
{4}4b/8b,2>8[8:3],6b<2[4:1],2>6[4:1],6b<2[4:1],2qq5[8:3],Cf,,
{8}6,6,57,4,35,6,47,3,2h[8:1]/5,6,4/7h[8:1],3,2-6[8:1]/5,6,8b,,
47,{16}6,5,6,,3,4,3,,6,5,7,,3,4,2,,7,5,6,,2,4,{8}3,5,46,37,
{16}2,1,3,8,4,7,5,6,3,4,2,5,1,6,8,7,5,6,4,5,3,4,{8}3,2-5[8:1]/6-1[8:1],15,2bV85[2:1]/6bV41[2:1],
{1},,,,
E

Re:MASTER


名前:
コメント:

タグ:

+ タグ編集
  • タグ:
最終更新:2022年07月25日 16:36