| アーティスト |
D.watt(IOSYS)+らっぷびと |
EASY
BASIC
(216.0){1},,,,,,,,
{2}8,8,
{1}8,
{2}1,1,
{1}1,
{2}8,8,
{1}8,
{2}1,1,
{2}1,1b,
{1}8h[1:1],,
{1}7h[1:1],,
{2}6,6,
{1}6,
{2}5,5,
{1}5,
{1}4h[1:1],,
{1}3h[1:1],,
{2}2,2,
{1}2,
{2}1,1,
{1}1,
{2}8,8,
{1}8,
{2}1,1,
{1}1,
{2}2,2,
{1}2,
{2}3,3,
{1}3/4,
{2}4,4,
{1}4,
{2}5,5,
{1}5,
{2}6,6,
{1}6,
{2}7,7,
{1}7b/8b,
{2}1,1,
{1}1,
{2}8,8,
{1}8,
{2}7,7,
{1}7,
{2}6,5,
{2}6,5,
{2}4,4,
{1}4,
{2}3,3,
{1}3,
{2}2,2,
{1}2,
{2}1,8,
{2}1,8,
{2}1,1,
{1}2,
{1}2-6[4:3],,
{2}7,7,
{1}7,
{1}7-3[4:3],,
{2}2,2,
{1}1b,
{2}8,8,
{2}8,8,
{2}1,1,
{1}1/8,
{2}2,2,
{2}2,2,
{2}3,3,
{1}3/4,
{2}4,4,
{2}4,4,
{2}5,5,
{1}4/5,
{2}6,6,
{2}6,6,
{2}7,7,
{1}7/8,
{1}7-3[4:3],,
{1}2-6[4:3],,
{2}7,7,
{2}8,8,
{2}1,1,
{2}2,2,
{1}1b/8b,
E
ADVANCED
(216.0){2}3,4,
{4}3,3,4,,
{2}6,5,
{4}6,6,5,,
{2}7,8,
{4}7,7,8,,
{2}2,1,
{4}2,2,1,,
{2}3h[2:1],4,
{4}3,3,4,,
{2}6h[2:1],5,
{4}6,6,5,,
{2}7h[2:1],8,
{4}7,7,8,,
{2}1h[4:1],2h[4:1],
{2}3h[4:1],4b/5b,
{4}6,6,5,,
{4}3,3,4,,
{4}2,2,{2}1-5[4:3],{1},
{4}7,7,8,,
{4}2,2,1,,
{4}3,3,{2}4-1[4:3],{1},
{1}1h[2:1]/8h[2:1],
{4}8,1,1b/8b,,
{4}2,2,1,,
{4}7,7,8,,
{1}1h[1:1]/2h[1:1],
{2},3/8,
{1}7h[1:1]/8h[1:1],
{2},1b/6b,
{2}7h[2:1],6h[2:1],
{2}5h[2:1],4,
{2}3h[2:1],2h[2:1],
{2}1h[2:1],8,
{2}7h[2:1],8,
{2}2h[2:1],1,
{1}1^4[4:3]/8^5[4:3],
{2},3/6,
{2}6h[2:1],7h[2:1],
{2}8h[2:1],1,
{2}2h[2:1],3h[2:1],
{2}4h[2:1],5,
{2}6h[2:1],5,
{2}3h[2:1],4-1[4:3],{1},
{2}8b,8b,
{4}2,2,1/2,,
{4}7,7,7/8,,
{4}2,2,{2}1/2>6[8:7],{1},
{4}7,7,7/8,,
{4}2,2,1/2,,
{4}8,8,1,1,
{4}1/8,1/8,2/7,,
{4}3,3,3/4,,
{4}6,6,5/6,,
{4}4,4,5,5,
{4}4/5,4/5,3/6,,
{4}7h[2:1],8,8,,
{4}2h[2:1],1,1,,
{2}7h[2:1],6h[2:1],
{2}5h[2:1],4>5[4:7],{1},,
{4}5,5,6,,
{4}4,3,2/5,,
{4}1,1,2,,
{4}8,8,7,,
{4}1,2,3/8,,
{2}1h[4:1]/8h[4:1],2/7,
{2}3,2,
{1}1h[2:1],
{2}1h[4:1]/8h[4:1],2b/7b,
{4}2,2,1/3,,
{4}7,7,{2}8/6>2[8:7],{1},
{4}1,1,2/8,,
{4}8,8,1/7,,
{4}1,1,8,8,
{4}1/7,1/7,2/6,,
{4}6,6,5/7,,
{4}3,3,2/4,,
{4}5,5,4,4,
{4}3/5,3/5,2/6,,
{4}2h[2:1],1,1,,
{4}7h[2:1],8,8,,
{2}2h[2:1],3h[2:1],
{2}4h[2:1],5<4[4:7],{1},,
{1}5pp1[8:11],,
{4}2,2,1/2,,
{4}7,7,7/8,,
{4}2,2,1,1,
{4}8,8,7/8,,
{2}6h[2:1],5,
{2}3h[2:1],4,
{2}6h[2:1],5,
{2}3h[2:1],4b,
E
EXPERT
(216.0){4}3h[1:2],4,,4,
{8},,4,4,,,4,,
{4}6h[1:2],5,,5,
{8},,5,5,,,5,,
{4}3h[1:2],4,,5,
{8},,4,4,,,5,,
{4}6h[1:2],5,,4,
{8},,5,5,,,4,,
{4}3h[1:1],4,,4,
{8}6h[1:1],,5,5,,,5,,
{4}4h[1:1],5,,5,
{8}5h[1:1],,4,4,,,4,,
{4}3h[1:1],4,,4,
{8}6h[1:1],,5,5,,,5,,
{2}1,2,
{4}3,,4,4/5,
{4}5/6h[4:15],5,8,5,
{4}8,5,4,7,
{4}5,4,5,4,
{4}5,5,7,1b,
{4}8/7h[4:15],5,8,8,
{4}1,5,5,8b,
{4}1,8,1,8,
{4}1-5[4:1],,,8,
{4}5/6h[4:15],1,8,1,
{4}5p1[4:1],,,8b,
{4}5,5,4,4,
{4}7,1,7,1,
{8}7h[4:15]/8h[4:1],,,1h[4:1],,,8b,,
{4}5,8,5,8-5[4:1],
{4},,5,5p2[2:1],
{4},,,1b,
{4}4/3h[4:15],4,1,4,
{4}8,8,5,5,
{4}2,4,2,4,
{4}1,1,4,8,
{4}1/2h[4:15],1,4,4,
{4}5,3,5,1bV37[8:3],
{4},,,5,
{4}3,5,8,5,
{4}4/3h[4:15],4,5,5,
{4}2,5,2,8,
{4}5,1,4,8,
{4}5,1,4,8,
{4}4/2h[4:13],4,5,5,
{4}1,1,8,8,
{4}3,5,3,5,
{4}8,3b-8[4:1],,,
{4}6,5/7,3,2/4,
{4}7,6/8,2,1/3,
{4}5/6,3/5,5/6,5/2qq7[2:1],
{4},,,1/8,
{4}3,2/4,6,5/7,
{4}2,1/3,7,6/8,
{4}3/4,4/6,3/4,7/4>5[2:1],
{4},,,2/7,
{4}8,5/7,1,2/4,
{4}8,5/7,1,2/4,
{2}6-3[4:1],2-7[4:1],
{1}6pp3[2:1],
{4}1h[2:1]/8h[2:1],,,5,
{4}7,4,2,8<1[4:3],{1},
{2}4/7,2/5,
{4}8h[4:1],7h[4:1],6h[4:1],5h[4:1],
{4}4h[4:1],3h[4:1],2h[4:1],1,
{4}1h[4:1],2h[4:1],3h[4:1],4w8[4:1],
{2},1b/7b,
{4}1h[4:1],2h[4:1],3h[4:1],4h[4:1],
{4}5h[4:1],6h[4:1],7h[4:1],8,
{4}8h[4:1],7h[4:1],{2}6p3[4:3],{1},
{2}3,2,
{4}1h[4:3],,,8,
{4}4/5,1b/6b,2/7,3/8,
{4}2/7,1/6,2/7,8,
{4}4/7,1,2/5,8qq3[2:1],
{4},,,1/8,
{4}2/7,3/8,2/7,1/6,
{4}2/7,3/8,2/7,1,
{4}2/5,8,4/7,1>8[2:1],
{4},,,1/8,
{4}2/7,1/6,2/7,3/8,
{4}2/7,1/6,2/7,8,
{2}3-6[4:1],7-2[4:1],
{1}3qq6[2:1],
{4}1h[2:1]/8h[2:1],,,1,
{4}3,8,6,4>5[4:3],{1},
{4}1/6,1,3/8,8,
{4}2h[1:1],4,5,3,
{4}7h[1:1],5,4,6,
{4}3h[1:1],4,5,4,
{4}6h[4:3],5,4,3b,
{4}6,5/7,3,2/4,
{4}5,5/6,4,3b/4b,
{4}5,6,4,3,
{4}5,5,4,4>5[1:2],{1},,,
E
MASTER
(216.0){8}4,,5,,4,4,5,,
{8}4,,5,5,4,4,5,,
{8}3,,5,,3,3,5,,
{8}3,,5,5,3,3,5,,
{8}4,,6,,4,4,6,,
{8}4,,6,6,4,4,6,,
{8}3,,6,,3,3,6,,
{8}3,,6,6,3,3,6,,
{8}4/5,,3,4,,6,5,,
{8}3,4,,6,5,,3/4,,
{8}5/6,,2,4,,7,5,,
{8}2,4,,7,5,,2/4,,
{8}5/7,,2,3,,7,6,,
{8}2,3,,7,6,,4/5,,
{4}1b/8,8,2b/7,7,
{4}3b/6,6,4b/5,5,
{8}3h[4:1],,4,3h[4:1],,4,3,2,
{8}6h[4:1],,5,6h[4:1],,5,6,4/7,
{8},2,1,2,3/8,,7,8,
{8}1/6,,2^4[8:1]/7^5[8:1],2/7,,,1/8,,
{8},2-4[8:1],,8-6[8:1],,1-5[8:1],,8,
{8}8,,3/7,3^6[8:1]/7p2[8:1],,,,,
{8}7,8,7,1/6,,2,1,2,
{8}3/8,,4qq4[8:3]/5pp5[8:3],4/5,,,,,
{4}2^5[4:1],5^8[4:1],8^3[4:1],3^6[4:1],
{4}6^1[4:1],1^4[4:1],4w8[8:1],,
{8},6,7,8,1,2,3,4/5,
{8},1/8,2/7,3/6,4-1[8:1]/5-8[8:1],,,,
{8}2-6[8:1],,,4^7[8:1],,,1^4[8:1],,
{8},6-1[8:1],,3-8[8:1],,6,6,,
{8}7-3[8:1],,,5^2[8:1],,1,8,7,
{8}6,4/5,,1/8,1p4[4:1]/8q5[4:1],,,,
{8},3,2,1,8,7,6,4/5,
{8},1,2,3,4,5,6,7,
{8}8,7,6,5,4,3,2,1,
{8}2,3,4,5,6,7,1/8,,
{8},6,5,4,1h[8:1]/3h[8:1],,1h[8:1]/3h[8:1],,
{8}6h[8:1]/8h[8:1],,6h[8:1]/8h[8:1],,1/8,2/7,3/6,4/5,
{8},2pp3[4:1]/6pp7[4:1],2/6,,,,4/5,,
{8}3qq2[4:1]/7qq6[4:1],3/7,,,,1/8,1/8,,
{8},5,6,7,8,1,2,3,
{8}4/5,3,2,1,8,7,3/6,,
{8}1,2,3/6,,8,7,6,5,
{8}4,5,4,5,6,7,1/8,,
{8},3,2,1,4,3,2,5,
{8}4,3,6,5,4,7,6,5,
{8}8,7,6,1,2,3,4/5,3,
{8}2,1,8,7,3b/6b,,,,
{8}3-1[8:1],,3,5,8-4[8:1],,8,6,
{8}3-1[8:1],,3,5,8-4[8:1],,8,6,
{8}3-1[8:1],,3,5,8-4[8:1],,8,6,
{4}3-1[8:1],5-7[8:1],4-8[8:1],8b,
{8}6-8[8:1],,6,4,1-5[8:1],,1,3,
{8}6-8[8:1],,6,4,1-5[8:1],,1,3,
{8}6-8[8:1],,6,4,1-5[8:1],,1,3,
{8}6-8[8:1],,6,1,1w5[8:1],,1b,,
{8}3-1[8:1],,3,5,8-4[8:1],,8,6,
{8}3-1[8:1],,3,5,8-4[8:1],,8,6,
{4}3-1[8:1],5-7[8:1],4-2[8:1],6-8[8:1],
{4}3-1[8:1],5-8[8:1],4-1[8:1],5<4[2:1],
{4}4,,,1-3[8:1]/4-7[8:1],
{4}1/4,5-2[8:1]/8-6[8:1],5/8,1b,
{8}1,2,3,4,5,6,7,8,
{8}4,3,2,1,8,7,6,5,
{4}4>8[4:1],8<4[4:1],4>8[4:1],8<4[4:1],
{4}4>8[4:1],8<4[4:1],4-8[8:1],,
{4}1-3[8:1]/5-7[8:1],1/5,4-2[8:1]/8-6[8:1],4/8,
{4}1^4[8:1]/5^8[8:1],1w5[16:3],,,
{4}7>3[4:1],3<7[4:1],7>3[4:1],3<7[4:1],
{4}7>3[4:1],3<7[4:1],7-3[8:1],,
{8}4^7[8:1]/5^2[8:1],,4/5,,1/8,1^4[8:1]/8^5[8:1],,1/8,
{8},2,1,8,7,6,5,4,
{2}3b,2b,
{8}1b,,,,,2/7,3/6,4/5,
{8}1-5[8:1]/8-4[8:1],,1b/8b,,1^4[8:1],,7,8,
{8}1^6[8:1],,3,2,1^4[8:1],,7,8,
{8}1^6[8:1],,3,2,1^4[8:1],,7,8,
{4}1-6[8:1],5-2[8:1],7-4[8:1],1b,
{8}8^3[8:1],,5,6,8^5[8:1],,3,2,
{8}8^3[8:1],,5,6,8^5[8:1],,3,2,
{8}8^3[8:1],,5,6,8^5[8:1],,3,2,
{4}8-3[8:1],4-7[8:1],2-5[8:1],8b,
{8}1<5[16:3],,5,3,1>5[16:3],,5,7,
{8}1<5[16:3],,5,3,1>5[16:3],,5,7,
{4}1b-6[8:1],2b-5[8:1],7b-4[8:1],8b-3[8:1],
{4}5b-8[8:1],4b-1[8:1],5b-1[8:1],4b>5[2:1],
{4}5b,,,5-2[8:1]/8-6[8:1],
{4}5/8,1-3[8:1]/4-7[8:1],1/4,4qq1[2:1]/8qq5[2:1],
{4}4/8,,,3/7,
{8}1b/5b,1/5,1/5,1/5,1b/5b,1/5,1/5,1/5,
{1}1h[4:7]/5b<4[4:5],
{8},,,,,,7p2[8:5],7h[8:7],
{8},,,,,,3^6[2:1],3h[8:7],
{4},,,8b,
{8}7-3[8:1],,,5^2[8:1],,,8^5[8:1],,
{8},3-7[8:1],,,5-1[8:1],,4b,,
{8}2-6[8:1],,,4^7[8:1],,,1^4[8:1],,
{8},6-2[8:1],,,4w8[8:1],,,,
{1}2b/6b,
E
Re:MASTER
最終更新:2026年10月04日 08:15