アットウィキロゴ

taboo tears you up〈スタンダード〉

アーティスト REDALiCE (HARDCORE TANO*C)

BPM EASY BASIC ADVANCED EXPERT MASTER Re:MASTER
180 3 6 8+ 11 13 -

EXPERT MASTER Re:MASTER
譜面制作者 ぴちネコ 如月 ゆかり -

EASY


BASIC

(180.0){2}1,1,
{2}8,1/8,
{2}8,8,
{1}1h[2:1]/8h[2:1],
{2}1,2,
{4}3,3,4/5,,
{2}5,6,
{4}7,7,1/8,,
{2}8,7,
{4}6,6,4/5,,
{2}4,3,
{4}2,2,1/8,,
{1}1-6[4:3],,
{1}8-3[4:3],,
{1}2-5[4:3],,
{1}7-4[4:3],,
{2}3,2,
{2}1,7/8,
{2}6,7,
{2}8,1/2,
{2}2,3,
{2}4,5/6,
{2}5/6,4/5,
{1}3h[1:1]/4h[1:1],,
{2}4,5,
{4}6,6,7/8,,
{2}8,7,
{4}6,6,4/5,,
{2}5,4,
{4}3,3,1/2,,
{4}8,8,1,1,
{1}1h[2:1]/8h[2:1],
{2}8,1,
{4}2,2,3/4,,
{2}4,3,
{4}2,2,1/8,,
{2}1,8,
{4}7,7,5/6,,
{4}4,4,5,5,
{1}3h[2:1]/6h[2:1],
{4}4,4,5,5,
{4}4,4,5b,,
{4}5,5,4,4,
{4}5,5,4b,,
{4}6,6,5,5,
{4}6,6,5b/6b,,
{4}3,3,4,4,
{1}3h[2:1]/4h[2:1],
{1}2h[2:1],
{1}1h[2:1],
{1}8h[2:1],
{1}7h[2:1],
{1}5h[2:1]/6h[2:1],
{1}4h[2:1]/5h[2:1],
{1}3h[2:1]/4h[2:1],
{1}2h[2:1],
{1}1-4[4:3],,
{1}8-5[4:3],,
{1}1-5[4:3],,
{1}8-4[4:3],,
{1}2b/7b,,
{4}1,1,2,,
{4}3,3,4/5,,
{4}5,5,6,,
{4}7,7,1/8,,
{4}8,8,7,,
{4}6,6,4/5,,
{4}4,4,3,,
{4}2,2,1/8,,
{4}2,2,3,3,
{4}4,4,5/6,,
{4}7,7,6,6,
{4}5,5,3/4,,
{4}3,3,2,2,
{4}1,1,7/8,,
{4}6,6,7,7,
{1}1h[2:1]/8h[2:1],
{2}1,1/2,
{2}8,7/8,
{2}6,5/6,
{2}3,3/4,
{2}5,5/6,
{2}4,3/4,
{2}2,1/2,
{2}7,7/8,
{4}6,5,6,,
{4}3,4,3,,
{4}2,1,2,,
{4}7,8,7,,
{4}1/2,1/2,1/2,,
{4}3/4,3/4,3/4,,
{4}5/6,5/6,5/6,,
{2}7h[2:1]/8h[2:1],,
E

ADVANCED

(180.0){1},,,,
{4}3,3,4,4,
{4}5,5,6,,
{4}6,6,5,5,
{4}4,4,3,,
{4}3,3,4,4,
{4}5,5,6,,
{4}6,5,4,3,
{1}4-1[2:1]/5-8[2:1],
{1}2h[1:1],
{1}3h[1:1],
{1}4h[1:1],
{1}5,
{1}7h[1:1],
{1}6h[1:1],
{1}5h[1:1],
{1}4,
{4}3,3,4,4,
{4}3,4,2/5,,
{4}6,6,5,5,
{4}6,5,4/7,,
{4}3,3,4,4,
{4}3,4,2/5,,
{4}1,1,8,8,
{1}2b/7b,,
{4}7,7,8,8,
{4}7,8,1/6,,
{4}2,2,1,1,
{4}2,1,3/8,,
{4}7,7,8,8,
{4}7,8,1/6,,
{4}5,5,4,4,
{4}3/6,3/6,2b/7b,,
{4}2,2,1,1,
{4}1/2,3/8,4/7,,
{4}7,7,8,8,
{4}7/8,1/6,2/5,,
{4}2,2,1,1,
{4}1/2,3/8,4/7,,
{4}4,4,5,5,
{1}2b/7b,
{4}2,3,4,5,
{4}6,7,1/8,,
{4}7,6,5,4,
{4}3,2,1/8,,
{4}6,7,8,1,
{4}2,3,4/5,,
{4}3/6,3/6,2/7,2/7,
{1}1-4[2:1]/8-5[2:1],
{1}2^5[2:1],
{1}7^4[2:1],
{1}3^8[2:1],
{1}6^1[2:1],
{1}2-6[2:1],
{1}7-3[2:1],
{1}1-5[2:1],
{1}8-4[2:1],
{2}1/2,1/2,
{2}3/4,3/4,
{2}5/6,5/6,
{2}7/8,7/8,
{4}1,1,2,2,
{4}3,3,4,4,
{4}5,5,6,6,
{4}7,7,8,8,
{1}1b>8[4:5],,
{4}3,3/4,6,5/6,
{4}3,3/4,2/5,,
{4}6,5/6,3,3/4,
{4}6,5/6,4/7,,
{4}2,1/2,7,7/8,
{4}2,1/2,3/8,,
{4}7,7/8,2,1/2,
{4}7,7/8,1b/6b,,
{4}3h[4:1],4,6h[4:1],5,
{4}3h[4:1],4,2/5,2/5,
{4}6h[4:1],5,3h[4:1],4,
{4}6h[4:1],5,4/7,4/7,
{4}2h[4:1],1,7h[4:1],8,
{4}2h[4:1],1,3/8,3/8,
{4}7h[4:1],8,2h[4:1],1,
{1}3b/8b,
{4}3,3,4,4,
{4}5,5,6h[4:1],,
{4}6,6,5,5,
{4}4,4,3h[4:1],,
{4}3,3,4,4,
{4}5,5,6h[4:1],,
{4}5,5,4,4,
{4}3/6,2/7,1/8,,
{4}7,7,8h[4:1],,
{4}2,2,1/3,,
{4}2,2,1h[4:1],,
{4}7,7,6/8,,
{4}7,7,8h[4:1],,
{4}2,2,1/3,,
{4}2,2,7,7,
{4}1/8,2/7,3/6,4b/5b,
E

EXPERT

(180.0){8},8,,8,,1,,1,
{8},2,,2,2-5[8:1],,,,
{8},6,,6,,3,,3,
{4}5h[2:1],,4,2b/7b,
{4}5,1/2,4,7/8,
{8}4/5,,2,1,2,,3/8,,
{4}4,7/8,5,1/2,
{8}4/5,,7,8,7,,1/6,,
{4}5,1/3,4,6/8,
{8}4/5,,2,1,2,,3/8,,
{4}4,6/8,5,1/3,
{1}4b^1[16:5]/5b^8[16:5],
{2}2h[2:1],3h[2:1],
{2}4h[2:1],5h[2:1],
{2}6h[2:1],7h[2:1],
{1}8qq4[2:1],
{2}7h[2:1],6h[2:1],
{2}5h[2:1],4h[2:1],
{2}3h[2:1],2h[2:1],
{1}1pp5[2:1],
{4}1,2/8,3/7,4/6,
{4}5,4/6,3/7,2/8,
{4}1,2/8,3/7,4/6,
{1}5<2[16:5]*q2[16:5],
{4}8,1/7,2/6,3/5,
{4}4,3/5,2/6,1/7,
{4}8,1/7,2/6,3/5,
{1}4>7[16:5]*p7[16:5],
{8},,,,,,4,5,
{8}4,,2/8,,7,8,7,,
{8}5/6,,3,4,3h[4:1],,1b,,
{4}7/8,4/5,1/2,4/5,
{8}7/8,,8,7,8-4[8:1],,,,
{8}5,,1/7,,2,1,2,,
{8}3/4,,6,5,6h[4:1],,8b,,
{4}1/2,4/5,7/8,4/5,
{8}1/2,,1,2,1-5[8:1],,,,
{8}2,2,2h[4:1],,8-4[8:1],,,,
{8}1,1,1h[4:1],,7-3[8:1],,,,
{8}2,2,2h[4:1],,8-4[8:1],,,,
{8}1,8,2,7,3,6,4,,
{8}7,7,7h[4:1],,1-5[8:1],,,,
{8}8,8,8h[4:1],,2-6[8:1],,,,
{8}7,7,7h[4:1],,1-5[8:1],,,,
{8}8h[4:1],,1,,2/7,2/7,2b/7b,,
{2}3/5-8[8:1],7/1-4[8:1],
{8}3/5-8[8:1],,,,1,1,1b,,
{2}6/4-1[8:1],2/8-5[8:1],
{8}6/4-1[8:1],,,,8,8,8b,,
{2}4/6-1[8:1],8/2-5[8:1],
{8}4/6-1[8:1],,,,2,2,2b,,
{2}5/3-8[8:1],1/7-4[8:1],
{1}5b/3bpp8[2:1],
{4}7-3[2:1],2,,1,
{4}2-6[2:1],7,,8,
{4}8-4[2:1],3,,1,
{4}1-5[2:1],6,,8,
{8}6h[4:1],,8,8,,1/2,1/2,,
{8}3h[4:1],,1,1,,7/8,7/8,,
{8}5h[4:1],,8,8,,1/3,1/3,,
{8}4h[4:1],,1,1,,6/8,6/8,,
{1}7pp4[2:1],
{1}2qq5[2:1],
{1}6qq1[2:1],
{1}3pp8[2:1],
{1}7qq4[2:1],
{1}2pp5[2:1],
{2}8-4[8:1],1-5[8:1],
{2}7-4[8:1],2-5[8:1],
{1}8bw4[4:3],
{8},,,,,,5,4,
{8}5,,1/7,,2,1,2,,
{8}5/6,,3,4,3h[4:1],,1b,,
{8}7/8,,2,1,2,,7,8,
{8}6,1,5,2,4-8[8:1],,,,
{8}4,,2/8,,7,8,7,,
{8}3/4,,6,5,6h[4:1],,8b,,
{8}1/2,,7,8,7,,2,1,
{8}3,8,4,7,5-1[8:1],,,,
{8}7,1,8,2,1h[4:1],,3,,
{8}2,8,1,7,8h[4:1],,6,,
{8}7,1,8,2,1h[4:1],,3,,
{4}6/8,1/3,5/7,2/4,
{8}6,4,5,3,4h[4:1],,1,,
{8}3,5,4,6,5h[4:1],,8,,
{8}6,4,5,3,4h[4:1],,1,,
{8}1h[4:1]/5h[4:1],,,,1/5,1/5,1b/5b,,
{8}6h[4:1],,8,8,,1,2/8,,
{8}3h[4:1],,1,1,,8,1/7,,
{8}5h[4:1],,8,8,,2,1/3,,
{8}4h[4:1],,1,1,,7,6/8,,
{8}6h[4:1],,8,8,,1/2,3/8,,
{8}3h[4:1],,1,1,,7/8,1/6,,
{8}5h[4:1],,8,8,,1/2,3/8,,
{4}4h[4:1],1pp6[8:3],,,
{8},1/3,,6/8,,1h[8:1]/3h[8:1],,,
{8},4/6,,2/8,2-5[8:1]/8-5[8:1],,,,
{8},2/4,,5/7,,2h[8:1]/4h[8:1],,,
{8},3/5,,1/7,1-4[8:1]/7-4[8:1],,,,
{8},6/8,,1/3,,6h[8:1]/8h[8:1],,,
{8},3/5,,1/7,1-4[8:1]/7-4[8:1],,,,
{8},7/8,,3/4,,1/2,,5/6,
{16}5bq4[16:7]/6b<3[16:7],,,,,,,,,,,,
E

MASTER

(180.0){8},4,,5,,3,,6,
{8},2,,7,1/8,1/8,1/8,,
{8},2,,7,,3,,6,
{8}4h[2:1]/5h[2:1],,,,,3/6,3/6,,
{8}2,1,2,7,8,7,3,4,
{8}3,6,5,6,1-5[8:1],8,1,,
{8}7,5,7,2,4,2,6,8,
{8}6,3,1,3,5/6,4/7,3/8,,
{8}7,8,6,2,1,3,6,5,
{8}7,3,4,2,8-4[8:1],1,8,,
{8}3,7,1,6,2,8,4,5,
{8}3h[4:1]/6h[4:1],,,2/7,2/7,,1/8,,
{4}1^3[4:1],3^5[4:1],5^7[4:1],7^1[4:1],
{4}1^4[4:1],4^7[4:1],7^2[4:1],2^5[4:1],
{4}5p1[4:1],1p5[4:1],5V31[4:1],1V75[4:1],
{4}5w1[4:1],,,8^6[4:1],
{4}6^4[4:1],4^2[4:1],2^8[4:1],8^5[4:1],
{4}5^2[4:1],2^7[4:1],7^4[4:1],4q8[4:1],
{4}8q4[4:1],4V68[4:1],8V24[4:1],4w8[4:1],
{8},,,,3/6,,1,8,
{8}4,3,2,1,7-3[8:1],8,7,,
{8}8,7,6,5,3-7[8:1],4,3,,
{8}1h[8:3],2,3,4,5h[4:1],6,7,8,
{8}1/2,1/2,3/8,3/8,4/7,,5/6,,
{8}5,6,7,8,2-6[8:1],1,2,,
{8}1,2,3,4,6-2[8:1],5,6,,
{8}8h[8:3],7,6,5,4h[4:1],3,2,1,
{8}7/8,7/8,1/6,1/6,2/5,,3/4,,
{16}1/8,,,5/7,,,2/4,,3b/6b,,,,4,,5,,
{8}3/4,3/4,7/8,7/8,1-6[8:1]/2-5[8:1],,1/2,,
{8}5/6,5/6,1/2,1/2,3-8[8:1]/4-7[8:1],,3/4,,
{8}2h[8:3],1,8,7,6h[8:3],5,4,3,
{4}2q6[8:1]/6q2[8:1],2/6,1^6[8:1]/5^2[8:1],1/5,
{8}7/8,7/8,3/4,3/4,5-2[8:1]/6-1[8:1],,5/6,,
{8}1/2,1/2,5/6,5/6,7-4[8:1]/8-3[8:1],,7/8,,
{8}3h[8:3],2,1,8,7h[8:3],6,5,4,
{4}3p7[8:1]/7p3[8:1],3/7,4^7[8:1]/8^3[8:1],4/8,
{16}2,1,2,1,2,,3/8,,4-8[8:1]/7-5[8:1],,,,4/7,,,,
{16}7,8,7,8,7,,1/6,,2-4[8:1]/5-1[8:1],,,,2/5,,,,
{16}3,4,3,4,3,,2/5,,1-5[8:1]/6-8[8:1],,,,1/6,,,,
{16}6,5,6,5,6,,4/7,,3-1[8:1]/8-4[8:1],,,,3/8,,,,
{16}2,1,2,1,3,8,3,8,4/7,,5/6,,4b/7b,,,,
{16}7,8,7,8,6,1,6,1,2/5,,3/4,,2b/5b,,,,
{16}1,8,1,8,2,7,2,7,3,6,3,6,4,5,4,5,
{4}4w8[4:1],4b,,,
{4}2-5[8:1],1-6[8:1],8-3[8:1],7-4[8:1],
{8}2-6[8:1],,7-3[8:1],,8,8,8,,
{4}7-4[8:1],8-3[8:1],1-6[8:1],2-5[8:1],
{8}7-3[8:1],,2-6[8:1],,1,1,1,,
{4}3-8[8:1],4-7[8:1],5-2[8:1],6-1[8:1],
{8}3-7[8:1],,6-2[8:1],,5,5,5,,
{4}6-1[8:1],5-2[8:1],4-7[8:1],3-8[8:1],
{1}6>7[2:1],
{16}6/5h[8:3],,,8,,,2,,,,3/4,,2/5,,,,
{16}2/1h[8:3],,,4,,,6,,,,7/8,,1/6,,,,
{16}3/4h[8:3],,,1,,,7,,,,5/6,,4/7,,,,
{16}7/8h[8:3],,,5,,,3,,,,1/2,,3/8,,,,
{16}8/7h[8:3],,,6,,,4,,,,1/3,,2/8,,,,
{16}1/2h[8:3],,,3,,,5,,,,6/8,,1/7,,,,
{16}5/6h[8:3],,,7,,,1,,,,2/4,,3/5,,,,
{16}4/3h[8:3],,,2,,,8,,,,5/7,,4/6,,,,
{1}1bpp4[2:1]/8bqq5[2:1],
{4}2/7,3h[4:1]/6h[4:1],,4/5,
{4}8b,6,4,2,
{4}7b,5,3,1,
{8}6b,6,6,6,3,3,3,3,
{8}5b,5,4,4,7,7,2,2,
{8}4b/6,4/6,2/8,2/8,3b/5,3/5,1/7,1/7,
{16}2b,8,2,8,2,8,2,8,{983}1b,,,,,,,,,,,,,,,,,,,,,,,,,,,,,,,,,,,,,,,,,{625}2,,,,,,,,,,,,,,,,,,,,,,,,,,{983}3,,,,,,,,,,,,,,,,,,,,,,,,,,,,,,,,,,,,,,,,,4,,,,,,,,,,,,,,,,,,,,,,,,,,,,,,,,,,,,,,,,,{625}5,,,,,,,,,,,,,,,,,,,,,,,,,,{983}6,,,,,,,,,,,,,,,,,,,,,,,,,,,,,,,,,,,,,,,,,7,,,,,,,,,,,,,,,,,,,,,,,,,,,,,,,,,,,,,,,,,{625}8,,,,,,,,,,,,,,,,,,,,,,,,,,{983}1,,,,,,,,,,,,,,,,,,,,,,,,,,,,,,,,,,,,,,,,,2,,,,,,,,,,,,,,,,,,,,,,,,,,,,,,,,,,,,,,,,,{625}3,,,,,,,,,,,,,,,,,,,,,,,,,,{983}4,,,,,,,,,,,,,,,,,,,,,,,,,,,,,,,,,,,,,,,,,
{1}5<4[2:1],
{16}1/8,,,2/4,,,5/7,,3b/6b,,,,4,,5,,
{8}6/8,7,2/8,1,6^8[8:1]/8^2[8:1],,6/8,,
{8}1/3,2,1/7,5,2^4[8:1]/4^6[8:1],,2/4,,
{4}1-5[8:1]/8-6[8:1],1b/8b,1-3[8:1]/8-4[8:1],1b/8b,
{8}5/6,5/6,3/4,3/4,1-4[8:1]/8-5[8:1],,1b/8b,,
{8}5/7,6,3/5,4,5^3[8:1]/7^5[8:1],,5/7,,
{8}2/4,3,4/6,8,1^7[8:1]/3^1[8:1],,1/3,,
{4}4-2[8:1]/5-1[8:1],4b/5b,4-8[8:1]/5-7[8:1],4b/5b,
{8}1/2,1/2,7/8,7/8,4-1[8:1]/5-8[8:1],,4b/5b,,
{16}3/8,,2,1,2,1,2,,3-8[8:1]/7-4[8:1],,,,3/7,,,,
{16}1/6,,7,8,7,8,7,,2-5[8:1]/6-1[8:1],,,,2/6,,,,
{16}2/5,,3,4,3,4,3,,2-4[8:1]/6-1[8:1],,,,2/6,,,,
{16}4/7,,6,5,6,5,6,,3-8[8:1]/7-5[8:1],,,,3/7,,,,
{16}2,1,3,8,4,7,5,6,4/7,,3/8,,1b/2b,,,,
{16}7,8,6,1,5,2,4,3,2/5,,1/6,,7b/8b,,,,
{8}5/6,4/7,3/8,1/2,3/4,2/5,1/6,7/8,
{16}4,5,4,5,3,6,3,6,2,7,2,7,1,8,1,8,
{8}2,2h[4:1],,4h[4:1],,6h[4:1],,8h[4:1],
{8},3h[4:1],,5,4-1[8:1]*-7[8:1],4,,,
{8},6h[4:1],,8h[4:1],,2h[4:1],,4h[4:1],
{8},7h[4:1],,1,8-3[8:1]*-5[8:1],8,,,
{8},4h[4:1],,5h[4:1],,6h[4:1],,7h[4:1],
{8},2h[4:1],,1,3-6[8:1]*p7[8:1],3,,,
{8},5h[4:1],,4h[4:1],,3h[4:1],,2h[4:1],
{8},7h[4:1],,8,6q2[8:1]*-3[8:1],6,,,
{8},3/5,,1/7,2pp4[8:1],8,2,,
{2}3p7[8:1]/7p3[8:1],4^7[16:3]/8^3[16:3],
{8},4/6,,2/8,7qq5[8:1],1,7,,
{2}2q6[8:1]/6q2[8:1],1^6[16:3]/5^2[16:3],
{8},6,,7,1-5[8:1],8,1,,
{2}3^6[16:3]/6^1[16:3],3^8[16:3]/8^5[16:3],
{8},3,,2,8-4[8:1],1,8,,
{8}2h[4:1]/7h[4:1],,,1/8,1-4[8:1]/8-5[8:1],,1b/8b,,
E

Re:MASTER


名前:
コメント:

タグ:

+ タグ編集
  • タグ:
最終更新:2026年10月04日 08:16