アットウィキロゴ

不思議の国のクリスマス

アーティスト SOUND HOLIC feat. 3L

BPM EASY BASIC ADVANCED EXPERT MASTER Re:MASTER
128 2 4 7 9+ 13 -

EXPERT MASTER Re:MASTER
譜面制作者 華火職人 小鳥遊さん -

EASY


BASIC

(128.0){1},,
{2}4,4,
{2}5,5,
{2}4,4,
{4}5,4,4/5,,
{2}6,6,
{2}7,7,
{2}8,8,
{4}1,8,{2}1/8,{1},
{4}2,2,2,,
{4}3,3,3,,
{4}4,4,4,,
{1}5h[2:1],
{2}4,4,
{4}3,3,3,,
{2}2,2,
{4}1,1,1,,
{2}8,8,
{4}7,7,7,,
{2}6,6,
{4}5,4,4/5,,
{1}3-6[4:3],,
{1}7-2[4:3],,
{4}1,1,1,,
{4}8,8,8,,
{1}1h[2:1]/8h[2:1],
{1}2b/7b,
{4}1,1,8,1,
{4}2,2,1/2,,
{4}7,7,7/8,,
{4}6,6,5,5,
{4}4,4,4/5,,
{4}6,6,5/6,,
{4}3,3,3/4,,
{4}2,2,1,1,
{4}8,8,1b/8b,,
{1}1h[2:1]/2h[2:1],
{1}7h[2:1]/8h[2:1],
{1}1-4[4:3]/8-5[4:3],
{2},4/5,
{1}4-1[4:3],,
{1}8-5[4:3],,
{1}4h[2:1],
{1}3h[2:1],
{1}2h[2:1],
{4}1,1,1/2,,
{4}8,8,7/8,,
{4}1/8,1/8,1/8,,
{1}1-5[4:3],
{2},4/5,
{4}6,6,5,5,
{4}4,4,4/5,,
{4}6,6,5/6,,
{4}3,3,3/4,,
{4}2,2,1,1,
{4}8,8,1b/8b,,
{1}1h[2:1]/2h[2:1],
{1}7h[2:1]/8h[2:1],
{1}1-4[4:3]/8-5[4:3],
{2},4/5,
{4}5,5,5,,
{4}6,6,6,,
{4}7,7,7,,
{1}8h[2:1],
{4}1,1,1,,
{4}2,2,2,,
{4}3,3,3,,
{4}4h[2:1]/5h[2:1],,,4/5,
E

ADVANCED

(128.0){1},,
{2}3h[2:3],4,
{2}4,4,
{2}6h[2:3],5,
{2}5,5,
{4}3,3,3/4,,
{4}6,6,5/6,,
{4}7,7,8,8,
{4}1,1,{2}1pp4[1:1]/8qq5[1:1],{1},
{4}3,4,3/4,,
{4}6,5,5/6,,
{4}3,4,5,6,
{4}4/5,4/5,3/6,,
{2}7h[2:1],8,
{4}7,7,7/8,,
{2}2h[2:1],1,
{4}2,2,1/2,,
{2}3h[2:1],4,
{4}3,3,3/4,,
{2}6h[2:1],5,
{4}6,6,5/6,,
{1}4-1[2:1],
{1}8-5[2:1],
{1}4^1[2:1],
{1}8^5[2:1],
{4}4,4,3,3,
{4}5,5,6,6,
{4}7,8,1,2,
{1}1-4[2:1]/8-5[2:1],
{4}3b,2b,1b,,
{4}7,8,7/8,1/6,
{4}2,1,3/8,,
{4}7,7/8,2,1/2,
{4}1/8,1/8,2b/7b,,
{4}3,4,3/4,2/5,
{4}6,5,4/7,,
{4}3,3/4,6,5/6,
{4}4/5,4/5,3b/6b,,
{1}3-8[2:1]/4-7[2:1],
{1}5-2[2:1]/6-1[2:1],
{4}3/4,3/4,5/6,5/6,
{1}4-1[2:1]/5-8[2:1],
{2}2h[2:1],1h[2:1],
{2}8h[2:1],7,
{2}6h[2:1],5h[2:1],
{2}4h[2:1],3,
{2}3h[2:1],4,
{2}6h[2:1],5,
{2}7h[2:1],8,
{2}2h[2:1],1,
{2}3/4,5/6,
{4}4/5,3/6,2b/7b,,
{2}1h[2:1],8h[2:1],
{4}1h[2:1],,8,2/7,
{4}2,1/2,7,7/8,
{4}1/8,1/8,2b/7b,,
{4}6,5,5/6,4/7,
{4}3,4,2/5,,
{4}6,5/6,3,3/4,
{4}4/5,4/5,3b/6b,,
{1}1-6[2:1]/2-5[2:1],
{1}7-4[2:1]/8-3[2:1],
{4}1/2,1/2,7/8,7/8,
{1}1^4[2:1]/8^5[2:1],
{4}6,5,5/6,,
{4}3,4,3/4,,
{4}6,5,4,3,
{4}4/5,4/5,3/6,,
{4}2,1,1/2,,
{4}7,8,7/8,,
{4}2,1,8,7,
{4}1/8,2/7,3/6,4b/5b,
E

EXPERT

(128.0){1},,
{1}7/2>6[2:1],
{1}2/7<3[2:1],
{2}3/4h[2:1],5h[2:1],
{4}6h[2:1],5,5,,
{4}3h[2:3],4,4,4,
{4}5,4,4,4/5,
{4}6h[2:1],5,3h[2:1],4,
{4}6,2/7,{2}8b/1b>8[4:3],{1},
{4}5/2-5[16:3],,6,5/7,
{4}5/2-5[16:3],,6,1/7,
{4}7h[4:1],5,2h[4:1],4,
{8}5/7,,2/4,,2/8,1b,1b,,
{4}2/4,3,4/5,6,
{4}5/7,4,2/5,,
{4}5/7,6,4/5,3,
{4}2/4,5,4/7,,
{4}6,5/7,5/6,4/7,
{4}3,2/4,3/4,5/2>6[4:1],
{4},,7,4/6,
{4}2,3/5,2b/7b,,
{4}4/2p4[16:5],,,4/5,
{4}5/7q5[16:5],,,4/5,
{4}3/2p3[16:5],,,4/5,
{4}6/7,5,2b/7b,,
{2}1/8^5[4:1],1^4[4:1],
{4}8q5[4:1],,1,3/7,
{4}1,2/4,8,5/7,
{1}8b/1b>8[2:1],
{4}7b,5b,3b,2b/7b,
{8}1/8-4[8:1],,1,,2/6,,8,8,
{4}1/7,1/2>7[8:3],,,
{8}8,8,8,,1,1,2/8,,
{8}3/4,,5/6,,3b/8b,7,7,,
{8}8/1-5[8:1],,8,,3/7,,1,1,
{4}2/8,8/7<2[8:3],,,
{8}1,1,1,,8,8,1/7,,
{4}1/3,6/8,2b/7b,,
{4}3/4,1/2,7/8,5/6,
{8}3/4,,1/6,6/1p4[4:1],,,,,
{4}5h[4:1],6h[4:1],7h[4:1],8,
{4}1h[2:1]/8h[2:1],,,3b/6b,
{1}5/4>5[4:5],,
{2}3h[2:1],1h[2:1],
{2}8h[2:1],6h[2:1],
{4}3h[2:3],5,4,2,
{4}1,8,7,5/6,
{4}6h[2:3],4,5,7,
{4}8,1,2,3/4,
{2}5h[4:1]/7h[4:1],2h[4:1]/4h[4:1],
{8}6/8,,1/3,,1,8,1/8,,
{1}2h[4:5]/7h[4:5],
{4},,4b/5b,1b/8b,
{8}8,7,1/6,,1,2,3/8,,
{8}1/4,,5/8,,2b/7b,1,1,,
{8}3-8[8:1]/7-4[8:1],,,,2b/6b,,1,1,
{4}2/8,4q2[4:1]/5<1[4:1],,,
{8}3,4,2/5,,6,5,4/7,,
{4}1/3,6/8,2b/7b,,
{8}2h[4:1],,4h[4:1],,5h[4:1],,7,7,
{8}6/8,,2/8,2/8q5[4:1],,,,,
{4}4h[4:1],3h[4:1],2h[4:1],1,
{4}1h[2:1]/8h[2:1],,,3b/6b,
{4}4/7-4[16:3],3,3,2/4,
{4}4/7-4[16:3],3,3,2/4,
{4}1h[2:1],7,8h[2:1],2,
{8}1,,3/6,,2,8,3b/7b,,
{4}5/2-5[16:3],6,6,7/8,
{4}4/7-4[16:3],3,3,1/2,
{4}6h[4:1],8,3h[4:1],1,
{8}5/7,,2/4,,7,1,2b/6b,
E

MASTER

(128.0){1},,
{1}4/7qq4[2:1],
{1}5/2pp5[2:1],
{2}3/7^4[8:1],6/2^5[8:1],
{4}5pp5[16:5]*qq5[16:5],,,4/6,
{4}8/3qq8[2:1],7,6,5,
{4}1/6pp1[2:1],2,3,4,
{2}7/3^8[8:1],2/6^1[8:1],
{2}1-5[8:1]/8-4[8:1],2>8[1:1]/7<1[1:1],{1},
{4}5b/4b-1[8:1],4/5-7[8:1],5/4-2[8:1],4/5-8[8:1],
{8}5/4^1[8:1],,4/5^8[8:1],,4/5,1b,1b,,
{4}4/5-8[8:1],5/4-2[8:1],4/5-7[8:1],5/4-1[8:1],
{8}4/5^8[8:1],,5/4^1[8:1],,4/5,8b,1b/8b,,
{4}3/4^6[8:1],7,6/5^3[8:1],2,
{4}3/4^6[8:1],7,6/5^3[8:1],2,
{2}3^6[8:1]/4^6[8:1],5^3[8:1]/6^3[8:1],
{4}2h[4:1],4h[4:1],5,4/7,
{4}6/5^3[8:1],2/5,3/4^6[8:1],4/7,
{4}6/5^3[8:1],2/5,3/4^6[8:1],4/7,
{2}6^4[8:1]/7^4[8:1],2^5[8:1]/3^5[8:1],
{4}5/6,3/4,2-5[8:1]/7-4[8:1],,
{1}3>4[2:1]/4p3[2:1],
{1}5q6[2:1]/6<5[2:1],
{1}1>8[2:1]/8q1[2:1],
{2}3h[4:1]/4-8[8:1],6h[4:1]/5-1[8:1],
{4}5/4-8[8:1],3/4,4/5-1[8:1],5/6,
{4}4/3-8[8:1],2/3,5/6-1[8:1],6/7,
{4}1^4[4:1],4^7[4:1],7^2[4:1],2>2[2:1],
{4},,,4/8,
{4}2b,4b,6b,8b-6[8:1],
{4}8/5-1[8:1],3/5,7/2-4[8:1],2/8-6[8:1],
{4}8/1-5[8:1],1/6<4[4:1],1/6,,
{4}7/8^5[8:1],3/8,2/1^4[8:1],1/6,
{8}5pp5[4:1]*qq5[4:1],,,,,1b,1b-3[8:1],,
{4}1/4-8[8:1],4/6,2/7-5[8:1],7/1-3[8:1],
{4}1/8-4[8:1],8/3>5[4:1],3/8,,
{4}2/1^4[8:1],1/6,7/8^5[8:1],3/8,
{8}2qq3[4:1]/6qq7[4:1],,,,,8b,8b,,
{4}2^4[8:1],1q5[8:1],8p4[8:1],7^5[8:1],
{8}4,,3/7,1b/5b,,2,1<2[2:1],8,
{16}7h[2:1],,,,,,,,,,,,1,8,1,8,
{4}2h[2:1]/7h[2:1],,,2b>8[2:3]/7b<1[2:3],{1},,
{2}3h[2:1],4h[2:1],
{2}5h[2:1],6h[2:1],
{8}5qq1[8:3],,6,7,8-4[8:1],,3/8,,
{8}5/4pp8[8:3],,3,2,1-5[8:1],,1/6,,
{2}5-3[8:1]/7<3[8:1],2>6[8:1]/4-6[8:1],
{4}7^4[8:1],2^5[8:1],8-4[8:1],1,
{2}3/4<8[8:1]*q8[8:1],6/5>1[8:1]*p1[8:1],
{4}5/4^7[8:1],3/4^1[8:1],5/4w8[8:1],4,
{4}1b/5b-1[4:5],,,5,
{4}5,5,5w1[8:1],5b,
{4}2/1>5[8:1],1/6,7/8<4[8:1],3/8,
{8}2V48[4:1]/6V48[4:1],,,,,1b,1b-3[8:1],,
{4}1/4-8[8:1],4/7-5[8:1],7/4-8[8:1],4/3-1[8:1],
{4}3/4-8[8:1],4/6<4[4:1],1/6,,
{4}7/8<4[8:1],3/8,2/1>5[8:1],1/6,
{8}3V51[4:1]/7V51[4:1],,,,,8b,8b,,
{4}8-4[8:1],8w4[8:1],8b,3V58[8:3]/5V38[8:3],
{8},,,,,7,8>7[2:1],1,
{16}2h[2:1],,,,,,,,,,,,6pp4[2:1],3qq5[16:7],5,4,
{4},,,2b/7b,
{4}4/3-8[8:1],3/4-6[8:1],4/3-1[8:1],3/4-7[8:1],
{8}4/3^8[8:1],,3/4^7[8:1],,3/4,1b,1b/8b,,
{4}5/6-1[8:1],6/5-3[8:1],5/6-8[8:1],6/5-2[8:1],
{8}5/6^1[8:1],,6/5^2[8:1],,5/6,8b,1b/8b,,
{8}4/3-1[8:1],2,3/4-8[8:1],5,4/3-1[8:1],2,3/4-7[8:1],5,
{8}4/3-8[8:1],2,3/4-6[8:1],5,3/4,1b,1b/8b,,
{8}5/6-8[8:1],7,6/5-1[8:1],4,5/6-8[8:1],7,6/5-2[8:1],4,
{8}5/6-1[8:1],7,6/5-3[8:1],4,5/6,8b,4b/8b,
E

Re:MASTER


名前:
コメント:

タグ:

+ タグ編集
  • タグ:
最終更新:2026年10月04日 08:16