| アーティスト |
SOUND HOLIC feat. Nana Takahashi |
EASY
BASIC
(167.0){1},,,,
{2}1,1,
{2}2,2,
{2}3,3,
{2}4,4,
{2}4/5,4/5,
{2}5,5,
{2}6,6,
{2}7,7,
{2}8,8,
{1}1h[2:1],
{1}8h[2:1],
{1}1-4[4:3]/8-5[4:3],,
{2}6,6,
{2}5,5,
{4}4,4,4,,
{4}5,5,5,,
{2}4,4,
{2}3,3,
{4}2,2,2,,
{4}1,1,1b,,
{4}8,8,8,,
{4}1,1,1,,
{1}8-4[4:3],,
{4}1,1,1,,
{4}8,8,8,,
{1}1-5[4:3],,
{2}6,6,
{4}5,5,5,,
{2}4,4,
{1}3h[2:1],
{2}2,2,
{4}1,1,1,,
{2}1/8,1/8,
{1}2b/7b,
{4}8,8,8,,
{4}7,7,7,,
{4}6,6,6,,
{2}4/5,4/5,
{4}3,4,3,,
{4}6,5,6,,
{4}4,4,4,,
{1}3h[2:1],
{4}1,1,1,,
{4}2,2,2,,
{4}3,3,3,,
{2}4/5,4/5,
{4}6,5,6,,
{4}3,4,3,,
{4}5,5,5,,
{1}5h[2:1]/6h[2:1],
{4}7,7,7,,
{4}7,7,7/8,,
{4}2,2,2,,
{4}2,2,1/2,,
{4}8,8,8,,
{4}8,8,1/8,,
{1}1-5[4:3],
{2},6b,
{4}6,6,6,,
{4}6,6,5/6,,
{4}3,3,3,,
{4}3,3,3/4,,
{4}5,5,5,,
{4}5,5,4/5,,
{4}4,5,4,,
{1}3h[2:1]/6h[2:1],
{2}2,2,
{2}1,1,
{4}8,8,1/8,,
{4}1,1,1/8,,
{2}7,7/8,
{2}2,1/2,
{1}8h[2:1],
{8}1-5[8:5],,,,,,,,
E
ADVANCED
(167.0){1},
{1}1pp4[4:9]/8qq5[4:9],,,
{4}7h[2:1],8,8,,
{4}2h[2:1],1,1,,
{4}6h[2:1],5,5,,
{4}3h[2:1],4,4,,
{1}4-1[2:1]/5-8[2:1],
{4}2,2,1/2,,
{4}7,7,7/8,,
{4}3,3,3/4,,
{4}6,6,5/6,,
{4}3,3,2/4,,
{4}6,6,5/7,,
{1}4qq1[4:5]/5pp8[4:5],,
{4}1,2,3,4,
{4}5,6,7,8b,
{4}8,8,1/7,1/7,
{1}2q7[2:1],
{4}8,7,6,5,
{4}4,3,2,1b,
{1}1-5[8:3],
{4}4/5,4/5,3/6,,
{2}6h[2:1],5,
{4}6,5,5/6,,
{2}3h[2:1],4,
{4}3,4,3/4,,
{2}6h[2:1],5,
{4}6,5,5/6,,
{2}3h[2:1],4,
{1}3-8[8:3]/4-7[8:3],
{4}6h[2:1],5,5,,
{4}6,5,4/7,,
{4}3h[2:1],4,4,,
{4}3,4,2/5,,
{4}7h[2:1],8,8,,
{4}7,8,1/6,,
{2}1b/2b,7b/8b,
{1}1b-5[2:1]/8b-4[2:1],
{4}3,3,2/4,2/4,
{4}6,6,5/7,5/7,
{4}5/6,7/8,1/2,3/4,
{1}5-2[8:3]/6-1[8:3],
{4}2,2,1/3,1/3,
{4}7,7,6/8,6/8,
{1}7^2[2:1],
{4}3b,4b,6b,5b,
{4}3,3,2/4,2/4,
{4}6,6,5/7,5/7,
{4}5/6,3/4,1/2,7/8,
{1}5-2[8:3]/6-1[8:3],
{4}2,2,1/3,1/3,
{4}7,7,6/8,6/8,
{4}1/2,1/2,7/8,7/8,
{4}1/8,2/7,3b/6b,,
{4}7h[2:1],8,8,,
{4}7/8,7/8,1/6,2/5,
{4}3h[2:1],4,4,,
{4}3/4,2/5,1b/6b,,
{4}2h[2:1],1,1,,
{4}1/2,1/2,3/8,4/7,
{1}5-2[2:1]/6-1[2:1],
{4}1/8,2/7,3b/6b,,
{4}6h[2:1],5,5,,
{4}3/4,3/4,2/5,1/6,
{4}7h[2:1],8,8,,
{4}1/2,1/2,3/8,4/7,
{4}6h[2:1],5,5,,
{4}3/4,3/4,2/5,1/6,
{4}7/8,7/8,1/2,1/2,
{1}1-4[2:1]/8-5[2:1],
{4}6,6,5/6,,
{4}3,3,3/4,,
{4}7,7,7/8,,
{4}2,2,1/2,,
{4}7,7,6b/8b,,
{4}2,2,1b/3b,,
{4}1/8,1/8,2/7,2/7,
{4}3/6,3/6,4/5,4/5,
{1}3b/6b,
E
EXPERT
(167.0){1},
{8}2b/7b,,,,,,,5/6,
{8},3/4,,1/2,,7/8z4[8:5],,,
{8},,,,,,3/5,5/3h[8:3],
{4},4,6h[4:1],5,
{4}3h[4:1],4,5,4/5,
{4}6h[4:1],5,3h[4:1],4,
{4}6h[4:1],5,4,3/5,
{8}6,6,5b/7b,,3,3,2b/4b,,
{8}5,,4,,3/5,5/3h[4:1],,4,
{8},4/6h[4:1],,5,,4/6,4/6,,
{8}6/3h[8:3],,4,4,,2/5,,3/6h[8:3],
{8},5,5,,4/7h[8:3],,8,8,
{8},5/6,5/6,,5/3h[4:1],,4,,
{4}4/6h[4:1],5,5/3h[4:1],4qq2[2:1]*pp6[2:1],
{8},,,,,,8,8,
{8},1/7,,2/6,2b/6b,,,,
{8}6,6,5,,3,,2/4,4/2h[4:1],
{8},4h[4:1],,5h[4:1],,7,,4/5,
{8},2/4,2/4,,1h[4:1]/8h[4:1],,,1/8,
{8},3/6,,2-4[8:1]/7-5[8:1],,,,,
{8}3,3,4,,6,,5/6,5/6,
{8},3/4,,1/2,1/2-5[8:1],,,,
{16}6,,6h[16:3],,,5h[16:3],,,4h[16:3],,,3h[16:3],,,2<5[8:3],,
{4},,,2b/7b,
{4}3h[2:1],4,6,5/7,
{4}6h[2:1],5,3,2/4,
{8}3/5,,4/6,,2/7,2/7,,,
{4}7h[4:1],6h[4:1],5,3/4,
{4}5/6h[2:1],3,5,4/7,
{4}4/3h[2:1],6,4,5/2<5[2:1],
{4},,,2/7,
{8}5,5,3,3,2b/4b,,,,
{8}6h[2:1],,,5,5,,4/5,,
{8}3h[2:1],,,4,4,,4/5,,
{4}6,5/7,4,3^8[8:3]/5pp7[8:3],
{4},,,4/5,
{8}3/4h[2:1],,,2,2,,3/5,,
{8}6/5h[2:1],,,7,7,,4/6,,
{16}3h[16:3],,,4h[16:3],,,3,,6h[16:3],,,5h[16:3],,,6,,
{8}4b/7b,,,,3/4,3/4>5[16:9]*p5[16:9],,,
{4},,,2-5[8:1],
{4}8-4[8:1],1-5[8:1],7-4[8:1],3,
{8}3/4,3>7[8:3]/4p6[8:3],,,,,,,
{8}5/4h[4:1],,8,,2/6,2/6,,7/8,
{8},1/2,1-6[8:1]/2-5[8:1],,,,,4/7,
{8},1/2,1^6[8:1]/2^5[8:1],,,,,4/7,
{8},3,4,3,6,5,6,4h[4:1]/7h[4:1],
{8},,4b/7b,,5/6,6/5<4[16:9]*q4[16:9],,,
{4},,,7-4[8:1],
{4}1-5[8:1],8-4[8:1],2-5[8:1],6,
{8}5/6,5q3[8:3]/6<2[8:3],,,,,,,
{8}8/1h[4:1],,5,,3/7,3/7,,1/2,
{8},7/8,7-4[8:1]/8-3[8:1],,,,,2/5,
{8},7/8,7^4[8:1]/8^3[8:1],,,,,2/5,
{8},7,8,7,2,1qq5[8:5],2,,
{4},,,3b/7b,
{8}1-4[8:1],,8-5[8:1],,2,,3,3h[4:1],
{8},5,,1/7,1/7,,3/8,,
{8}2-5[8:1],,8-4[8:1],,2,,3,3h[4:1],
{8},6,,7/8,7/8,,1/6,,
{8}7-4[8:1],,1-5[8:1],,7,,6,6h[4:1],
{8},1,,2/4,2/4,,7/8,,
{8}5h[4:1]/6h[4:1],,,3h[4:1]/4h[4:1],,,2/5,,
{16}3h[4:1]/6h[4:1],,,,,,,,1b/7b,,,1b/7b,,,2b/8b,,
{8}2/8-4[8:1],,1-5[8:1],,7,,6,6h[4:1],
{8},5,,4/7,4/7,,1/6,,
{8}8/7-3[8:1],,1-5[8:1],,6,,7,7h[4:1],
{8},8,,1/6,1/6,,3b/8b,,
{8}1/2-5[8:1],,1-6[8:1],,3,,4,4h[4:1],
{8},7,,1/6,1/6,,2b/8b,,
{8}1,1,8,8,1/8,2/7,3/6,4b/5b<4[8:5],{1},
{8}2,2,1,,3/8,,1/7,1/7h[4:1],
{8},5,,8/2h[4:1],,4,,5/6,
{8},2/7,2-5[8:1]/7-4[8:1],,,,,3/6,
{8},1/8,,3-8[8:1]/6-1[8:1],,,,,
{8}7,7,8,,1/6,,3/8,3/8,
{8},1/2,,7/8,8/7-4[8:1],,,,
{16}2,,2h[16:3],,,4h[16:3],,,3h[16:3],,,6h[16:3],,,5,,
{16},,7h[16:3],,,4h[16:3],,,5h[16:3],,,2,,,3b/8b,
E
MASTER
(167.0){1},
{8}2/7,,,,,,,4/8,
{8},2/6,,3/7,,1pp4[8:5]/5pp8[8:5],,,
{8},,,,,,3/5,6h[4:1],
{8},4,2,3h[4:1],,5,7,6h[4:1],
{8},4,1,3h[4:1],,5,8,7h[4:1],
{8},5,1,2h[4:1],,4,8,6,
{8}5,6,3/7,2,1,2,4/8,7,
{8}8-4[8:1],1,2b,,2-5[8:1],7,6b-1[8:1],,
{8}3b,3,2/8,3,4,3,1/7,6h[4:1],
{8}5,4,2/8,3h[4:1],4,5,1/7,6,
{8}5,6,1/2,3b/8b,4,5,7/8,1b/6b,
{8}5,4,2/8,3,4,3,1/8,2b/7b,
{8}5,4,2/8,3,4,3,1/7,6h[4:1],
{8}5,4,2/5,3h[4:1],4,5,4/7,6,
{8}5,6,4/7,3,4,2/5,6,4/8,
{8},2pp5[16:7]/6pp1[16:7],,,,,,,
{16}3,4,3,,2/5,,1,,8,,1-4[8:1],,8,,1-6[8:1],,
{8},1^4[8:1],,1^6[8:1],,1,,1h[4:1],
{8},8,7-3[8:1]/8-4[8:1],,7/8,,,1-5[8:1],
{8},7,,8-4[8:1],,2,,,
{16}6,5,6,,4/7,,8,,1,,8-5[8:1],,1,,8-3[8:1],,
{8},8^5[8:1],,8^3[8:1],,8-4[8:1],,8,
{16},,1/2,,,3/4,,,5/6,,,7/8,,,2h[8:1]/6h[8:1],,
{16},,3/7b,,,2b/6,,,4/8b,,,1b/5,,,3/7b,,
{8}1-5[8:1],,8,,7,3,5,4,
{8}5,3,2/5,4,5,6,5/7,4,
{8}5,3,4/2h[4:1],,8,4/7-3[8:1],,1-5[8:1],
{8},8-4[8:1],,2-6[8:1],,8,8,,
{8}2,1,3/8,7,8,7,1/6,2,
{8}4,3,4/7,6,5,4qq1[8:5]/6pp1[8:5],,,
{8},,,,,,,1/8,
{8}2/6,4/7,2/5,4/6,3/5-2[8:1],,7b,,
{8}1h[4:1],,4,6,8h[4:1],,5,3,
{8}1,8,7,6,5/6-1[8:1],,3,,
{4}2q6[8:1],8,7p3[8:1],1,
{8}2,1,2,1^6[8:1],,4,4,,
{8}3-8[8:1],4,5,,6-1[8:1],5,4,,
{8}2,7,1,8,2-5[8:1]/7-4[8:1],,,,
{16}1b/2,,,6/7b,,,3b/4,,5b/6,,,2/3b,,,7b/8,,
{16}1b,8,1,8,2,7,2,7,3,4,5,6,7,8,1,2,
{8}8-4[8:1],8,1,1,2-6[8:1],2,8,8,
{8}7h[8:1],8,2h[8:1],1,6h[8:1],5,3h[8:1],4,
{8}3/4,3p8[2:1]/4pp7[2:1],3/4,3/4,,,,,
{8},2,1,2,7,6/8,,2h[4:1],
{8},1,1-6[8:1]/2-5[8:1],,1/2,,,7h[4:1],
{8},8,7-4[8:1]/8-3[8:1],,7/8,,,2h[4:1],
{8},1,7h[8:1],8,2h[8:1],1qq5[8:3],7h[2:1],1,
{16},,,,,,,,3,4,3,4,2,5,2,5,
{8}1-5[8:1],1,8,8,7-3[8:1],7,1,1,
{8}2h[8:1],1,7h[8:1],8,3h[8:1],4,6h[8:1],5,
{8}5/6,5p2[2:1]/6pp1[2:1],5/6,5/6,,,,,
{8},5,4,5,4/6,3/7,,1h[4:1],
{8},5,3-8[8:1]/7-4[8:1],,3/7,,,8h[4:1],
{8},4,2-5[8:1]/6-1[8:1],,2/6,,,7h[4:1],
{8},8,2h[8:1],1,7h[8:1],8pp4[8:3],2h[2:1],8,
{16},,,,,,,,2,3,4,5,6,7,8,1,
{8}2,,1-5[8:1]/2-6[8:1],,1/2,,,3/4-8[8:1],
{8},1,,1,1w5[8:1],,1,,
{8},,7-3[8:1]/8-4[8:1],,7/8,,,6/5-1[8:1],
{8},8,,8,8w4[8:1],,8,,
{8},,4^1[8:1]/8^5[8:1],,4/8,,,3-7[8:1],
{8},8,,6,6-1[8:1],,4,,
{8}3p7[16:3],,5,5q2[16:3],,4,4>5[8:3],,
{16},,,,,,,,4b/8b,,,1b/5b,,,3b/7b,,
{8},,6-1[8:1]/8-3[8:1],,6/8,,,5-2[8:1]/7-4[8:1],
{8},5/7,,1,1w5[8:1],,1,,
{8},,1-6[8:1]/3-8[8:1],,1/3,,,2-5[8:1]/4-7[8:1],
{8},2/4,,8,8w4[8:1],,8,,
{8},,2v5[8:1]/6v1[8:1],,2/6,,,3v8[8:1]/7v4[8:1],
{8},3/7,,5,1,,2/7,,
{8}8-4[8:1],8,1-5[8:1],1,8V62[4:1],8,1>8[8:3],1,
{4},,1w5[8:1],1b,
{16}7,8,7,8,7,,1,,5,,3,,8,,2^7[4:1],,
{8},7-3[4:1],,3^6[4:1],,6,,8,
{8},7/8,7-3[8:1]/8-4[8:1],,7/8,,,3^8[8:1],
{8},5,,6^1[8:1],,4,,,
{16}2,1,2,1,2,,8,,4,,6,,1,,8-5[8:1],,
{8},1-4[8:1],,6-3[8:1],,1,2,2,
{16},,3/7,,,2/6,,,4/8,,,1/5,,,3/7,,
{16},,1h[8:1]/5h[8:1],,,4h[8:1]/8h[8:1],,,2h[8:1]/6h[8:1],,,3h[8:1]/7h[8:1],,,1b/5b,
E
Re:MASTER
最終更新:2026年10月04日 08:16