EASY
BASIC
ADVANCED
EXPERT
MASTER
(150)
{4},,,{8}8,7,
1/6h[4:1],,1,2,8/3h[4:1],,6,5,3-8[8:1],,5,6,78,,1,2,
8/3h[4:1],,8,7,1/6h[4:1],,2h[4:1],,6-1[8:1],,4,3,21,,5,4,
7/3h[4:1],,4,5,2/6h[4:1],,5,4,3-8[8:1],,5,6,78,,7,6h[8:5],
1,2,3,4,{4}4h[4:1],7-2[8:1],3-6[8:1],5,4b/8b,,
{8}7/8^3[4:1],,6,6,6,,6,5,4,3,4,5,6h[4:1],,2,2,
2-5[8:1],,8,8,8-4[8:1],,2,1,8,7,8,1,2,1,28,,
2/1^6[4:1],,3,3,3,,3,4,5,6,5,4,3h[4:1],,7,7,
7-4[8:1],,1,1,1-5[8:1],7,7,8,1,2,1,8,{4}7,4/5-8[8:1],
2,5/4-1[8:1],7,{8}5,6,7,6,5,4,{4}35,1/8-5[8:1],
3,8/1-4[8:1],6,{8}5,4,3,2,18,18,{4}18,3/6^3[8:1],
1,6/3^6[8:1],8,36,{8}7^4[8:1],8,1,1,2^5[8:1],1,8,8,
56,56,34,34,{16}6,5,6,5,{4}6<3[4:1],,,2b/7b,{8}3/8-3[8:1],2,
1,,6/1-6[8:1],7,8,,7^4[8:1],7,3^8[8:1],3,7,7,16,,4/6-1[8:1],3,
2,,5/3-8[8:1],6,{4}7,3/6qq3[2:1],,,1,{8}3/8-3[8:1],2,
1,,6/1-6[8:1],7,8,,2^5[8:1],2,6^1[8:1],6,2,2,83,,7,8,
12,3,4,5,46,,2-7[8:1]/6,6,{4}6-3[8:1],4,1b/5b,{8}1,2,
8/3h[4:1],,8,7,1/6h[4:1],,3,4,6-1[8:1],5,4,3,21,,8,7,
5/6h[4:1],,1,2,4/3h[4:1],,7h[4:1],,1-4[8:1],8,7,6,{2}5/4h[2:7],
{1},,,{4},,,{16}1,8,1,8,
{4}1h[2:1],3,3h[2:1],5,5h[2:1],7,7h[4:1],8,
{8}24,3,57,6,{16}3,4,3,4,{8}2,,75,6,42,3,{16}6,5,6,5,{8}7,,
{4}8h[2:1],6,6h[2:1],4,4h[2:1],2,2h[4:1],1,
{8}75,6,42,3,{16}6,5,6,5,{8}7,,24,3,57,6,{16}3,4,3,4,{8}2,,
2h[4:1],,4,35,4h[4:1]/6,,7,63,2h[4:1]/5,,5,36,{4}4h[4:1]/7,8,
1^4[4:1],4^7[4:1],7^2[4:1],2>8[2:1],8,,,{8}1,1,
7h[4:1],,5,64,5h[4:1]/3,,2,36,7h[4:1]/4,,4,63,{4}5h[4:1]/2,1,
8^5[4:1],5^2[4:1],2^7[4:1],7<1[2:1],1,,,{8}8,8,
{2}8-3[8:1]*-5[8:1],1-6[8:1]*-4[8:1],{8}35,2,3,46,7,6,53,,
{2}1-6[8:1]*-4[8:1],8-3[8:1]*-5[8:1],{8}64,7,6,53,2,3,46,,
1-5[8:1]/6,,7,7,8-4[8:1],,4,3,2^5[8:1],1,8,8,7^4[8:1],8,1,1,
43,43,65,65,{16}3,4,3,4,{4}3>6[4:1],,,{2}7h[4:5]/2h[4:5],,,
6h[4:3],3h[4:1],{4}45,45,36,,{1}4h[2:3]/5^8[2:1],{4}7,6,5,,
4h[4:1]/5,7,7h[4:1]/4,2,{4}1^4[4:1]/8^5[4:1],,,{8}3,4,
5,6,5,4,3h[4:1],,5,5,{4}4-1[8:1]/5-8[8:1],,2b/7b,{8}3/8v3[8:1],2,
1,,6/1v6[8:1],7,8,,7^4[8:1],7,3^8[8:1],3,7,7,16,,7/5-1[8:1],6,
6,,2/4-8[8:1],3,{4}3,3/6qq3[2:1],,,1,{8}3/8v3[8:1],2,
1,,6/1v6[8:1],7,8,,2^5[8:1],2,6^1[8:1],6,2,2,83,,2,1,
87,6,5,4,53,,2-7[8:1]/6,6,{4}6-3[8:1],4,{1}1b/5b,,,,E
Re:MASTER
- MASTER譜面を追加しました。修正等ありましたらよろしくお願いします。 -- けもがみ (2026-04-06 19:48:55)
最終更新:2026年10月03日 22:27