アットウィキロゴ

Metamorphosism

アーティスト 削除

BPM BASIC ADVANCED EXPERT MASTER Re:MASTER
144 6 8 12+ 14+ -

EXPERT MASTER Re:MASTER
譜面制作者 翠楼屋 はっぴー -

BASIC

(144){2},Chf[2:3],,,{1},,B1,B8,B2,B7,B3,B6,Chf[1:1]/B4/B5,,1-4[4:3],,5-8[4:3],,{2}1,2,3,4,5,6,7,1/8,{12}1x,,1x,,1x,,{2}1x,{12}8x,,8x,,8x,,{2}8x,1hx[1:1]/8hx[1:1],,{1},{4}7,7,7x/8x,,6,6,5x/6x,,3,3,3x/4x,,2,2,1x/2x,,3,3,3x/4x,,6,6,5x/6x,,7,7,7x/8x,,1/8,1/8,1/8,,

(108){4}7hx[8:3]/8hx[8:3],,,7/8,,,6hx[8:3]/5hx[8:3],,,6/5,,,3hx[8:3]/4hx[8:3],,,3/4,,,2hx[8:3]/1hx[8:3],,,2/1,,,{4}1b,1,2,2,3,3,4/5,4/5,5,5,6,6,7,7,8,1/8,{1}1-4[2:1]/8-5[2:1],{2},Cf,{8},,,1,1,1,1,,,8,8,8,8,,,7/8,,,6,,,5/6,,,4,,,3/4,,,2,,,1/2,,,1h[4:3]/2h[4:3],,,,{1},8h[8:5]/7h[8:5],{4},,1x/8x,,{16},

(144){8},,1,1,1,,2,,2,,3,3,3,,3/4,,3/4,,5,5,5,,6,,6,,7,7,7,,7/8,,,,1,1,1,,8,8,8,,1/8,1/8,1/8,,2b/7b,,,,8,8,8,,7,,6,,5,5,5,,4,,3,,2,2,2,,1,,8,,
7,7,7,,7/8,,7/8,,1,1,1,,1/2,,1/2,,8,8,8,,1b/7b,,,,{1}8-3[4:3],,2-5[4:3],,6-2[4:3],,1-4[4:7]/8-5[4:7],,,{12}3,,3,,3,,{2}3/4,{12}2,,2,,2,,{2}1/2,{12}7,,7,,7,,{2}7/8,{12}6,,6,,6,,{2}5/6,{12}4,,4,,4,,5,,5,,5,,4/5,,4/5,,4/5,,3/6,,3/6,,3/6,,2b/7b,E

ADVANCED

(144){1},,4qq1[4:5],,8qq5[4:5],,4pp1[4:5],,8pp5[4:5],,Ch[1:1],,{2}E5,E4,E3,E2,E1,E8,E7,E6,E5,B4/B5,B3/B6,B2/B7,1xpp4[1:1]/8xqq5[1:1],,,,{12}3/6,,,,4x/5x,,4x/5x,,,,3/6,,3/6,,,,2/7,,2/7,,,,1/8,,{1}1b/8b<1[4:5],,{2}2h[2:1],1h[2:1],8h[2:1],7,6h[2:1],5h[2:1],4h[2:1],3,3h[2:1],4h[2:1],5h[2:1],6,7h[2:1],8h[2:1],1h[2:1],2,

(108){4}8<5[4:1],,,4>1[4:1],,,8<5[4:1],,,3,3/4,3/4,2q6[4:1],,,7p3[4:1],,,2>5[4:1],,,{8}4/5,4/5,3x/6x,3x/6x,2x/7x,2x/7x,{4}8h[4:1],1,2h[4:1],1,3h[4:1],4,5h[4:1],4,6h[4:1],5,3h[4:1],4,2h[4:1],1,8h[4:1],1,7h[4:1],8,2h[4:1],1,3,4>1[8:3]/5<8[8:3],,,,{8},8,7,6,5,4,3,2,1,8,{4}7-3[4:1],,,2v5[4:1],,,6v1[4:1],,,2>5[4:1],,,{8}E6/B6,,,B5/B4,,,E4/B3,,,B2/B7,,,{1}Ch[2:3],,{16},

(144){8}1x/8x,,7b,7,7/8,,2,2,1/2,,3,3,4,4,5,5,4/6,,3,3,3/4,,6,6,5/6,,7,7,8,8,1,1,8,,2,2,1/2,,7,7,7/8,,6,6,5,5,4,4,4/5,,3b,3,3/4,,6,6,5/6,,
7,7,8,8,1,1,2/8,,7,7,7/8,,2,2,1/2,,3,3,4,4,5,5,4,,6,6,5/6,,3,3,3/4,,2,2,1,1,1/8,,2/7,,7h[8:1]/8h[8:1],,7/8,,2h[8:1]/1h[8:1],,2/1,,
7h[8:1]/8h[8:1],,7/8,,5h[8:1]/6h[8:1],,7/4,,4h[8:1]/3h[8:1],,2/5,,8h[8:1]/1h[8:1],,2/7,,{1}1pp4[1:1]/8qq5[1:1],,3h[2:1]/6h[2:1],

{16}5x/6x,,,,,4x/7x,,,,,4x/3x,,,,5x/2x,,{4},,,3x/6x,4x/5x,,B3/B6/Cf,,{12}1,,2,,3,,4,,5,,6,,7,,8,,1,,2,,3,,4,,5x,,4x,,3x,,2x,,1x,,8x,,7x,,6x,,5x,,4x,,3x,,2x,,1,,2,,3,,4,,5,,6,,7,,8,,1,,2,,3,,4/5,,B3/B6/Cf,E

EXPERT

(144){2},4h[4:5]/5h[2:1],,{4},5h[4:25],Cf,,,{8},E5,,,,,,,,E6,,,,,,,,E7,,,,,,,,,Ch[12:8],,,,,,{24},,E1,,,,,,,,,C,,,,,,E5,{8},,,Ch[12:14],,,,,,,{12},8h[12:8],,{4},,,8z4[1:1],1s5[4:3],,,,,,{8},5,5,,4h[4:7]/6h[4:3],,,,,,,6,7h[4:7],,,,,,,4,5h[8:5],,,,,,5w1[2:1],,,,,,,,,,2h[12:8]/8,,,,4h[12:8],,,,5h[12:8],,,,6h[2:1],,,,{12}3hx[2:1],,5,,,,6h[2:1],,4,,,,3h[2:1],,4,,,,5h[2:1],,4,,,,3h[12:2],,2h[12:2],,1h[12:2],,8h[12:2],,7h[12:2],,6h[12:2],,
5h[12:2],,6h[12:2],,7h[12:2],,8h[12:2],,1h[12:2],,2h[12:14],,{4}3h[1:2],,,,,,E6/B6/B5,,{2}4h[1:1],Cf,{12}2h[1:1],,3,,,,Cf,,,,,,1h[4:5],,3,,,,Cf,,,,,,2h[1:2],,,,,,Cf,,,,,,{4}8h[2:1],,{12},,8,,8,,7h[1:1],,8h[12:2],,,,Cf,,,,,,6h[1:1],,7,,,,Cf,,,,,,{1}7h[4:3],

(108){8}1-5[8:1],2<7[8:3],{4},,{8}5-1[8:1],6>3[8:3],{4},,{8}2-6[8:1],1>4[8:3],{4},,{8}7-3[8:1],8<5[8:3],{4},,{8}3-7[8:1],4>1[8:3],{4},,{8}6-2[8:1],5<8[8:3],{4},,2>5[8:3],{8},1b,{8},,8,8,1/7,2/6,3/5,3b/5b,{16}2-4[8:1]*-6[8:1],2,2,,,,,,5-1[8:1]*-2[8:1],5,5,,,,,,8-4[8:1]*-6[8:1],8,8,,,,,,5-1[8:1]/3-1[8:1],5/3,5/3,,,,,,8-4[8:1]*-5[8:1],8,8,,,,,,3-7[8:1]*-8[8:1],3,3,,,,,,1-5[8:1]/6-1[8:1],1/6,1/6,,,,,,8-4[8:1]/4-1[8:1],8/4,8/4,,,,,,{4}2b/5h[8:7],{12}3,3,3,4,4,4,3h[8:1],,,{16}2-5[8:1]/6-1[8:1],2/6,2/6,,,,,,4h[8:7]/8h[2:1],,,,,,,,,,8z4[8:7],,{4},,,,,{8}3,2,1/7,8,1/2,3,1/8,7,6/8,7,2/8,1,7/8,6,1/8,2,1/2,3,1/3,4,7/8,6,6/8,5,{2}3h[2:3]/7h[8:11],,,{12}B3,,Ch[12:4]/B7,,,,{8},8x,8xh[4:3],,,2hx[8:3],,,,,,,{16},

(144){8}4b/5b,,6v8[8:1],6,1-5[8:1],1,7-3[8:1],7,2-6[8:1],2,5v3[8:1],5,2-6[8:1],2,7-3[8:1],7,1-5[8:1],1,4-8[8:1],4,3v5[8:1],3,6v8[8:1],6,1-5[8:1],1,6-2[8:1],6,3-7[8:1],3,5,5,8b,,5/6,5/6,4/5,4/5,3/4,3/4,2/5,2/5,3/4,5/6,7/8,1/2,3/4,3/4,2b/5b,,3v5[8:1],3,7-3[8:1],7,1-5[8:1],1,8,7,6v4[8:1],6,2-6[8:1],2,8-4[8:1],8,1,2,3v1[8:1],3,7-3[8:1],7,4-8[8:1],4,6v4[8:1],6,2-6[8:1],2,8v2[8:1],8,4-8[8:1],4,6,,7,7,7/8,5/6,3/4,1/2,3/8,4/7,{16}6,5,6,5,6,5,6,,3b/7b,,,,{8},,3h[4:1],4,5h[4:1],4,3h[4:1],4,B3/B4,,7h[4:1],5,4h[4:1],6,7h[4:1],5,B6/B7,,3h[4:1],4,5h[4:1],4,2h[12:5],3,{12}4h[12:2],,,1h[12:1]/5h[12:1],,1h[12:1]/5h[12:1],,2h[12:1]/6h[12:1],,2h[12:1]/6h[12:1],,3h[12:1]/7h[12:1],,3h[12:1]/7h[12:1],,
4h[12:1]/8h[12:1],,4h[12:1]/8h[12:1],,1h[12:1]/5h[12:1],,1h[12:1]/5h[12:1],,6h[12:1]/8h[12:1],,6h[12:1]/8h[12:1],,5h[12:1]/7h[12:1],,
5h[12:1]/7h[12:1],,6h[12:1]/4h[12:1],,3h[12:1]/5h[12:1],,6h[12:1]/2h[12:1],,2/6,,

{16}E3/B3/B4/E4,,,,,E7/B6/B5/E6,,,,,E3/B2/B3/E4,,,,E7/B7/B6/E6/Ch[4:1],,{4},,,{16}1h[8:1]/8h[8:1],,,2h[8:1]/7h[8:1],,,Chf[8:3]/B3/B6,,{4},,,{12}2h[4:1],,8h[4:1],,6h[4:1],,7h[4:1],,1h[4:1],,3h[4:1],,2h[4:1],,4h[4:1],,5h[4:1],,7h[4:1],,5h[4:1],,4,,E4/B4,,E3/B2,,E1/B8,,E7/B6,,B4/E5,,
C,,E1/B1/E2,,E3/B3/E4,,E6/B5/E5,,E7/B8/E8,,E2/B2/E3,,C,,{12}1h[12:1]/8h[12:1],,1h[12:1]/8h[12:1],,2h[12:1]/4h[12:1],,4h[12:1]/5h[12:1],,5h[12:1]/7h[12:1],,7h[12:1]/8h[12:1],,6h[12:1]/7h[12:1],,
6h[12:1]/4h[12:1],,3h[12:1]/4h[12:1],,1h[12:1]/3h[12:1],,1h[12:1]/8h[12:1],,2/7,,Cf/B1/B2/B3/B4/B5/B6/B7/B8,E

MASTER

(144)
{8},,,{24}E3/E7,E4/E6,E5,{2}Ch[4:2],
{24}B2/B7,B1/B8,E1,,,,{16}B4/B5,,,{32}E7,B7,C,B3,E3,,{8},1>8[4:31],,
{1}8b,,,,{4}1h[16:1],{16}4x,{32}E7,E6,E5,E4,E3,,,,,,{4}4h[16:1],
{16}1h[4:1],,,,,2h[4:1],,,,,3h[8:1],,,,,4,,,4,,,4pp1[16:21],,,,,
{4},,,,,,{24}4,8,4,8,4,8,3,7,3,7,3,7,2,6,2,6,2,6,1s5[8:1],5,1,5,1,5,{4}1b,,,

7qq8[4:2],1h[4:1],,2h[4:1],8qq2[4:2],3h[4:1],,4h[4:1],,
1pp6[4:2]/5h[4:1],,6pp2[4:3]*qq1[4:3],,,,,,Ch[24:40],B8,{24}E1/B7,,,,
{24}E2,,B6,,E3,,,,E4/B5,,,,E5,,B4,,E6,,,,B3/E7,,,,E8,,B2,,E1,,,,
{12}1,1,1,1,1,1,3,3,3,3,3,3,5,5,5,5,5,5,7,7,7,7,7,7,
{24}1,2,3h[4:1],,8,7,6h[4:1],,,4,5h[4:1],,,7,8h[4:1],,,4,3h[4:1],,,7,6h[4:1],,
,2,1h[4:1],,,5,4h[4:1],,,2,3h[4:1],,,5,6h[4:1],,,4,5^8[8:1]*qq1[4:5],,,5,4,,

{4}5b,,,,,,{8}E6,E5,E4,,
{12}45,4,4,4/2>6[8:1],,,2b/8,8,8,84,4,4,45,5,5,5/3<7[8:1],,,3b/1,1,1,14,4,4,
46,6,6,6/4<8[8:1],,,4b/1,1,1,16,6,6,62,2,2,2/5<1[8:1],,,5b/3,3,3,37,7,7,
74,4,4,4/6<2[8:1],,,6b/5,5,5,58,8,8,83,3,3,3/7>3[8:1],,,7b/5,5,5,51,1,1,
16,6,6,6/8>4[8:1],,,8b/7,7,7,72,72,72,46,46,35,35,6,6,57,57,48,48,31,31,

(108)
{8}2V46[4:1],,6V82[4:1],E7,2V46[4:1],E3,6V82[4:1],,
2V46[4:1],E3,6V82[4:1],,2V46[4:1],,6V82[4:1],E7,2,,
{16}6,6,4,4,5,5,3,3,{32}6,5,4,3,6,5,4,3,
{8}7V13[4:1],,3V57[4:1],E4,7V13[4:1],,3V57[4:1],,
7V13[4:1],E8,3V57[4:1],,7V13[4:1],,3V57[4:1],,7,,
{16}1,1,1,28,37,46,46,46,35,35,26,26,

1-5[16:1],5-8[16:1],8-4[16:1],4-1[16:1],{4},
{16}7-3[16:1],3-8[16:1],8-4[16:1],4-7[16:1],{4},
{16}2-6[16:1],6-1[16:1],1-5[16:1],5-2[16:1],{4},
{16}8-4[16:1],4v2[16:1]*v6[16:1],6,2,{4},
{16}8-4[16:1],4-1[16:1],1-5[16:1],5-8[16:1],{4},
{16}2-6[16:1],6-1[16:1],1-5[16:1],5-2[16:1],{4},
{16}7-3[16:1],3-8[16:1],8-4[16:1],4-7[16:1],{4},
{16}1-5[16:1],5v3[16:1]*pp6[16:3],3,7,{4},1b,
{24}35,4,4,4,4,4,3,5,5,5,5,5,{8}46,37,
{16}2-6[16:1],6-3[16:1],3-7[16:1],7-2[16:1],{4},5h[4:2],,,

{16},,8,8,7,7,6,6,5,5,4,{32}47,8,13,2,3,4,52,6,{16}2,1,1,8,8,
1,2,3,4,5-8[8:1],6,7,8,5,4,3,2,1,8,7,6,5-2[8:1],4,3,2,5,6,7,8,
1-5[8:1],2,3,4,1,8,7,6,5-1[8:1],4,3,2,5,6,7,8,
1-5[8:1],2,3,4,1,2,3,4,{2}5h[4:6],,,
{16},E5,,4h[16:1],,{32}E7,E6,E5,E4,E3,,{8}1x-5[8:7],8,7h[4:1],,,
{4}6h[8:1],,,{16},,,4b/5b,,,

(144)
{8}2-6[8:1]/4,6-1[8:1]/4,8,5,4-8[8:1],8-6[8:1]/5,3,1,
3-6[8:1],6V42[8:1]/2,5,8,7-3[8:1],1-5[8:1]/5,47,1,
7-3[8:1],3-8[8:1]/5,1,4,5-1[8:1],1-3[8:1]/4,6,8,
6-3[8:1],3V57[8:1]/7,4,1,2-6[8:1],8-4[8:1]/4,25,8,
3-7[8:1],7V13[8:1]/5,8,6,5-1[8:1],1-5[8:1]/7,4,2,
3,47,24,1,{32}5,6,7,8,1,2,3,4,{4}5/1b,
{8}7-3[8:1]/5,3V17[8:1]/5,2,4,5-1[8:1],1>5[8:1]/4,6,8,
6-3[8:1],3V57[8:1]/7,2,1,2-5[8:1],8-6[8:1]/4,25,8,
2-6[8:1],6V82[8:1]/4,7,5,4-8[8:1],8V64[8:1]/5,3,1,
3-6[8:1],6>2[8:1]/2,7,8,7-4[8:1],5,{16}47,3,3,,
{8}6-2[8:1],2V86[8:1]/4,3,5,4-8[8:1],28,46,3,
{32}1,2,3,4,5,6,7,8,1,2,3,4,5,6,7,8,
{4}1/Chf[4:1],B2/B3/B4/B5/B6/B7/E3/E4/E5/E6/E7,

{8}1-4[8:1]/8,1,8-5[8:1]/1,8,3-6[8:1]/8,4,{12}7-2[8:1]/3,8,8,
{8}4-1[8:1]/7,3,5-8[8:1]/4,6,2-7[8:1]/5,1,{12}6-3[8:1]/2,5,5,
{8}1-5[8:1]/6,2,8-4[8:1]/1,7,{12}4^1[8:1]/8,3,3,5^8[8:1]/4,6,6,4^1[8:1]/5,3,3,45,6,6,
{24}1-5[1:2],2,3,6,7,8,1,2,3,6,7,8,1,2,3,6,7,8,1,2,3,6,7,8,1,2,3,6,7,8,1,2,3,6,7,8,{1}1b,

{32}1x/8x,27,36,4h[32:3]/5h[32:3],,,,,,2x/1x,38,47,5h[32:5]/6h[32:5],,,,,,,,
8x/7x,16,25,3h[32:2]/4h[32:2],,,,,1x/8x,27,36,4h[16:11]/5h[16:11],{4},,,
{32}8x/7x,16,25,3h[32:2]/4h[32:2],,,,,2x/1x,38,47,5h[32:5]/6h[32:5],,,,,
{4},B3/B4/B5/B6/E4/E6/Cf,,

{24}8,7,6h[4:1],,1,2,3h[4:1],,,5,4h[4:1],,,2,1h[4:1],,,5,6h[4:1],,,2,3h[4:1],,
,7,8h[4:1],,,4,5h[4:1],,,7,6h[4:1],,,4,3h[4:1],,,5,4v5[2:3],,,4,5,,
{12}8,,2,2,1,,6,6,8,,3,,1,,7,7,8,,1,1,1,1,1,1,
{24}1h[24:4]/3,4,5h[4:1],,,2,3h[4:1],,,6,7h[4:1],,,4,5h[4:1],,,8,1h[24:10],,,6,7h[24:2],,
,6,5h[4:1],,,8,7h[4:1],,,4,3h[4:1],,,6,5,,,4,5w1[8:1],,37,,,,{1}5b,,,,E

Re:MASTER


  • BPMは144(108)固定と削除氏が明言しているので修正しました。 -- けもがみ (2022-08-08 05:31:13)
  • スライドの速さを修正しました。 -- けもがみ (2026-01-11 07:19:53)
  • ノーツの開始位置を調整しました。 -- けもがみ (2026-02-02 22:42:20)
  • BASIC,ADVANCED,EXPERT譜面を追加しました。修正等ありましたらよろしくお願いします。 -- Sugar (2026-07-04 23:11:31)
名前:
コメント:

タグ:

+ タグ編集
  • タグ:
最終更新:2026年07月04日 23:11