アットウィキロゴ

WiPE OUT MEMORIES

アーティスト t+pazolite

BPM BASIC ADVANCED EXPERT MASTER Re:MASTER
210 6 8+ 12+ 14+ -

EXPERT MASTER Re:MASTER
譜面制作者 Jack maimai Fumen All-Stars -

BASIC


ADVANCED


EXPERT


MASTER

(210){24}
4b,5,4,{8}5-1[1:1],,,,,,,
,,,,,,{16}8,1,8,,
{8}2x/7x,,35,4,7,6,35,2,
1/7-3[8:1],,4-1[8:1],,,,2b/6b,,
3h[8:1]/5h[8:1],,3h[8:1]/5h[8:1],,{16}6,5,6,,7,,7,,
3,4,{8}3,2,2,17,17,2h[16:1]/6h[16:1],,
3x/5x,,46,5,2,3,46,7,
3/8-3[8:1],,4-1[8:1],,,,26,,
5,5,4,4,{16}5,4,5,4,5s1[2:1],4,5,4,
{4}5,,2-6[8:1],8b,

{16}4h[8:1]/7h[8:1],,,4h[8:1]/7h[8:1],,,47,,6,5,6,,45,,3,,
12,,8,,47,,6,5,6,,47,,3,,2,,
1h[8:1]/6h[8:1],,,2h[8:1]/5h[8:1],,,25,,3,4,3,,45,,56,,
47,,2,1,,3,4,,7,8,,6,5,,46,,
3h[8:1]/7h[8:1],,,3h[8:1]/7h[8:1],,,46,,3,4,3,,25,,25,,
34,,5,,46,,7,8,7,,1,,28,,37,,
4h[8:1]/6h[8:1],,,4h[8:1]/6h[8:1],,,3h[8:1]/5h[8:1],,,3h[8:1]/5h[8:1],{8},26,1,
2/8-4[8:1],7-3[8:1],8,7,,2,28,,

{2}1h[2:1],6h[2:1],1h[2:1],5h[2:1],
1h[2:1],4h[2:1],1h[2:1],3h[2:1],
1h[2:1],2h[2:1],3h[2:1],4h[2:1],
5h[2:1],6h[4:5],4h[4:3],,
{8}E1,,C,,B6,B5,B4,B3,
,B7/E8,,B2/E2,,B6,B3,,
E5,,C,,B3,B4,B5,B6,
,B2/E2,,B7/E8,,E6,E5,E4,
,,C,,B7,B5,B4,B1/B2,
,B7/B8,,C,,E4,E5,E6,
,,37,,4,4,6,6,
{4}5-1[8:1],,8b,,

4>8[2:1]/5,5,5,5,58,57,56,{8}4,4,
{4}4/5<1[2:1],4,4,4,14,24,34,{8}5,5,
45,,56,,35,,57,,
16,2,37,6,25,3,48,7,
3x/6h[1:1],3,3,3,2x,2,2,2,
1xh[2:1],,2,,{32}E3,B3,B4,B5,B6,E7,,,{4},

1h[4:1]/7b,{16}7,6,5,4,8,7,6,5,1,8,7,6,
2,1,8,7,3,2,1,8,4,3,2,1,C,,,,
1,7,1,7,2,6,2,6,3,5,3,5,4,6,4,6,
5,7,5,7,4-1[8:1],8,4,8,{4}4-7[8:1],4>6[4:3],
Cf,,,1b,
{16}8,7,6,5,1,8,7,6,2,1,8,7,C,,,,
2,8,2,8,3,7,3,7,4,6,4,6,3q6[2:1],5,3,5,
{4}3,,,47,

{8}5b-1[8:1]/6h[16:1],6h[16:1],6h[16:1],6h[16:1],4-2[8:1]/6h[16:1],6h[16:1],6h[16:1],6h[16:1],
5-1[8:1]/6h[16:1],6h[16:1],6h[16:1],6h[16:1],1x/6x,,4x/5x,,
3h[16:1]/4-8[8:1],3h[16:1],3h[16:1],3h[16:1],3h[16:1]/5-1[8:1],3h[16:1],3h[16:1],3h[16:1],
3h[16:1]/4-8[8:1],3h[16:1],3h[16:1],3h[16:1],3x/8x,,56,,
4-8[8:1]/7h[16:1],7h[16:1],7h[16:1],7h[16:1],5-2[8:1]/7h[16:1],7h[16:1],7h[16:1],7h[16:1],
4-8[8:1]/6h[16:1],6h[16:1],6h[16:1],6h[16:1],57,,3b/8b,,
2h[16:1]/5-1[8:1],2h[16:1],2h[16:1],2h[16:1],2h[16:1]/3-8[8:1],2h[16:1],2h[16:1],2h[16:1],
3h[16:1]/6-1[8:1],3h[16:1],3h[16:1],3h[16:1],3x/8x,,45,,
3b-7[8:1],3,8-4[8:1],8,1-5[8:1],1,8,7,
6-3[8:1],6,2^7[8:1],2,4x,,35,,
2-5[8:1],2,8-4[8:1],8,3-8[8:1],3,7,6,
5-1[8:1],5,3^6[8:1],3,8x,,17,,
28,28,3,3,46,46,5,5,
4,3,2,1,8,7,6,5,
{16}4,5,6,7,8,1,2,3,4,5,6,7,{4}8<1[2:1],
1/8x,,{8},8b,1b,,

{16}2-5[16:1],1,2,1,2b,,7-4[16:1],8,7,8,7b,,2^5[16:1],1,2,1,
2b,,7-3[16:1],8,7,8,7b,,2b,8b,2b,8b,2b,,,,
6-1[16:1],5,6,5,6b,,3-8[16:1],4,3,4,3b,,7,1,7,1,
{32}7bv4[16:1],6,5,4,3v8[16:1],2,1,8,{8}7x,3x,5,1,3b/7b,,
4b/8b-4[8:1],8,2,2,{16}4x,3,2,1,7,6,5,4,
1-5[8:1],,1,,7,,7,,5x,6,7,8,2,3,4,5,
7^4[8:1],,7,,3,,3,,1h[16:3]/2-5[8:1],,,2,{8}1,6,
78,,18,18,{32}1b/8b,27,36,45,{8},1x/8x,,
2x/7x,,,{16},3/B6,,,,,,,,5/B3,
{8},,2-5[8:1],5-2[8:1],{4}2bV85[4:1],,
6x,7-5[8:1]/8-4[8:1],7-3[8:1]/8,2-6[8:1]/7,
2/5-8[8:1],{8}3-1[8:1]/5-1[8:1],4,35,,3h[2560:1]/8h[2560:1],,
{16}1b,1,1,1,1,1,1,1,1b,1,1,1,1,1,1,1,
1b,1,1,1,1,1,1,1,1b,1,1,1,1,1,1,1,
1b,1,1,1,1b,1,1,1,1b,1,1,1,1b,1,1,1,
{8}1b/8,2b/7,3b/6,4b/5,4-1[8:1]/5b-8[8:1],,,,
{1}B1/B2/B3/B4/B5/B6/B7/B8/Cf/E5,,,,

B6/B7/Ch[1:1],{4}8z4[2:1],,2-6[8:1],2b,
{16}7x/8x,,6,,45,,3,,2,1,{8}3,4/8-4[8:1],7-3[8:1],
8V26[4:1],7,8,5,,7,1/7^4[8:1],,
4,3,12,38,{16}7,5,6,,35,,24,,
15,,7,8,{8}6,15,2-5[8:1],1-6[8:1],2,1,
4^1[8:1]*^7[8:1],,4b,,8x,8,7,1/6-3[8:1],
,2-6[8:1]/6-1[8:1],,2^4[8:1]/6,,{24}8x,7x,6x,{8}5b,,
6,57,3,24,{16}1,7,2,6,{8}3,4-2[8:1]/5-7[8:1],
,45,,18,2w6[8:1]/7,,2b,,
48,7,26,3,{16}6,5,{8}7,1-5[8:1]/8,2-6[8:1],
1V73[4:1],2,1,4,,2,2^5[8:1]/8,,
5,6,78,16,{16}3,4,2,,17,,26,,
35,,6,5,7,,48,,13,,2,4,3,5,4,6,
5w1[8:1],,,,{32}5b,B5,Cf,B1,{8},37,37,2,1-5[8:1]/8-6[8:1],
,1b-3[8:1]/8b-4[8:1],,1b/8b,,{16}6,5,{8}6,47,
3-8[8:1]/8-4[8:1],,3b/8b,,2x/5x,25,36,36,
{32}4b,5,6,7,8,1,2,3,4b,5,6,7,8,1,2,3,{4}4b-8[8:1],7b<1[4:9],

{1},,,
{8}1h[4:1],,4q5[16:5],4,Cf,,,,
7h[8:1],{16}8,6h[8:1],,1,5h[8:1],,2,4h[8:1],,3,4,,25,,
7,8,7,,16,,3,4,,7,5,,36,,27,,
1b/8b,,,,4b/5b,,,,7b/8b,,7b/8b,1b/6b,2b/5b,,1b/2b,3b/8b,
4b/7b,,4b/7b,,2b/5b,,2b/5b,,1bv4[8:1]/8bv5[8:1],,,,Cf,,,,
36,,7,8,,3,4,,2,1,,6,5,,34,,
2,1,3,8,4h[8:1],,6,5,,2,4,,18,,27,,
3,4,2,6,5,7,3,4,1,6,5,8,3,5,1,,
{4}2-5[8:1]/6-1[8:1],{1}2b/6b/B1/B2/B3/B4/B5/B6/B7/B8/Cf/E3/E7,,,E

Re:MASTER


名前:
コメント:

タグ:

+ タグ編集
  • タグ:
最終更新:2026年04月05日 14:09