アットウィキロゴ

Reach For The Stars (Re-Colors)

アーティスト 大谷智哉「ソニックカラーズ アルティメット」

BPM BASIC ADVANCED EXPERT MASTER Re:MASTER
203 5 7+ 11 13+ -

EXPERT MASTER Re:MASTER
譜面制作者 隅田川星人 小鳥遊さん -

BASIC


ADVANCED


EXPERT


MASTER

(203){8}
4h[8:7],,,,,,,5h[8:7],
,,,,,,4^6[2:1],,
3h[8:7],,,,,,,6h[4:3],
,,,,,5,45,,
{2}2h[2:1],1h[2:1],
8h[2:1],7h[2:1],
6h[8:5],{8},7h[8:1],8h[1:1],1h[8:7],
{4},,,,
5h[2:1],6,6h[2:1],7,
7h[2:1],8,8h[2:1],1,
1h[8:5],,{8},8,1,2h[8:7]/7h[8:7],
{1},

{8}1x/8x,2,34,,57,,24,,
56,56,,78,,1/2>1[8:5],,6,
,,,,,,34,,
B6,B7,B8,B1,B2,B3,,,
7x/8x,6,25,,47,,35,,
12,12,,24,,57,,7/8>4[8:3],
,5,5,,6,,56,,
4h[4:1],,6,6,7h[4:1],,5,,
46,3,12,,78,78,,46,
,12,,57,,3/5<4[8:5],,1h[8:5],
,,,,,,57,57,
,46,46,,3,4,25,,
18,,46,3,24,,57,,
12,3,45,,78,,46,4/6<3[8:3],
,5,5,,4,,36,,
1b/8b,,{16}6x,5,6,5,4x/7x,,,,3x,4,3,4,

{8}2x/5x,,1x/8x,,57,46,,2h[1:1]/4,
,,B7/E8,,B6,B5,,B4/E4,
,,1x/8x,,24,35,,5/7h[1:1],
,,B2/E2,,B3,B4,,B5/E6,
,,1x/8x,,57,46,,2h[8:7]/4,
,5,{4}5,6,7,
1x/8x<4[4:1],4>8[4:1],8<4[4:1],4w8[4:1],
,,2b/6b,,

7h[8:3],{8},8,7,,15,,
2h[8:3],,,1,{4}2,4qq8[1:1]/7,
8b,8,7,7,
6,6,56,4,
34,2,1,8,
7h[2:1],,5pp1[4:5],{8}4,4b,
{4},2,2,3,
3,4,45,6,
46,{8}57,5,6,5,47,,
35,,24,4,3,4,{4}2qq7[1:1]/5,
7b,7,6,6,
5,5,45,45,
36,{8}57,6,24,3,{4}45,
7h[8:3]/8h[8:3],,5-2[8:1]/6-1[8:1],56,
{16}2x,,6,,4,4,{8}5,7,56,,45,
3x/6x,1x-5[8:1]/8x-4[8:1],,1x/8x`Cf,,,{16}2b,7,2b,7,

{8}2x,15,6,47,3,28,7,4x/6x,
5,4x/6x,5,4x/6x,3,27,{16}1,8,1,8,
{8}1,25,6,37,4,56,7,2x/8x,
1,2x/8x,1,2x/8x,3,46,{16}7,8,7,8,
{8}7x,68,15,24,3x,24,15,68,
1x/7x,28,37,46,{4}5<1[4:1],1>1[2:1],
Cf,1>1[2:1],Cf,1>1[2:1],
Cf,1-5[8:1],Cf,3b/7b,
{8}8x,47,3,25,6,17,2,3x/5x,
4,3x/5x,4,3x/5x,6,27,{16}8,1,8,1,
{8}8,47,3,25,6,47,3,26,
1x/8b,3b/5x,2x/7b,4b/6x,3x/8b,1b/5x,4x/7b,2b/6x,
1x/3x,,68,,35,46,,24,
,,45,,36,,27,,
1h[2:1]/8h[2:1],,,,,2b/7x,3b/6x,4b/5x,
,36,36,,78,,5/6pp1[2:3],,

{1},,
{8}3h[8:3],,,4,3,,,45,
,56,,7,7,,1pp4[2:3]/8,,
7,,,8,8,,,7,
,6,,5,5,,4,,
3h[8:3],,,4,3,,6,{16}4,5,
{8}3,3,6,6,2,2,1b/5b,,

24,3,3,3,57,6,6,6,
13,2,2,2,68,7,7,7,
24,3/5<4[2:1],46,57,,,,,
,57,6,5,24,3,5pp4[2:1]/7,6,
35,,,,,,{12}3,5,4,
{8}6,6,8,8,17,,24,35,
,57,,35,6,6,2,2,
7,8,1,2,36,,18,,
{12}2x,4,2,7,5,7,3,4,3,6,5,6,
2,1,2,7,8,7,3,1,3,{4}4x/8x,
36,{16}15,2,3,4,58,7,6,5,1h[4:1]/4,,,,
5,1,5,1,6,2,6,2,7,3,7,3,4x/8x,,,,
2b/6b,,,,,,8,1,{6}8h[6:1],7h[6:1],6h[6:1],
2h[6:1],3h[6:1],4-8[6:1],5h[4:1],,,
2h[6:1],3h[6:1],4h[6:1],8h[6:1],7s3[12:7],6b,
{1},

{16}4x,5,4,5,4,5,4,5,4,5,4,5,4,5,4,5,
4,5,4,5,4,5,4,5,4,5,4,5,4,5,4,5,
4,5,4,5,4,5,4,5,4,5,4,5,4,5,4,5,
4,5,4,5,4,5,4,5,4,5,4,5,4,5,4,5,
4,5,4,5,4,5,4,5,4,5,4,5,4,5,4,5,
4,5,4,5,4,5,4,5,4,5,4,5,4,5,4,5,
4x,5,4,5,4x,5,4,5,4x,5,4,5,4x,5,4,5,
4x,5,4,5,3x,6,3,6,2x,7,2,7,1x,8,1,8,

2b/7b,,,,6,6,5,,4-8[8:1]/5,,3,,24,,1,,
27,,6,,3,3,4,,4/5-1[8:1],,6,,57,,8,,
27,,3,,6,6,5,,4-8[8:1]/5,,3,,24,,1,,
27,,6,,3,3,4,,25,,16,,7,8,7,8,
{8}7-3[8:1],7,8-4[8:1],8,1-5[8:1],1,2-6[8:1],2,
1-5[8:1],1,8-4[8:1],8,7-3[8:1],7,2,,
{32}4x,5x,6x,7x,8x,1x,2x,3x,4x,5x,6x,7x,{8}8x,,7x/8x,5x/6x,3x/4x,
,12,3-1[8:1]/4-6[8:1],,3-7[8:1]/4-8[8:1],,34,,
5b/6b,7,{16}2,2,1,,1/8-4[8:1],,7,,68,,5,,
36,,2,,7,7,8,,1-5[8:1]/8,,2,,13,,4,,
36,,7,,2,2,1,,1/8-4[8:1],,7,,68,,5,,
3,4,2,5,1,6,8,7,{2}8w4[8:1],
{32}6x,5x,4x,3x,2x,1x,8x,7x,6x,5x,4x,3x,2x,1x,8x,7x,6x,5x,4x,3x,2x,1x,8x,7x,6x,5x,4x,3x,2x,1x,8x,7x,
{8}6b/Cf,,1x/8x,,27,,36,36,
,45,{4}4>5[4:3]/5<4[4:3],,,
,,,5-2[1:3]/6,

,,,,
,E7,B7,B8,
E1,,,,
,,,1/8-5[1:3],
,,,,
,E2,B2,B3,
E4,,,,
E5,,,,
,{12}B6,B5,B4,{1}B3,,E

Re:MASTER


名前:
コメント:

タグ:

+ タグ編集
  • タグ:
最終更新:2026年04月11日 21:43