| アーティスト |
Retropolitaliens (Ms.+駄々子) |
BASIC
ADVANCED
EXPERT
(162){1}B6/B5/B4/B3/Cf,,B6/B7/B2/B3/Cf,{4},,Ch[4:1]/B4/B5,,{8}1x/8x,1x/8x,,7/8,7/8,,1/2,1/2,,1/8,1pp1[8:3]/8qq8[8:3],,,,,,,1xpp6[4:3]/8x,,,,,,,{4},7h[4:1],1b,5/6,{8}3,3,5,5,2-4[8:1],,8-6[8:1],,1-5[8:1],,,,8,8,7,7,6,6,4/5,4/5,3,3,2,2,1h[4:1],,8b,,{4}2h[4:1]/3h[4:1],,4h[4:1]/5h[4:1],,6h[4:1]/7h[4:1],,1h[4:1]/8h[4:1],,7-3[8:1],2<4[2:1],,,Cf,1hx[2:1]/8hx[2:1],,,
{4}3/4,3/4,5/6,5/6,1/2,1/2,7/8,7/8,6,5/7,3,4/2,4/5,4qq2[4:1]/5pp7[4:1],,,1/2,1/2,7/8,7/8,4/3,4/3,5/6,5/6,8,7/8,1,1/2,8,1>4[4:1]/5<8[4:1],,,4x-1[8:1]/8x-5[8:1],,5x-8[8:1]/1x-4[8:1],,4x-1[8:1]/8x-5[8:1],,1x/5x,3x/7x,
{8}4/6,,4/6,,3/5,3/5,3/5,,4/6,,4/6v3[4:1]*<3[4:1],,,,,,{4}2/8,1/7,6/8,1/7,2/8,1/3,2/8,3/7,B5/B4/C,,B3/B6/C,,B2/B7/C,E1,B5/B4/Cf,,1/8,7/8,1/8,1/2>7[2:1],,,,1x/8x,{8}5/7,,4/6,,3/5,,2/4,2/4,2/4,,5/3,,6/4,,7/5,7/5,7/5,,4/6,,3/5,,2/4,,1x/5x,2x/6x,3x/7x,4x/8hx[4:1],,1,1,,
{8}1-5[8:1]/2-4[8:1],,,,7b/8b,,7/8,,1/2,,1/2,,3/4,3/4,2/5,,6h[4:1],,8,,3h[4:1],,1,,7,,2/6,,3x/7x,,2x/6x,,8-4[8:1]/7-5[8:1],,,,2/1,,2/1,,8/7,,8>3[4:1]/7v4[4:1],,,,,,3h[4:1],,1,,6h[4:1],,8,,2,,3/5,,{16}2x/6x,,,2x/6x,,,3x/7x,,{8}3x/7x,,4/6,,{16}7h[16:3],,,6h[16:3],,,5,,4h[16:3],,,3h[16:3],,,2,,2h[16:3],,,3h[16:3],,,4,,{8}4,,2/6-3[8:1],,,,,1h[4:1],,8,8,,{16}2/7,,,3/6,,,4/5,,{8}4q1[4:1]/5<8[4:1],,,,,,,8/1,8q5[4:1]/1>4[4:1],,,,,,,5/4,5p8[4:1]/4>1[4:1],,,,,,,1/8,1p4[4:1]/8<5[4:1],,,,,,,4/5,4qq1[4:3]/5pp8[4:3],,,,{2},,Ch[4:1]/B4/B5,
{4}1h[4:1],8h[4:1],7h[4:1],6h[4:1],5h[4:1],4h[4:1],{8}3,2x/5x,,,6>3[4:1],,,,2<7[4:1],,,,6h[4:1],,5h[4:1],,4x,4x/5x,4x/5x,,1/3,,2/8,,
7/1,,6/8,6/8,6/8,,1/7,,2/8,,1/3,1/3,1/3,,8/2,,7/1,,6/8,,1x/5x,2x/6x,3x/7x,4x/8hx[4:1],,1,1w5[8:1],,,,2b/8b,,
{8}1b/2b,,1/2,,7/8,,7/8,,5/6,5/6,4/7,,3,3,1/4,,6,6,5/8,,2,,3/7,,2x/6x,2x/6x,2x/6x,,1-5[8:1]/2-4[8:1],,,,7/8,,7/8,,1/2,,1<6[4:1]/2v5[4:1],,,,,,6,6,5/8,,3,3,4>5[1:1]/1,,{4}Cf,,,,,,3/6,3/6,5x-8[8:1]/1x-4[8:1],,8x-5[8:1]/4x-1[8:1],,5x-8[8:1]/1x-4[8:1],,8x/4x,4x/8x,5-2[8:1]/6-1[8:1],,4-7[8:1]/3-8[8:1],,5/6,6p1[4:1]/5>2[4:1],,,1/2,5/6,7/8,3/4,1/2,3/8,8/7,6/1,5/6,3/4,5/6,3h[1:1]/4q6[4:3],,,,,,,{8}6,5,4,6,5,4,5,4,3,5,4,3,3h[4:3],,,,,,,,{2}1-6[8:1]/2-5[8:1],8-3[8:1]/7-4[8:1],1-6[8:1]/2-5[8:1],8-3[8:1]/7-4[8:1],2h[2:1],Chf[1:2]/B5/B6,,,,1b,E
MASTER
(162){1}Ch[4:3],
8<4[2:1]/1hx[1:1],
{2}3h[2:1],5h[2:1],
{1}7>7[1:1]*<7[1:1],
{2},6>3[8:1],
{8}1x/2x,8x/3x,,7x/8x,6x/1x,,3x/4x,2x/5x,
,5x/6x,4x/7x,,1x/8x,{16}3,4,3,,6,5,
6,,{4}7x/4x,1h[4:1]/8h[4:1],{8},1>7[4:1]/2>7[4:1],,
{2},
{8}1b/2b,{16},4,{8}3,5,46,7,{16}18,7,6,5,
34,,2,1,3,,7,8,6,,15,,3,4,1,5,
8b,6,5,6,1b,5,4,5,2b,4,3,4,1b,5,4,5,
8,1,2,3,48,7,6,5,{4}4-8[16:1]/1,6x/4x,
{8}7h[16:3],{16},5,{8}6,4,{16}E8,B8,B1,E2,{8}5,5,
{16}E4,B4,B5,E6,E2,B1,B8,E8,{4}3h[4:1],{16}5,4,3,2,
1x/8x,,7,5,6,4,5,3,82,,1,1,1,,{8}46,
{4}3bv1[2:1]/7bv5[2:1],3x/7x,,,
{2}2>4[8:1],7<5[8:1],
{4}3-5[8:1],7-5[8:1],1-5[8:1],,
{8}6h[8:1],4h[8:1],6h[8:1],5h[8:1],7h[8:1],4h[8:1],,5h[4:1]/2h[4:1],
{4},4h[8:1]/6h[8:1],3h[8:1]/5h[8:1],2h[8:1]/6h[8:1],
{2}1-3[8:1]/8-4[8:1],8-6[8:1]/1-5[8:1],
{8}6-4[8:1],6-8[8:1],{4},{2}3-1[8:1]*-5[8:1],
{8}6h[8:1],1h[8:1],7h[8:1],2h[8:1],8h[8:1],3h[8:1],,1h[4:1]/6h[4:1],
{4},2h[8:1]/7h[8:1],3h[8:1]/8h[8:1],4h[8:1]/1h[8:1],
{8}2x-4[8:1]/3x-1[8:1],2x/3x,{4},{8}7x-5[8:1]/6x-8[8:1],7x/6x,{4},
{8}2x/4x,3,5x/7x,6,{4}4x/5x,2b/7b,
{2}3-1[8:1]/4-8[8:1],6-8[8:1]/5-1[8:1],
{8}35,46,{4}7>2[4:1]/5q4[4:1],,,
{8}4xp2[4:1],5x,6x,7x,8xp6[4:1],1x,2x,3x,
4x-1[8:1],4x,{4}4xpp4[4:1],,1x,
{8}5xpp5[4:1],1,2,3,4xqq4[4:1],8,7,6,
{4}5h[4:1],{8}B7/B6,C,{4}B3/B2,1b/8b,
45,{8}7,8,1,2,{4}3<6[4:1],B8/B1,
,{8}57,46,35,24,
{16}2x,4,2,4,2,4,2,4,2,4,2,4,3x,4,3,4,
3x,5,3,5,3,5,3,5,3,5,3,5,4,5,4,5,
4x,6,4x,6,4,6,4,6,4,6,4,6,{4}3x/7x,
{8}1x/8x,3x/4x,5x/6x,2b/7b,,46,{4}3>1[16:1]/7<5[16:1],
3xv8[16:1]/7xv4[16:1],{32}37,Cf,,,,,,,{4}2b/6b,{8}38,2-6[8:1],
2,1<5[8:1],1,4,{16}3,,,2b/5b,{8},1-6[8:1],
6-4[8:1],{16}7,7,{8},8-3[8:1],3-5[8:1],{16}2,2,{8},1,
26,{16}7,5,,2,4,,{8}12,12,34,56,
{4}7/8>3[8:1],8/5<8[8:1],5/2>5[8:1],{8}8,8,
57,45,24,18,57,Cf/E6/E4,,8,
1x/7x,6,57,4,13,82,71,6,
{4}4-1[8:1]/5-8[8:1],4b/5b,{16}2hx[8:1]/4hx[8:1],,,6hx[8:1]/8hx[8:1],,,1x/5x,,
{4}3b/7b,45,{16}1h[16:3],,,3h[16:3],,,4,,
7h[16:3],,,6h[16:3],,,5,,3h[16:3],,,4h[16:3],,,5,,
E8,B7,B6,E6,E2,B2,B3,E4,E8,B8,B1,E2,E6,B5,B4,E4,
8,7,6,5,1,2,3,4,5x/6x,,,1x/8x,,,2x/3x,,
{4}1x>5[4:3]/4x,,,{16},,6,7,
{2}8<4[4:3],{16}3,,,2,,,1,,
{4}1>5[4:3],,,{16},,6,7,
{2}8<4[4:3],2,
{1}Ch[1:1],
{4},8z4[4:1],,,
{8}2h[8:1],4h[8:1],6h[8:1],8h[8:1],2h[8:1],4h[8:1],6h[8:1],8h[8:1],
2h[8:1],4h[8:1],6h[8:1],8h[8:1],1,2b/7b,{4},
{16}1x/5x,,2,4,3,5,4,6,71,,8,8,8,,35,,
4x/6x,,6,5,4x/7x,,3,4,{8}2b/5x,2b/5x,3b/6x,4b/7x,
{16}7x,4,7,4,7,4,7,4,7,4,7,4,6,4,6,4,
6x,3,6,3,6,3,6,3,6,3,6,3,5,3,5,3,
5x,2,5x,2,5,2,5,2,5,2,5,2,4,3,4,3,
{8}2x/5x,2x/5x,4x/7x,4b/7b,,35,{32}2x,3,4,5,6,7,8,1,
{4}2xv1[16:1]/6xv5[16:1],{32}2x/6x,Cf,,,,,,,{4}3b/7b,{8}16,7-3[8:1],
7,8>4[8:1],8,5,{16}6,,,7b/5b,{8},7-5[8:1],
5-1[8:1],{16}3,3,{8},2V48[4:1],4,{16}6,6,{8},7,71,{16}2,4,,7,5,,{8}8b/4b,7,36,4,
{4}5-1[8:1]/6,5/7-3[8:1],7/8>3[8:1],8/6-2[8:1],
6/1-5[8:1],{8}7,7,56,B7/Cf/B4,,1,
2x/8x,3,45,6,71,71,{16}8x,8x,8x,8x,
{4}8x,2x/6x,1x/7x,,4,,35,35,6h[4:1],5,3h[4:1],4,
{8}2x>4[8:1]/7x<5[8:1],18,2b/7b,,
2x/4x,3,5x/7x,6,{4}5/4-8[8:1],{8}46,{16},7,{8}7-3[8:1],6,2-6[8:1]/7,1,8-4[8:1]/2,7,18,2,34,B5/Cf/B2,,8,
1/7-4[8:1],28,17,,1/7-4[8:1],28,37,,
3/5-1[8:1],64,53,,3/5-1[8:1],64,52,,
2-6[8:1]/5,14,27,7,2-6[8:1]/5,14,27,7,
{1}4qq4[1:1]/8qq8[1:1],
{2},{8}7,6,6h[8:3],4,3,3h[8:3],5,4,4h[1:1],2z6[8:5],2,,{2},,
{2}8hx[4:1]/E7/B6/E6/Cf,1hx[4:1]/E3/B3/E4/Cf,
6hx[4:1]/E7/B7/E8/Cf,{8}3hx[4:1]/E2/B2/E3/Cf,,,{16},{128}B8,B7,B6,B5,B4,B3,B2,B1,
{2},{4}8hx[4:1]/1b,{32}2x,3x,4x,5x,6x,7x,8x,1x,2x,3x,4x,5x,6x,7x,8x,1x,2x,3x,4x,5x,6x,7x,8x,1x,
2x,3x,4x,5x,6x,7x,8x,1x,2x,3x,4x,5x,6x,7x,8x,1x,2x,3x,4x,5x,6x,7x,8x,1x,2x,3x,4x,5x,6x,7x,8x,1x,2b/Cf/B4/B5,E
Re:MASTER
- MASTERの一部修正を行いました。(追加修正などありましたらよろしくお願いします。) -- Sugar (2026-02-20 13:50:22)
- EXPERT譜面を追加しました。修正等ありましたらよろしくお願いします。 -- Sugar (2026-03-11 19:49:19)
最終更新:2026年04月12日 09:15