| アーティスト |
ARM+夕野ヨシミ (IOSYS) feat.miko |
EASY
BASIC
(180.0){1},,,,,,,,
{2}1,1,
{2}1,1,
{2}8,8,
{2}8,8,
{2}1,1,
{2}1,1,
{2}8,8,
{1}1h[2:1]/8h[2:1],
{2}1,1,
{2}1/2,1/2,
{2}8,8,
{2}7/8,7/8,
{2}1,1,
{2}1/2,1/2,
{2}8,8,
{2}7/8,7/8,
{4}1,1,1,,
{4}2,2,2,,
{4}3,3,3,,
{4}4,4,4/5,,
{4}5,5,5,,
{4}6,6,6,,
{4}7,7,7,,
{4}8,8,1/8,,
{1}1h[1:3]/8h[1:3],,,,
{2}1,1,
{2}2,2,
{2}3,3,
{4}4,4,4,,
{2}5,5,
{2}6,6,
{2}7,7,
{1}1/8,
{2}8,8,
{2}7,7,
{2}6,6,
{4}5,5,5,,
{2}4,4,
{2}3,3,
{2}2,2,
{1}1/8,
{1}1-5[4:3],,
{1}8-4[4:3],,
{4}1,1,1,,
{4}2,2,2,,
{4}3,3,3,,
{4}4,5,4,,
{4}5,5,5,,
{4}6,6,6,,
{4}7,7,7,,
{1}1h[2:1]/8h[2:1],
{4}8,8,8,,
{4}7,7,7,,
{4}6,6,6,,
{4}5,4,5,,
{4}4,4,4,,
{4}3,3,3,,
{4}2,2,2,,
{2}1/8,1-4[4:3]/8-5[4:3],{1},,
{1}5h[2:1],
{4}4/5,,4,5,
{1}4h[1:1],
{2},4/5,
{4}3,4,3,,
{4}6,5,6,,
{1}2h[1:1]/7h[1:1],
{2},1/8,
{2}1/8,2/7,
{2}2/7,1b/8b,{1},
{2}1/2,1/2,
{4}2,1,2,,
{2}3/4,3/4,
{4}3,4,3,,
{2}5/6,5/6,
{4}6,5,6,,
{2}7/8,7/8,
{1}7h[2:1]/8h[2:1],
{1}7-4[4:3],,
{1}2-5[4:3],,
{1}8-4[4:3],,
{1}1-5[4:3],
{4},,,4/5,
E
ADVANCED
(180.0){1}1^4[4:5],,
{1}5^8[4:5],,
{1}8^5[4:5],,
{1}4^1[4:5],,
{4}1,1,2,2,
{4}3,3,3/4,,
{4}8,8,7,7,
{4}6,6,5/6,,
{4}2,2,3,3,
{4}4,4,5/6,,
{4}7,7,6,6,
{4}5,5,3/4,,
{4}8,7,6,5,
{4}4,3,1/2,,
{4}1,2,3,4,
{4}5,6,7/8,,
{4}5,6,7,8,
{4}1,2,3/4,,
{4}4,3,2,1,
{4}8,7,5/6,,
{4}2,1,2,1-5[2:1],{1},
{4}7,8,7,8-4[2:1],{1},
{4}1,8,1/8,1-4[2:1]/8-5[2:1],{1},
{4}4,5,4,5,
{4}3/6,3/6,4/5,4/5,
{1}4b^1[4:5]/5b^8[4:5],,
{1}1^4[4:5]/8^5[4:5],,
{2}6h[2:1],5h[2:1],
{2}4h[2:1],3,
{2}3h[2:1],4h[2:1],
{2}5h[2:1],6,
{2}7h[2:1],6h[2:1],
{2}5h[2:1],4,
{2}2h[2:1],3h[2:1],
{2}4h[2:1],5,
{1}3-1[4:1]/6-8[4:1],
{1}2-4[4:1]/7-5[4:1],
{1}3-1[4:1]/6-8[4:1],
{1}2-4[4:1]/7-5[4:1],
{1}4-1[4:1]/5-8[4:1],
{1}1-4[4:1]/8-5[4:1],
{1}4-1[4:1]/5-8[4:1],
{1}1-4[4:1]/8-5[4:1],
{1}4qq1[4:5]/5pp8[4:5],,
{4}1,1,8,8,
{1}3b/6b,
{4}3,3,4,4,
{4}3,3,2/5,,
{4}6,6,5,5,
{4}6,6,4/7,,
{4}2,2,1,1,
{4}2,2,3/8,,
{4}8,7,7/8,7^4[2:1]/8^3[2:1],{1},
{4}2,1/2,3,3/4,
{4}6,5/6,4/7,,
{4}7,7/8,6,5/6,
{4}3,3/4,2/5,,
{4}3,3/4,2,1/2,
{4}7,7/8,1/6,,
{4}6,5/6,7,7/8,
{4}2,1/2,{2}1^6[4:5]/2^5[4:5],{1},
{4},,3,4,
{4}5,6,5,4,
{4}3/6,,1,8,
{1}1^4[4:3]/8^5[4:3],
{4},,4/5,3/6,
{4}3,3/4,6,5/6,
{4}4,5,4/5,4^1[1:1]/5^8[1:1],{1},
{4},,1/8,1/8,
{4}2/7,2/7,3/6,3/6,
{4}4/5,4/5,3/6,2/7,
{1}1b/8b,
{4}1,2,3,4,
{4}5/6,4/7,3/8,,
{4}8,7,6,5,
{4}3/4,2/5,1/6,,
{4}4,3,2,1,
{4}7/8,1/6,2/5,,
{4}5,6,7,8,
{4}1/2,3/8,4/7,,
{2}3h[2:1],4,
{2}6h[2:1],5,
{2}2h[2:1],3,
{2}7h[2:1],6,
{2}2h[2:1],1,
{2}7h[2:1],8,
{2}1h[2:1],8,
{4}1h[2:1]/8h[2:1],,,2b/7b,
E
EXPERT
(180.0){4}2,3,4,5q2[2:1],{1},
{4}7,6,5,4p7[2:1],{1},
{4}3,4,5,6q3[2:1],{1},
{4}5,4,6,3,
{1}4-1[4:1]/5-8[4:1],
{4}3,3/4,6,5/6,
{4}3,3/4,5/6,4/7,
{4}3,2/4,6,5/7,
{4}3,2/4,5/6,3/8,
{4}2,3/4,7,5/6,
{4}2,3/4,7/8,2/5,
{4}4/5,3/6,2/7,1-4[4:1]/8-5[4:1],{1},
{4}3h[4:1],4,6h[4:1],5,
{4}3h[4:1],4,5/6,4/7,
{4}7h[4:1],8,2h[4:1],1,
{4}7h[4:1],8,1/2,3/8,
{4}3/4,3/4,5/6,5/6,
{4}2/4,2/4,5/7,5/7,
{4}4/5,3/6,2/7,1/8,
{4}1/7,2/8,1/7,,
{8}3,3,5,,6,6,4,,
{8}3,3,5,,6,6,8,,
{8}7,7,1,,2,2,8,,
{8}7,7,1,,2,2,4,,
{8}3,4,3,,6,5,6,,
{8}3,4,3,,6,5,7,,
{8}7,8,7,,2,1,2,,
{8}7,8,7,,2,1,3,,
{1}4b>5[4:11]/5b<4[4:11],,,
{4},,1,2,
{2}3h[2:1],4h[2:1],
{8}5h[2:1],,,6,6,,7,7,
{8}8,,,2,2,1,1^4[2:1]*<5[2:1],,
{8},,,,,,4,4,
{2}7h[2:1],8h[2:1],
{8}1h[2:1],,,2,2,,3,3,
{8}4,,,6,6,5,{4}5>1[2:1]*^8[2:1],{1},
{8}2,2,8,,7,7,1,,
{8}2,2,8,8,1,,2/7,,
{8}3,3,4,,6,6,5,,
{4}4/5,4/5,2/7,,
{8}5,5,3,,4,4,6,,
{8}5,5,3,3,4,,1,1,
{4}8,1/7,2/6,3/5,
{4}4,3/5,2/6,1/7,
{1}2bpp1[4:5]/6bpp5[4:5],,
{4}4h[4:1],5,5h[4:1],4,
{1}2b/7b,
{4}5,1/2,4,7/8,
{8}2,2,8,8,1/7,,2/8,,
{4}8,3/4,1,5/6,
{4}3^8[4:1]/4^7[4:1],,,1/6,
{4}4,7/8,5,1/2,
{8}7,7,1,1,2/8,,1/7,,
{4}1,5/6,8,3/4,
{1}5^2[4:1]/6^1[4:1],
{8}7,8,1/6,,2,1,3/8,,
{8}3,3,4,2,1/3,,4/5,,
{8}6,5,4/7,,3,4,2/5,,
{4}1v3[4:1]/5v7[4:1],,,2/6,
{8}2,1,3/8,,7,8,1/6,,
{8}6,6,5,7,6/8,,4/5,,
{8}3,4,2/5,,6,5,4/7,,
{1}4v2[4:1]/8v6[4:1],
{4}2,5/6,7,3/4,
{4}2/5,1/6,7/8,2/5,
{4}7,3/4,2,5/6,
{4}4/7,3/8,1/2,4/7,
{4}3,7/8,6,1/2,
{4}3,2/4,6,5/7,
{4}3/4,1/6,3/4,1/6,
{4}5/6,3/8,5/6,3/8,
{1}7^4[4:1]/8^3[4:1],
{4}1,8,2/7,2/7,
{4}8/7h[4:1],6h[4:1],5h[4:1],4h[4:1],
{4}3,,4/5,4/5,
{1}2b/7b,
{4}1,2/8,8,1/7,
{4}1,2/8,3/7,4/5,
{4}8,1/7,1,2/8,
{4}8,1/7,2/6,,
{4}5,4/6,4,3/5,
{4}5,4/6,3/7,1/8,
{4}4,3/5,5,4/6,
{4}4,3/5,2/6,,
{4}7,8,1,2,
{1}3^8[4:1]/4^7[4:1],
{4}2,1,8,7,
{1}5^2[4:1]/6^1[4:1],
{4}3,2/4,1/5,1/5,
{4}6,5/7,4/8,4/8,
{4}4,5,4/5,2/7,
{4}1h[2:1]/8h[2:1],,,3b/6b,
E
MASTER
(180.0){2}2b,4,
{2}6,8,
{2}7,5,
{2}3,1,
{2}7/8,3/4,
{2}1/2,5/6,
{4}1/8,2/7,3/6,4/5,
{8}3/6,3q8[4:1]/6p1[4:1],,,,,,,
{8}2-5[8:1],8,8,,7-4[8:1],1,1,,
{8}2-5[8:1],8,8,,7-4[8:1],1,1,,
{8}2^5[8:1],8,8,,7^4[8:1],1,1,,
{8}2^5[8:1],8,8,,7^4[8:1],1,1,,
{8}3-8[8:1],5,5,,6-1[8:1],4,4,,
{8}3-8[8:1],5,5,,6-1[8:1],4,4,,
{8}4p8[8:1],5,5,,5q1[8:1],4,4,,
{16}3/6,,3/6,,3/6,,3/6,,4,5,4,5,4,,,,
{2}1-6[8:1]/2-5[8:1],7-4[8:1]/8-3[8:1],
{2}5-2[8:1]/6-1[8:1],3-8[8:1]/4-7[8:1],
{2}2-4[8:1]/6-8[8:1],3-1[8:1]/7-5[8:1],
{2}2-5[8:1]/6-1[8:1],3-8[8:1]/7-4[8:1],
{2}2-4[8:1]/5-1[8:1],4-8[8:1]/7-5[8:1],
{2}1-4[8:1]/6-1[8:1],3-8[8:1]/8-5[8:1],
{2}5^2[8:1]/6p1[8:1],3q8[8:1]/4^7[8:1],
{4}4-8[8:1]/5-1[8:1],,4/5,2b/7b,
{8}2-5[8:1],1,2,8,7-4[8:1],8,7,1,
{8}2-5[8:1],1,2,8,7-4[8:1],8,7,1,
{8}3-8[8:1],4,3,5,6-1[8:1],5,6,3,
{8}4p8[8:1],8,7,6,5q1[8:1],1,2,3,
{8}2-5[8:1],1,2,8,7-4[8:1],8,7,1,
{8}2-5[8:1],1,2,6,7-4[8:1],8,7,3,
{8}2-6[8:1],4,2,1,7-3[8:1],5,7,8,
{16}2,,2,,7,,7,,1,8,1,8,1,8,1,8,
{1}2b/7b,,,
{4},,5,4,
{2}3h[2:1],4h[2:1],
{8}5h[8:3],,,6,6,,4,5,
{8}4h[8:3],,,6,5,4,3,4,
{8}5h[4:1],,6h[4:1],,3,,4,5,
{2}6h[2:1],5h[2:1],
{8}4h[8:3],,,3,3,,5,4,
{8}5h[8:3],,,4,5,6,5,4,
{1}3^6[8:1],
{8}3^5[8:1],3,3,,6^4[8:1],6,6,,
{8}3,3,6,6,4/5,,3/6,3/6,
{8}7^5[8:1],7,7,,2^4[8:1],2,2,,
{2}4-1[8:1]/5-8[8:1],2-4[8:1]/7-5[8:1],
{8}3^5[8:1]/7^5[8:1],3/7,3/7,,2^4[8:1]/6^4[8:1],2/6,2/6,,
{8}6,6,3,3,4/5,,4/5,4/5,
{8}3,3,6,6,2,1/2,7,7/8,
{4}1b/8b,,2/4,5/7,
{16}4,5,4,5,4,5,4,5,3,6,3,6,3,6,3,6,
{16}2,7,2,7,2,7,2,7,1,8,1,8,1,8,1,8,
{16}1,8,2,7,3,6,4,5,4,5,3,6,2,7,1,8,
{2}1b,3qq1[8:1]/7qq5[8:1],
{4}2^5[8:1],8^5[8:1],2pp4[8:1],8qq6[8:1],
{8}1>6[4:1],,1,8b,8b,,2,1/3,
{4}4^2[8:1]/8^6[8:1],4/8,1^3[8:1]/5^7[8:1],5/1-5[8:1],
{4}1b-3[8:1]*-7[8:1],1b-4[8:1]*-6[8:1],1b,3b/7b,
{4}7^4[8:1],1^4[8:1],7qq5[8:1],1pp3[8:1],
{8}8<3[4:1],,8,1b,1b,,3/7,2/6,
{4}5/1-7[8:1],6-3[8:1],4-1[16:1],8<4[4:1]*>4[4:1],
{2}8b,2pp4[8:1]/6pp8[8:1],
{4}3^8[8:1],5^8[8:1],3p7[8:1],5q1[8:1],
{8}4qq5[4:1],,4,6b,6b,,7,6/8,
{4}1^3[8:1]/5^7[8:1],1/5,4^2[8:1]/8^6[8:1],4/8-4[8:1],
{4}8b-2[8:1]*-6[8:1],8b-3[8:1]*-5[8:1],8b,2b/6b,
{4}6^1[8:1],4^1[8:1],6q2[8:1],4p8[8:1],
{8}5pp4[4:1],,5,3b,3b,,2/6,3/7,
{4}4/8-2[8:1],3-6[8:1],5-8[16:1],4,
{1}2b>6[2:1]/6b<2[2:1],
{8}4/5,4/5-1[8:1],,4-8[8:1],,6^1[8:1],,3^8[8:1],
{8},5q1[8:1],,2,2-5[8:1]*-6[8:1],,2,,
{2}5^2[8:1]/6p1[8:1],3q8[8:1]/4^7[8:1],
{2}5w1[8:1],4w8[8:1],
{8}3/6,6/3-8[8:1],,5-1[8:1],,3^8[8:1],,6^1[8:1],
{8},4p8[8:1],,7,7-2[8:1]*-4[8:1],,7,,
{2}3^8[8:1]/7q4[8:1],2p5[8:1]/6^1[8:1],
{4}1-5[8:1]/8-6[8:1],1-3[8:1]/8-4[8:1],1/8,2b/7b,
{8}4/5,3/6-1[8:1],,4-8[8:1],,6^1[8:1],,3^8[8:1],
{8},5q1[8:1],,2,2-5[8:1]*-7[8:1],,2,,
{2}8/4w8[8:1],1/5w1[8:1],
{16}3q8[8:1]/6p1[8:1],,,,,,,,6,5,,3,4,,8,1,
{1}8bz4[2:1],
{4}6h[4:1]/2-5[8:1],2,5h[4:1]/1-6[8:1],1,
{8}4,3,2,1,8,1/7,2/6,,
{4}3h[4:1]/7-4[8:1],7,4h[4:1]/8-3[8:1],8,
{4}8/1-4[8:1],1/8-5[8:1],1,,
{4}3h[4:1]/7^4[8:1],7,4h[4:1]/8p4[8:1],8,
{8}5,6,7,8,1,2/8,3/7,,
{4}6h[4:1]/2^5[8:1],2,5h[4:1]/1q5[8:1],1,
{1}8<1[2:1],
{8}3,4,3,5,3,4,2,2,
{8}6,5,6,4,6,5,7,7,
{8}3,4,2,2,6,5,7,1,
{8}6,5,7,7,3,4,2,8,
{8}3,4,1,1,6,5,8,1,
{8}6,5,8,8,3,4,1,8,
{8}3,4,1,2/7,6,5,8,2/7,
{16}1,8,1,8,1,8,1,8,1,,,,2b/7b,
E
Re:MASTER
最終更新:2026年10月04日 08:02