アットウィキロゴ

【東方ニコカラ】秘神マターラ feat.魂音泉【IOSYS】

アーティスト ARM (IOSYS)

BPM EASY BASIC ADVANCED EXPERT MASTER Re:MASTER
168 2 5 9 11+ 13 -

EXPERT MASTER Re:MASTER
譜面制作者 小鳥遊さん 玉子豆腐 -

EASY


BASIC

(168.0){1},,,,,
{2}4,5,
{2}4,5,
{2}4,5,
{1}4b/5b,
{4}3,3,3,,
{4}2,2,2,,
{4}1,1,1,,
{4}8,1,8,,
{4}7,7,7,,
{4}6,6,6,,
{2}4/5,4/5,
{4}4,5,4b,,
{2}4,4,
{4}3,3,3,,
{2}2,2,
{4}1,1,1,,
{1}8-5[4:3],,
{1}1-4[4:3],,
{2}5,5,
{4}6,6,6,,
{2}7,7,
{4}8,8,8,,
{1}1-4[4:3],,
{1}8-5[4:3],,
{1}4h[2:1],
{1}3h[2:1],
{1}5h[2:1],
{1}6h[2:1],
{4}4,4,3/5,,
{4}5,5,4/6,,
{4}4,5,4,,
{1}4b/5b,
{4}3,3,3,,
{4}2,2,2,,
{4}1,1,8,8,
{4}1/8,1/8,2/7,,
{1}6h[2:1],
{1}5h[2:1],
{4}4,4,5,5,
{2}4/5,3b/6b,
{4}6,6,6,,
{4}7,7,7,,
{4}8,8,1,1,
{4}1/8,1/8,2/7,,
{1}3h[2:1],
{1}4h[2:1],
{4}5,5,4,4,
{2}4/5,4/5,
{1}4h[2:1]/5h[2:1],
{1}3b/6b,
{1}2,
{1}2,
{1}3,
{1}3,
{2}4,5,
{2}4,5,
{2}3/6,4b/5b,{1},
{4}6,6,6,,
{4}7,7,7,,
{4}8,8,1,1,
{4}1/8,1/8,2/7,,
{1}3h[2:1],
{1}4h[2:1],
{4}5,5,4,4,
{2}4/5,3b/6b,
{4}3,3,3,,
{4}2,2,2,,
{4}1,1,8,8,
{4}1/8,1/8,2/7,,
{1}6h[2:1],
{1}5h[2:1],
{4}4,4,5,5,
{2}4/5,4/5,
{1}4h[2:1]/5h[2:1],
{1}3b/6b,
{2}2,2,
{2}3,3,
{2}4,4,
{4}5,4,5,,
{2}6,6,
{2}7,7,
{2}8,8,
{4}1,1,1,,
{4}8,8,8,,
{2}1/8,1/8,
{1}1h[1:1]/8h[1:1],
{2},2b/7b,
E

ADVANCED

(168.0){1},
{2}3h[2:1],4,
{2}6h[2:1],5,
{2}3h[2:1],4,
{1}4h[2:1]/5h[2:1],
{4}6,6,5,,
{4}3,3,4,,
{4}7,7,8,1^4[8:5]/8^5[8:5],{1},
{4}6,6,5/6,,
{4}3,3,3/4,,
{4}6,6,5,5,
{4}4,4,3/5,,
{4}2,2,1/2,,
{4}7,7,7/8,,
{2}1h[4:1]/2h[4:1],7h[4:1]/8h[4:1],
{4}1/8,1/8,2b/7b,,
{4}6,6,5/7,,
{4}3,3,2/4,,
{4}5,5,4,4,
{4}4/5,4/5,3/6,3/6,
{2}3h[4:1]/6h[4:1],5h[4:1]/6h[4:1],
{2}3h[4:1]/4h[4:1],5h[4:1]/6h[4:1],
{4}3,4,6,5,
{4}3/4,3/4,2/5,,
{4}2,3,4/5,,
{4}7,6,4/5,,
{4}2,2,3,3b,
{4}3b,3b,3b,2b/4b,
{2}5h[4:1]/6h[4:1],3h[4:1]/4h[4:1],
{2}5h[4:1]/7h[4:1],2h[4:1]/4h[4:1],
{4}3,4,5,6,
{4}5/6,4/5,3/4,2b/5b,
{2}3h[2:1],4h[2:1],
{4}3,3,2/4,,
{2}6h[2:1],5h[2:1],
{4}6,6,5/7,,
{4}3,4,2/5,,
{4}6,5,4/7,,
{4}3/6,3/6,4/5,4b-1[4:1],
{2},8,
{4}3/4,2,5/6,7,
{4}4,3/5,2/6,,
{4}5/6,7,3/4,2,
{4}5,4/6,3/7,,
{4}2h[2:1],1,8,,
{4}7h[2:1],8,1,,
{4}2,1/2,7,7/8,
{4}1h[2:1],,8,2/7,
{4}1,2,3/4,3/4,
{4}5,6,4/7,,
{4}8,7,5/6,5/6,
{4}4,3,2/5,,
{4}4/6,4/6,3/5,3/5,
{4}4/6,3/7,2b/8b,,
{2}1h[4:1]/2h[4:1],7h[4:1]/8h[4:1],
{4}1/8,2/7,3/6,3V14[8:5]/6V85[8:5],{1},
{2}4h[4:1]/5h[4:1],3b/6b,
{1}6<3[4:3],
{4},,4/5,4/5,
{1}4q5[4:3],
{4},,3/6,3/6,
{4}3,3/4,3,3/4,
{4}6,5/6,6,5/6,
{4}4/5,3/6,2bv4[8:3]/7bv5[8:3],,
{2},3/6,
{4}1/2,3,7/8,6,
{4}1/2,3/8,4/7,,
{4}7/8,6,1/2,3,
{4}7/8,1/6,2/5,,
{4}7h[2:1],8,1,,
{4}2h[2:1],1,8,,
{4}3/4,2/5,5/6,4/7,
{2}3h[4:1]/6h[4:1],2b/7b,
{4}4,3,1/2,1/2,
{4}8,7,1/6,,
{4}5,6,7/8,7/8,
{4}1,2,3/8,,
{4}1/7,1/7,2/8,2/8,
{4}1/7,2/6,3b/5b,,
{2}5h[4:1]/7h[4:1],2h[4:1]/4h[4:1],
{4}4/5,3/6,2/7,2V41[8:5]/7V58[8:5],{1},
{2}1h[4:1]/8h[4:1],2b/7b,
{4}3,4,3,2/5,
{4}6,5,4/7,,
{4}6,5,6,4/7,
{4}3,4,2/5,,
{4}2h[4:1],1,3/8,,
{4}7h[4:1],8,1/6,,
{2}2h[4:1]/4h[4:1],5h[4:1]/7h[4:1],
{4}1/2,3/8,4/7,5/6,
{4}3/4,2/5,1/6,7/8,
{2}1h[2:1],8h[2:1],
{1}1s5[4:3],
{2},2b/7b,
E

EXPERT

(168.0){2}6h[2:1],5-1[8:1],
{2}2h[4:1]/8h[4:1],5h[4:1]/6h[4:1],
{2}2h[4:1]/4h[4:1],6h[4:1]/8h[4:1],
{2}3h[4:1]/4h[4:1],6h[4:1]/7h[4:1],
{2}1h[4:1]/3h[4:1],5h[4:1]/7h[4:1],
{4}3/4,2,5/7,6,
{4}2/4,3,5/6,7,
{8}1,1,8,8,2/7,2/7,2/7,2/7,
{4}1/8h[2:1],,1,4b/5b,
{8}6,5,4/7,,1/8,,3/4,,
{8}3,4,2/5,,1/8,,5/6,,
{16}7h[16:3],,,6h[16:3],,,5,,2h[16:3],,,3h[16:3],,,4,,
{8}5,5,4,4,3/5,,7b/8b,,
{8}3,4,2/5,,1/8,,5/7,,
{8}6,5,4/7,,1/8,,2/4,,
{16}2h[16:3],,,3h[16:3],,,4,,7h[16:3],,,6h[16:3],,,5,,
{4}4/5,1/2,7/8,3b/6b,
{8}4/3h[1:3],,5,,2,2,2,,
{8}4,,1,,8,8,8,,
{8}4,,7,,5,5,5,,
{1}4pp4[2:1]*qq4[2:1],
{8}5/6h[2:7],,4,,7,7,7,,
{8}2,,8,8,8,,1b,,
{8}2,2,2,,4,4,4,,
{8}7,,5,5,5-1[8:1],,,,
{8}2,2,8,8,3,3,3/4,,
{8}7,7,1,1,6,6,5/6,,
{8}2,2,8,8,3,3,3,3,
{8}3,3,3-1[8:1],,,,8b,,
{8}1/2h[1:3],,8,,7,7,7,,
{8}3,,6,6,6,,1,,
{8}4,4,4,,5,5,5,,
{4}3,4/5,6/7,1b/8b,
{2}2^5[2:1],6,
{2}7^4[2:1],3,
{2}2^5[2:1],6,
{1}4h[2:1]/5h[2:1],
{16}1h[16:3],,,2h[16:3],,,3,,,,4/5,,4/5,,,,
{16}8h[16:3],,,7h[16:3],,,6,,,,4/5,,4qq4[2:1]/5pp5[2:1],,,,
{4},,,4b-1[8:1]/5b-8[8:1],
{4},,1/8,3/6<2[8:3],
{4},,,6/3>7[8:3],
{8},,,,,1/8,1/8,,
{8}4/5,,2,1/3,,7,6/8,,
{4}5-1[8:1]/6-8[8:1],,2b/7b,8<3[8:3],
{8},,,,,1/8,1/8,,
{8}4/5,,7,6/8,,2,1/3,,
{1}3qq8[2:1]/7qq4[2:1],
{2}2-5[8:1]/6-1[8:1],4b/8b,
{8}5/7,,7/8,,6,5,4/7,,
{8}2/4,,1/2,,3,4,2/5,,
{8}5/7,,3,2/4,,7,6/8,,
{4}3-1[8:1]/4-8[8:1],,2b/7b,1>6[8:3],
{8},,,,,1/8,1/8,,
{8}6b/8b,,4b/5b,,1b/3b,,,4/5,
{4}5/4h[4:1],3h[4:1],2h[4:1],1h[4:1],
{4}8h[4:1],7h[4:1],6h[4:1],5<4[4:3],{1},
{16}7/8,,,4/5,,,1/2,,3b/8b,,,,,,,,
{1}3q7[8:3]/6p2[8:3],
{8},1/8,,1/8,,2h[8:9]/6h[8:9],,,{1},
{4}8,8-4[4:1],,,
{4}3,3/4,6,5/6,
{4}3,2/4,6,5/7,
{8}1/8,1/8,1/8,1/8,2v3[4:1]/7v6[4:1],,,,
{4},,1/8,4/3>6[2:1],
{4},,,5/6<3[2:1],
{8},,,,,4/5,4/5,,
{8}1/8,,6,5/7,,2,1/3,,
{4}3-8[8:1]/4-7[8:1],,1b/6b,2>7[8:3],
{8},,,,,8,1,2,
{8}1/3,,6,5/7,,3/4,3/4,,
{1}2pp5[2:1]/6pp1[2:1],
{2}3-8[8:1]/7-4[8:1],1b/5b,
{8}3/5,,6/8,,2,3,4/8,,
{8}2/6,,1/3,,7,6,1/5,,
{8}3/7,,7,6/8,,2,1/3,,
{4}5-2[8:1]/6-1[8:1],,3b/8b,7<2[8:3],
{8},,,,,4/5,4/5,,
{8}6b/8b,,4b/5b,,1b/3b,,,4/5,
{4}4/5h[4:1],6h[4:1],7h[4:1],8h[4:1],
{4}1h[4:1],2h[4:1],3h[4:1],4>5[4:3],{1},
{16}1/2,,,4/5,,,7/8,,1b/6b,,,,,,,,
{8}3,4,5/2-6[8:1],,,,5/7,,
{8}6,5,4/7-3[8:1],,,,2/4,,
{16}2h[16:3],,,3h[16:3],,,4,,7h[16:3],,,6h[16:3],,,5,,
{8}3,4,5/6,,7/8,,2b/5b,,
{8}6,5,4/7-3[8:1],,,,1/2,,
{8}3,4,5/2-6[8:1],,,,7/8,,
{16}7h[16:3],,,6h[16:3],,,5,,2h[16:3],,,3h[16:3],,,4,,
{4}4/5,7/8,1/2,3b/6b,
{4}1/2,3/4,5/6,7/8,
{2}1h[4:1]/6h[4:1],3h[4:1]/8h[4:1],
{1}2bpp5[8:7]/6bpp1[8:7],
{2},{1}7b/2bqq5[4:15],,,,,
E

MASTER

(168.0){16},,,,,,,,1,8,1,8,2b/7b,,,,
{8}4,5,3,3,5,4,6,6,
{8}4-1[8:1],5,6,7,8-5[8:1],1,2,3,
{8}3,4,2,2,6,5,7,7,
{8}3,4,1,1,6,5,8,8,
{8}3,4,1/2,3,6,5,7/8,6,
{8}3,4,1/2,3,6,5,7/8,6,
{16}2/4,,3,,5/7,,6,,2/5,,3,,4>7[16:9]*q7[16:9],5,4,5,
{4},,,1b/8b,
{16}3,,4,,5/2h[16:3],,,1,,1,,2,1,,3/8,,
{16}6,,5,,4/7h[16:3],,,8,,8,,7,8,,1/6,,
{8}2,3/7,4V62[4:1]/8V62[4:1],,,,,,
{16}2,4,3,,7,5,6,,1-4[8:1]*-6[8:1],8,1,,,,,,
{16}6,,5,,4/7h[16:3],,,8,,8,,7,8,,1/6,,
{16}3,,4,,5/2h[16:3],,,1,,1,,2,1,,3/8,,
{2}2v4[8:1]/7^2[8:1],2v4[8:1]/7^2[8:1],
{12}3,4,3,6,5,6,4,5,4,2b/7b,,,
{8}5V72[4:1]/7V52[4:1],,,,,,1,8,
{8}5/7,8,5/7v2[8:1],,6^3[8:1],,,,
{8}1-5[8:1]/7-3[8:1],,,,2/6,7,8,1,
{8}2/4,1,4/2v7[8:1],,3^6[8:1],,1w5[8:1],,
{16},,,,7,5,7,5,6,4,6,4,5,3,5,3,
{16}4,2,4,2,3,2,3,2,3^6[8:1]*q7[8:1],,,,,,,,
{16}6,5,6,5,6,,1/8,,3,4,3,4,3,,1/8,,
{4}1^4[8:1]/7^4[8:1],1v4[8:1]/7v4[8:1],1^4[8:1]/7^4[8:1],1/7,
{8}5,6,7,7^2[8:1],3^8[8:1],,,,
{8}5/7,8,5/7v2[8:1],,6^3[8:1],,,,
{8}1,1,2,3,2/4<2[8:7],3b,3b,3b,
{8}3b,3b,3b,3b,3b,3b,1b,,
{16}7,5,7,5,7,,1/3,,4/5,,3/6,,2,4,2,4,
{8}2,6/8,4/5,3V15[4:1]/6V84[4:1],,,,,
{16}7,4,7,4,6,2,6,2,8,3,8,3,8,,2/7,,
{8}4/5,3/6,2/7,1/8,1-5[8:1]/8-4[8:1],2/7,,,
{4}1-4[8:1]/4-1[8:1],1^6[16:3],,1,
{8}4-8[8:1]/8-4[8:1],,8^3[16:3],,,,8-4[8:1],7,
{8}6,,1-5[8:1],2,3,,8-4[8:1],7,
{8}6^1[4:1],,,,,2,2,3,
{6}3h[6:1],{24}4,,,,,{8}6/8,,1/2,2,3,
{6}3h[6:1],{24}4,,,,,{8}1/6,,1/2,2,3,
{6}3h[6:1],{24}4,,,,,{8}2/6,4-1[8:1]/5-8[8:1],,4qq4[4:1]/5pp5[4:1],,
{4},,5/6,7qq4[2:1]/8-2[8:1],
{8}7/8,,3,,1,2,1-7[8:1]/2pp5[2:1],,
{8}1/2,,6,,8,7,7-5[8:1]/8-4[8:1],,
{4}7/8,7-3[8:1]/8-2[8:1],7/8,7/8^3[8:1],
{4}8^5[8:1],8w4[8:1],8,2/6,
{8}1/2^5[8:1],,7,6h[4:1],,8,1,2,
{8}1/3^6[8:1],,8,7h[4:1],,1,2,3,
{8}2/4^7[8:1],,1,8h[4:1],,7,1/6,2/5,
{16}4/3^6[8:1],,,,,,,,8,1,8,1,7b/2bpp5[2:1],,,,
{8}1/2,,6,,8,7,7qq4[2:1]/8-2[8:1],,
{8}7/8,,3,,1,2,1-5[8:1]/2-4[8:1],,
{4}1/2,1-7[8:1]/2-6[8:1],1/2,2/1^6[8:1],
{4}1^4[8:1],1w5[8:1],1,3/7,
{8}8/7^4[8:1],,2,3h[4:1],,1,8-4[8:1],,
{8}8b/2b-6[8:1],,2b/7b>4[4:1],,4b/7b,,,2,
{4}2-5[4:1],5-8[4:1],8-3[4:1],3,
{4}7-4[4:1],4-1[4:1],1-6[4:1],6p7[2:1]*>8[2:1],
{4},,,1/8,
{16}2b-4[24:1]/7b-5[24:1],,,2b/7b,,,1b/8b,,2b/7b,,,,,,,,
{2}4/5,3q7[16:3]/6p2[16:3],
{8},1^3[16:3]/8^6[16:3],,,,,,,
{4}2/7,,1/8,1/8-4[8:1],
{1}8<1[2:1],
{2}7h[4:1]/8h[4:1],1h[4:1]/2h[4:1],
{2}5h[4:1]/6h[4:1],3h[4:1]/4h[4:1],
{4}4/5,3-6[4:1]/6-3[4:1],,,
{4}1^3[8:1]/8^6[8:1],,4/5,2pp5[2:1]/6-8[8:1],
{8}2/6,,1,,8,7,3-1[8:1]/7qq4[2:1],,
{8}3/7,,8,,1,2,1-5[8:1]/2^5[8:1],,
{4}1/2,1^6[8:1]/2-6[8:1],1/2,2/1-4[8:1]*^4[8:1],
{4}1-6[8:1]*^6[8:1],1w5[8:1],1,3/7,
{8}8/7^4[8:1],,2,3h[4:1],,1,8,7,
{8}8/6^3[8:1],,1,2h[4:1],,8,7,6,
{8}7/5^2[8:1],,8,7h[4:1],,4,3/7,2/6,
{4}1-4[8:1]/5-8[8:1],1/5,2b/6b,3-1[8:1]/7qq4[2:1],
{8}3/7,,8,,1,2,2pp5[2:1]/6-8[8:1],,
{8}2/6,,1,,8,7,7^4[8:1]/8-4[8:1],,
{4}7/8,7-3[8:1]/8^3[8:1],7/8,7/8-5[8:1]*^5[8:1],
{4}8-3[8:1]*^3[8:1],8w4[8:1],8,2/6,
{8}1/2^5[8:1],,7,6h[4:1],,8,1-5[8:1],,
{8}1b/7b-3[8:1],,7b/2b<5[4:1],,2b/5b,,,7,
{4}7^4[4:1],4^1[4:1],1^6[4:1],6,
{4}2^5[4:1],5^8[4:1],8^3[4:1],3V51[2:1]*V58[2:1],
{4},,,1/8,
{16}2b-4[24:1]/7b-5[24:1],,,2b/7b,,,1b/8b,,2b/7b,,,,,,,,
{16}7,,8,,1/6h[16:3],,,5,,5,,6,5,,4/7,,
{4}1-5[8:1]/8-6[8:1],1/8,1-3[8:1]/8-4[8:1],1/8,
{16}1/6,,7,8,,6,5,,3/8,,2,1,,3,4,,
{16}7,5,6,,2,4,3,,5,4,5,,2b/7b,,,,
{16}2,,1,,8/3h[16:3],,,4,,4,,3,4,,2/5,,
{16}7,,8,,1/6h[16:3],,,5,,5,,6,5,,4/7,,
{4}1<5[48:7]*>5[48:7],1,8<4[48:7]*>4[48:7],8,
{4}3z7[4:1],7z3[4:1],3,8b,
{12}7,7,7,2,2,2,8,8,8,1v3[8:1]*-5[8:1],1,1,
{4},1v4[8:1]*v6[8:1],1,1-5[8:1]/2-8[8:1],
{1}1/2qq7[4:3],
{4},2/5,{1}2bqq5[4:15]/5b<5[4:15],,,,,
E

Re:MASTER


名前:
コメント:

タグ:

+ タグ編集
  • タグ:
最終更新:2026年10月04日 08:02