アットウィキロゴ

フラグメンツ -T.V. maimai edit-

アーティスト 発熱巫女~ず

BPM EASY BASIC ADVANCED EXPERT MASTER Re:MASTER
160 2 4 7 9+ 12+ -

EXPERT MASTER Re:MASTER
譜面制作者 Revo@LC 某S氏 -

EASY


BASIC

(160.0){1},
{1}1h[1:1],,
{1}8h[1:1],,
{1}1,
{1}2,
{1}3,
{1}4,
{1}5h[1:1],,
{1}4h[1:1],,
{1}5,
{1}6,
{1}7,
{1}8b,
{1}1-4[4:3],,
{1}8-5[4:3],,
{1}4-1[4:3],,
{1}5-8[4:3],,
{2}3/4,3,
{2}4,5,
{2}5/6,6,
{2}5,4,
{2}3/5,3,
{2}4,5,
{2}4/6,6,
{2}5,4,
{2}1/2,2,
{2}1,8,
{2}7/8,7,
{2}8,1,
{2}2/8,2,
{2}1,8,
{2}1/7,7,
{2}8,1,
{1}1h[2:1],
{2}2,2,
{1}3h[2:1],
{2}4,4,
{1}5h[2:1],
{2}6,6,
{1}7h[2:1],
{2}8,8b,
{1}8-4[4:3],,
{1}1-5[4:3],,
{2}7,6,
{2}5,4,
{2}3,2,
{1}1h[2:1],
{2}8,8b,
{4}1,1,1,,
{4}2,2,2,,
{4}3,3,3,,
{4}4,4,4,,
{4}5,5,5,,
{4}6,6,6,,
{4}7,7,7,,
{1}8h[2:1],
{4}7,7,7,,
{4}6,6,6,,
{4}5,5,5,,
{4}4,4,4,,
{4}3,3,3,,
{4}2,2,2,,
{1}1h[2:1],
{2}1/8,1b/8b,
{1}1-5[4:3],,
{1}8-4[4:3],,
{2}1,2,
{2}3,4,
{2}5,6,
{2}7,8,
{1}8-4[4:3],,
{1}1-5[4:3],,
{2}8,7,
{2}6,5,
{2}4,3,
{1}2h[2:1],
{1}2-7[4:3],,
{1}6-3[4:3],,
{1}2,
E

ADVANCED

(160.0){1},
{1}1,
{1}2,
{1}3,
{2}4,4/5,
{1}6,
{1}7,
{1}8,
{1}2/7,
{1}8,
{1}7,
{1}6,
{2}5,4/5,
{1}3,
{1}2,
{1}1,
{1}2/7,
{4}3,3,4,,
{4}6,6,5,,
{4}2,2,4,,
{4}7,7,5,,
{4}3,4,3,,
{4}6,5,6,,
{4}2,3,4,,
{4}7,6,5,,
{4}1/8,,2,3,
{4}4,5,6,,
{4}1/8,,7,6,
{4}5,4,3,,
{4}1/2,,4,5,
{4}6,7,8,,
{4}7/8,,5,4,
{4}3,2,1,,
{4}3/4,4,5,5,
{4}6,7,1/8,,
{4}5/6,5,4,4,
{4}3,2,1/8,,
{4}7/8,7,6,5,
{4}3,4,2/5,,
{4}1/2,2,3,4,
{4}6,5,4/7,,
{4}3h[2:1],,4,4,
{4}6h[2:1],,5,5,
{4}2h[2:1],,4,4,
{4}7h[2:1],,5,5,
{4}1h[2:1],,3,3,
{4}8h[2:1],,6,6,
{4}1,2,3,4,
{4}5,6,7,8,
{4}2h[2:1],,1,1/2,
{4}7h[2:1],,8,7/8,
{4}3h[2:1],,1,2/8,
{4}6h[2:1],,8,1/7,
{4}3h[2:1],,4,2/5,
{4}6h[2:1],,5,4/7,
{4}5,5,4,4,
{1}4^1[2:1]/5^8[2:1],
{2}1/8,2b/7b,
{8}1,,2,,3,,4,4,
{4},5/6,5/6,,
{8}8,,7,,6,,5,5,
{4},3/4,3/4,,
{4}2,3,4,5/6,
{4}7,6,5,3/4,
{8}3,,4,,5,,6,6<3[8:5],{1},
{8}3,,4,,5,,6,6,
{4},7,1/8,2/7,
{8}6,,5,,4,,3,3,
{4},2,1/8,2/7,
{8}3/6,,5,,4,,6,6,
{8},,4,,5,,3,3>6[8:5],{1},
{8},,4,,3,,2,2^7[8:5],{1},
{8},,5,,6,,7,7^2[8:5],{1},
{8},,2,,3,,4/5,4/5,
{8},,7,,6,,4/5,4/5,
{8},,2,,3,,4/5,4/5,
{8},,7,,6,,4/5,4/5,
{8},,3,,2,,1,1V35[8:5],{1},
{8},,6,,7,,8,8V64[8:5],{1},
{8},,3,,2,,1/8,1/8,
{8},,6,,7,,1/8,1/8,
{8},,3,,2,,1/8,1/8,
{8},,6,,7,,1/8,1^4[8:5]/8^5[8:5],{1},
{4}4,3,2,1,
{4}8,7,6,4/5,
{4}5,6,7,8,
{4}1,2,3,4/5,
{8}4/5,,3/6,,2/7,,1/8,{1}8/1-4[4:3]*-6[4:3],,
E

EXPERT

(160.0){1},
{1}5^2[2:1],
{1}4^7[2:1],
{1}1^6[2:1],
{2}1/2,7/8,
{1}4^7[2:1],
{1}5^2[2:1],
{1}8^3[2:1],
{2}7/8,1/2,
{4}5^2[8:3],,,1,
{4}4^7[8:3],,,8,
{4}1^6[8:3],,,5,
{4}8^3[8:3],,,4,
{4}5^8[8:3],,,1,
{4}4^1[8:3],,,8,
{4}3^6[8:3],,,7,
{1}4>5[8:5],
{4}7,6/8,2,1/3,
{4}6,5/7,3/4,1/8,
{4}2,1/3,7,6/8,
{4}3,2/4,5/6,4/7,
{4}2,1/3,7,6/8,
{4}3,2/4,5/6,1/8,
{4}7,6/8,2,1/3,
{4}6,5/7,3/4,2/5,
{8}5^2[4:1],,,,,1,8,,
{8}4^7[4:1],,,,,8,1,,
{8}1^6[4:1],,,,,5,4,,
{8}8^3[4:1],,,,,4,5,,
{8}4^1[4:1],,,,,8,7,,
{8}5^8[4:1],,,,,1,2,,
{8}3^6[4:1],,,,,7,8,,
{1}2q5[2:1],
{8}6,,1/2,,,3,2/5,,
{8}3,,7/8,,,6,4/7,,
{8}2,,5/6,,,7,1/6,,
{8}7,,3/4,,,2,3/8,,
{8}3,,7/8,,,6,4/7,,
{8}6,,1/2,,,3,2/5,,
{8}7,,3/4,,,2,3/8,,
{8}2,,5/6,,,7,1/6,,
{4}4p7[4:1],,,1/8,
{4}5q2[4:1],,,1/8,
{4}8p3[4:1],,,4/5,
{4}1q6[4:1],,,4/5,
{4}5p8[4:1],,,1/2,
{4}4q1[4:1],,,7/8,
{4}6q3[4:1],,,1/2,
{1}7p4[2:1],
{4}1,2/8,3h[4:1]/7h[4:1],,
{4}8,1/7,2h[4:1]/6h[4:1],,
{4}2,1/3,4h[4:1]/8h[4:1],,
{4}7,6/8,1h[4:1]/5h[4:1],,
{8}2/8,,1,1,,1,2/8,,
{8}1/7,,8,8,,8,1/7,,
{4}2/4,3/5,4/6,5/7,
{4}5/7,4/6,3/5,2/4,
{1}2b-5[2:1]/4b-7[2:1],
{8}1/2,,3/8,,4/7,,5/6,5/6h[8:7],
{4},3,2,1,
{8}7/8,,1/6,,2/5,,3/4,4/3h[8:7],
{4},6,7,8,
{4}1/2,3/8,4/7,5/6,
{4}7/8,1/6,2/5,3/4,
{8}1/8,,2/7,,3/6,,4/5,4qq1[8:5]/5pp8[8:5],{1},
{8}3/4,,2/5,,1/6,,7/8,8/7h[8:7],
{4},8,2,4,
{8}5/6,,4/7,,3/8,,1/2,1/2h[8:7],
{4},1,7,5,
{4}3/4,2/5,1/6,7/8,
{8}5/6,,4/7,,3/8,,1/2,2/1w5[8:5],{1},
{4}2/4,3/5,4/6,5/7,
{8}5,4,3,,,1/2,1/2,,
{8}4,5,6,,,7/8,7/8,,
{8}1,8,7,,,5/6,5/6,,
{8}8,1,2,,,3/4,3/4,,
{4}1h[4:1],2h[4:1],3h[4:1],4,
{4}8h[4:1],7h[4:1],6h[4:1],5,
{4}3h[4:1],4h[4:1],5h[4:1],6,
{4}5/7,4/6,3/5,2/4,
{8}4,5,6,,,7/8,7/8,,
{8}5,4,3,,,1/2,1/2,,
{8}8,1,2,,,3/4,3/4,,
{8}1,8,7,,,5/6,5/6,,
{4}8h[4:1],7h[4:1],6h[4:1],5,
{4}1h[4:1],2h[4:1],3h[4:1],4,
{4}6h[4:1],5h[4:1],4h[4:1],3qq5[4:3],{1},
{4}5-2[4:1]*-8[4:1],,,3/7,
{4}4-1[4:1]*-7[4:1],,,2/6,
{4}5^2[4:1]*^8[4:1],,,4/6,
{4}4^1[4:1]*^7[4:1],,,3/5,
{8}4/5,,3/6,,2/7,,1/8,{1}1pp4[4:3]/8qq5[4:3],,
E

MASTER

(160.0){8},2,2,,1,,1qq6[8:7]/2pp5[8:7],1/2,{1},
{8},7,7,,8,,7qq4[8:7]/8pp3[8:7],7/8,{1},
{8},2,2,,1,,1,2h[8:3],
{8},,4h[4:1],,5h[4:1],,7,7h[8:3],
{8},,5h[4:1],,4h[4:1],,2,2h[8:3],
{8},,1h[4:1],,8h[4:1],,7,7,
{8},2,1,,3/8,,5qq2[8:7]/6pp1[8:7],5/6,{1},
{8},7,8,,1/6,,3qq8[8:7]/4pp7[8:7],3/4,{1},
{8},2,1,,3/8,,5/6,5/6h[8:3],
{8},,8h[4:1],,1h[4:1],,3,4/3h[8:3],
{8},,1h[4:1],,8h[4:1],,6,6/5h[8:3],
{8},,4h[4:1],,2h[4:1],,8qq3[2:1]*pp5[2:1],8,
{4},,,2/7,
{8}3>7[4:1],,7<3[4:1],,3>7[4:1],,7w3[2:1],7,
{4},,,4/5,
{8}6<2[4:1],,2>6[4:1],,6<2[4:1],,2w6[2:1],2,
{4},,,1/8,
{8}3V17[4:1],,7V53[4:1],,3V17[4:1],,7w3[2:1],7,
{4},,,4/5,
{8}6V82[4:1],,2V46[4:1],,6V82[4:1],,2w6[2:1],2,
{4},,,1b/8b,
{8}4,,6,5/7,,3,2/4,,
{8}5,3,4,5h[4:1],,6,4/7,,
{8}5,,3,2/4,,6,5/7,,
{8}6,5,4,3h[4:1],,2,1/8,,
{8}5,,3,2/4,,6,5/7,,
{8}4,6,5,4h[4:1],,3,2/5,,
{8}4,,6,5/7,,3,2/4,,
{16}3,,4,,5,,6,,7b/8b,,,1b/8b,,,1b/2b,,
{8}8,,2,1/3,,7,6/8,,
{8}1,7,8,1h[4:1],,2,3/8,,
{8}1,,7,6/8,,2,1/3,,
{8}2,1,8,2b/7h[4:1],,6,4/5,,
{8}1,,7,6/8,,2,1/3,,
{8}8,2,1,8h[4:1],,7,1/6,,
{8}8,,2,1/3,,7,6/8,,
{16}7,,8,,1,,2,,3b/4b,,,4b/5b,,,5b/6b,,
{8}7h[4:1],,5h[8:1],4h[4:1],,2h[8:1],1,,
{8}2h[4:1],,4h[8:1],5h[4:1],,7h[8:1],8,,
{8}6h[4:1],,4h[8:1],3h[4:1],,1h[8:1],8,,
{8}2,3,4,5h[4:1],,6,6,,
{8}3h[4:1],,1h[8:1],8h[4:1],,6h[8:1],5,,
{8}6h[4:1],,8h[8:1],1h[4:1],,3h[8:1],4,,
{8}2h[4:1],,8h[8:1],7h[4:1],,5h[8:1],4,,
{8}6,7,8,1h[4:1],,2,2,,
{8}1^4[8:1],,,6^1[8:1],,,3-7[8:1],,
{8}8^5[8:1],,,3^8[8:1],,,6-2[8:1],,
{8}4^1[8:1],,,7^4[8:1],,,2-6[8:1],,
{8}5^8[8:1],,,2^5[8:1],,,7b,,
{16}3,,4,,2/5,,3,4,3,,4,,2/5,,3,,
{16}6,,5,,4/7,,6,5,6,,5,,4/7,,6,,
{8}1,2,3,4,5,6,7,8,
{16}1,8,2,7,3,6,4,,7/8,,,4/5,,,1/2,,
{2}1b^4[8:1]*^6[8:1],5b^2[8:1]*^8[8:1],
{4}1-5[8:1],5-1[8:1],1-4[8:1]*-6[8:1],,
{4}8-4[8:1],4-8[8:1],8-3[8:1]*-5[8:1],,
{4}1-5[8:1],2-6[8:1],3-7[8:1],4-8[8:1],
{4}5-1[8:1],6-2[8:1],7-3[8:1],8,
{4}1^4[8:1],1^6[8:1],1w5[8:1],1,
{4}8^5[8:1],8^3[8:1],8w4[8:1],8,
{4}1>5[4:1],5<1[4:1],1V35[4:1],5V71[4:1],
{4}1p5[4:1]*q5[4:1],,,2/7,
{4}8-4[8:1],4-8[8:1],8-3[8:1]*-5[8:1],,
{4}1-5[8:1],5-1[8:1],1-4[8:1]*-6[8:1],,
{4}8-4[8:1],7-3[8:1],6-2[8:1],5-1[8:1],
{4}4-8[8:1],3-7[8:1],2-6[8:1],1,
{4}8^5[8:1],8^3[8:1],8w4[8:1],8,
{4}1^4[8:1],1^6[8:1],1w5[8:1],1,
{1}1<2[2:1]*>8[2:1],
{8}6,1,2,,8,,1pp4[4:3]/7qq4[4:3],1/7,{1},
{8}3,8,7,,1,,2pp5[4:3]/8qq5[4:3],2/8,{1},
{8}6,1,2,,8,,7,7,
{8}1-5[8:1],,6-8[8:1],,4-2[8:1],,1,1,
{8}8-4[8:1],,3-1[8:1],,5-7[8:1],,1,1,
{8}2-6[8:1],,7-1[8:1],,5-3[8:1],,8,8,
{8}6,1,2,,3/8,,4qq1[4:3]/6pp1[4:3],4/6,{1},
{8}3,8,7,,1/6,,3qq8[4:3]/5pp8[4:3],3/5,{1},
{8}3,8,7,,1,,2,2,
{8}8-4[8:1],,3-1[8:1],,5-7[8:1],,8,8,
{8}1-5[8:1],,6-8[8:1],,4-2[8:1],,8,8,
{8}7-3[8:1],,2-8[8:1],,4-6[8:1],,1qq4[2:1]*pp6[2:1],1,
{4},,,2/7,
{8}7,5,6,4h[4:1],,3h[4:1],,2,
{8}2,4,3,5h[4:1],,6h[4:1],,7,
{8}7,1,8,2h[4:1],,3h[4:1],,4,
{8}5-1[8:1],4,3,,2-6[8:1],1,8,,
{8}5,,1,,7,,3qq6[8:7],{1}3,,
E

Re:MASTER


名前:
コメント:

タグ:

+ タグ編集
  • タグ:
最終更新:2026年10月04日 08:17