アットウィキロゴ

Starlight Dance Floor

アーティスト 発熱巫女~ず

BPM EASY BASIC ADVANCED EXPERT MASTER Re:MASTER
128 1 4 8 10 12 -

EXPERT MASTER Re:MASTER
譜面制作者 玉子豆腐 ものくろっく -

EASY


BASIC

(128.0){1},
{2}1,1,
{2}2,2,
{2}3,3,
{2}4,4/5,
{2}5,5,
{2}6,6,
{2}7,7,
{2}8,1/8,
{1}1-4[4:3],,
{1}8-5[4:3],,
{1}1-5[4:3],,
{1}8-4[4:3],,
{2}2,2,
{1}3h[2:1],
{2}4,4,
{1}5h[2:1],
{2}6,6,
{1}7h[2:1],
{2}8,8,
{1}1h[2:1],
{2}8,8,
{4}7,7,7,,
{2}6,6,
{4}5,5,5,,
{2}4,4,
{4}3,3,3,,
{2}2,2,
{4}1,1,1,,
{2}2,2,
{4}3,3,3/4,,
{2}4,4,
{4}5,5,4/5,,
{2}6,6,
{4}7,7,7/8,,
{2}8,8,
{4}1,1,1b/8b,,
{4}7,7,7,,
{4}6,6,6,,
{4}5,5,5,,
{4}3/4,3/4,3/4,,
{4}3,3,3,,
{4}2,2,2,,
{4}1,1,1,,
{4}7/8,7/8,7/8,,
{1}7-3[4:3],,
{4}2,2,2,,
{4}3,3,3,,
{4}4,4,4,,
{4}5,5,5,,
{4}4,4,4,,
{4}5,5,5,,
{1}4-1[4:3],,
E

ADVANCED

(128.0){1}1-4[2:1]/8-5[2:1],
{4}4/5,3/6,,3/6,
{4},3/6,,3/6,
{4}4/5,3/6,,3/6,
{4},3/6,,3/6,
{4}5/6,7,5/6,4,
{4}5/6,7,5/6,,
{4}3/4,2,3/4,5,
{4}3/4,,1/8,1b/8b,
{4}6h[4:1],5,3h[4:1],4,
{4}4/5,,7,6/8,
{4}1h[4:1]/5h[4:1],,2,1/3,
{4}4h[4:1]/8h[4:1],,3,2,
{2}1-4[4:1],8-5[4:1],
{4}1-5[4:1],,6,7,
{2}8-5[4:1],1-4[4:1],
{4}8-4[4:1],,,3/6,
{4}3h[4:1],4,6h[4:1],5,
{4}4/5,,3,2/4,
{4}1h[4:1]/5h[4:1],,6,5/7,
{4}4h[4:1]/8h[4:1],,7,6,
{2}5-8[4:1],4-1[4:1],
{4}5-1[4:1],,2,3,
{2}4-1[4:1],5-8[4:1],
{4}1b,,4/5,3/6,
{4}3,2/4,6,5/7,
{4}3,2/4,1/8,1/8,
{4}6,5/7,3,2/4,
{4}6,5/7,1/8,1/8,
{4}3,2/4,6,5/7,
{4}3,2/4,1/8,2/7,
{8}5,5,5,,3/4,,5/6,,
{4}4h[4:1]/5h[4:1],,8,1,
{4}7,6/8,2,1/3,
{4}7,6/8,4/5,4/5,
{4}2,1/3,7,6/8,
{4}2,1/3,4/5,4/5,
{4}7,6/8,2,1/3,
{4}7,6/8,4/5,3/6,
{8}1,1,1,,7/8,,1/2,,
{1}2V41[2:1]/7V58[2:1],
{4}7h[4:1],8,1/6,1/6,
{4}3h[4:1],4,2/5,,
{4}2h[4:1],1,3/8,3/8,
{4}6h[4:1],5,4/7,,
{4}6h[4:1],5,4/7,4/7,
{4}2h[4:1],1,3/8,,
{4}3h[4:1],4,6h[4:1],5,
{1}4v1[8:3]/5v8[8:3],
{4}1/8,1/2,1/8,7/8,
{4}1h[4:1]/8h[4:1],,2/7,3/6,
{4}4/5,5/6,4/5,3/4,
{4}4h[4:1]/5h[4:1],,3/6,2/7,
{4}1/8,7/8,1/8,1/2,
{4}1h[4:1]/8h[4:1],,2/7,3/6,
{4}4/5,3/6,{2}4qq1[4:3]/5pp8[4:3],{1},
{1}2b/7b,
E

EXPERT

(128.0){1}1^4[16:7]/8^5[16:7],
{4}4,3/4,,3/4,
{4}5,5/6,,5/6,
{4}4,2/4,,2/4,
{4}5,5/7,,5/7,
{4}4,3/4,3,2/4,
{4}5,5/6,6,5/7,
{4}4,2/4,5,5/7,
{8}4b/8b,,,,4,4h[4:1],,5,
{8},6h[4:1],,5,,3h[4:1],,5,
{8},1/7,,8,8h[4:1],,7h[4:1],,
{4}6-3[16:3],2,2h[4:1],3h[4:1],
{8}4,,2/6,,5,5h[4:1],,4,
{8},3h[4:1],,4,,6h[4:1],,4,
{8},2/8,,4/6,,4h[4:1],,5,
{8},6h[4:1],,5,,3<7[8:3],,5,
{8},,,,8,8h[4:1],,1,
{8},2h[4:1],,1,,7h[4:1],,1,
{8},3/5,,4,4h[4:1],,3h[4:1],,
{4}2-7[16:3],6,6h[4:1],7h[4:1],
{8}8,,2/6,,1,1h[4:1],,8,
{8},7h[4:1],,8,,2,2,8,
{16}8h[16:3],,,7,,,1/6,,,,8,,8,,1,,
{8},2,2,1,,7,7V53[4:1],1,
{8},,,2h[2:1],,4,3,6h[2:1],
{8},4,5,2h[2:1],,4,3,6h[2:1],
{8},4,5,3h[2:1],,5,4,7h[2:1],
{8},5,6,3h[2:1],,5,4,7h[2:1],
{8},4,5,2h[2:1],,4,3,6h[2:1],
{8},4,5,2h[2:1],,4,3,6,
{8},4/7,,5,6,4,3^6[8:1],,
{8},,2/7,,8,7,1,2^5[8:1],
{8},6,,7h[2:1],,5,6,3h[2:1],
{8},5,4,7h[2:1],,5,6,3h[2:1],
{8},5,4,6h[2:1],,4,5,2h[2:1],
{8},4,3,6h[2:1],,4,5,2h[2:1],
{8},5,4,7h[2:1],,5,6,3h[2:1],
{8},5,4,7h[2:1],,5,6,3,
{8},2/5,,4,3,5,6^3[8:1],,
{8},,2/7,,1,2,8,7,
{16}1h[16:3],,,2,,,4b/7h[2:1],,,,5,,6,,1h[2:1],,
{8},4,3,7h[2:1],,5,6,1h[2:1],
{8},2,,8h[2:1],,5,6,2h[2:1],
{8},4,3,8h[2:1],,5,6,2h[4:1],
{8},3,,3/8h[2:1],,6,7,2h[2:1],
{8},5,4,8h[2:1],,6,7,2h[2:1],
{8},3,,7h[2:1],,5,6,2h[2:1],
{8},4,3,7h[2:1],,5,6,2-5[8:1],
{8},6-1[8:1],,2h[2:1],,4,3,8h[2:1],
{8},5,6,2h[2:1],,4,3,8h[2:1],
{8},7,,1h[2:1],,4,3,7h[2:1],
{8},5,6,1h[2:1],,4,3,7h[4:1],
{8},6,,6/1h[2:1],,3,2,7h[2:1],
{8},4,5,1h[2:1],,3,2,7h[2:1],
{8},2,,1h[2:1],,5,4,8h[2:1],
{8},4,5,1h[2:1],,5,4,8-3[8:1],
{8},1-6[8:1],,7-4[8:1],,2-5[8:1],,6pp4[8:5],
{4}6b,,,,
E

MASTER

(128.0){4}2/7,,1-5[8:1]/8-4[8:1],1b/8b,
{4}3h[1:1],4,,4,
{4}6h[1:1],5,,5,
{4}2h[1:1],4,,4,
{4}7h[1:1],5,,5,
{4}2-5[8:1],2/6,2-5[8:1],2/6,
{4}2-6[8:1],2/5,2-6[8:1],2/5,
{4}2-6[8:1],2/4,3/6,1-5[8:1]/8-4[8:1],
{4}1/8,,{983}4,,,,,,,,,,,,,,,,,,,,,,,,,,,,,,,,,,,,,,,,,{625}5,,,,,,,,,,,,,,,,,,,,,,,,,,{983}4,,,,,,,,,,,,,,,,,,,,,,,,,,,,,,,,,,,,,,,,,{16}5,1,8,,2/7,,
{8}5/7,6,2/4,3,5/7,6,2/4,3-6[8:1]*-8[8:1],
{8},3,,2h[4:1],1,7h[4:1],8,2h[8:1],
{8}1-4[8:1]*-6[8:1],,1,,2h[4:1],4,7h[4:1],5,
{8}2-5[8:1]*-7[8:1],,2,,,7/8-4[8:1],,3/8,
{8},7/8-4[8:1],,3/8,,7/8-4[8:1],,8/3-6[8:1]*-8[8:1],
{8},3,,3/8,,2/1-5[8:1],,1/6,
{8},2/1-5[8:1],,1/6,,2/1qq5[8:3],,1b/6h[8:3],
{8},,,,{983}4,,,,,,,,,,,,,,,,,,,,,,,,,,,,,,,,,,,,,,,,,{625}5,,,,,,,,,,,,,,,,,,,,,,,,,,{983}4,,,,,,,,,,,,,,,,,,,,,,,,,,,,,,,,,,,,,,,,,{16}5,1,8,,2/7,,
{8}2/4,3,5/7,6,1/4,2,5/8,7^2[8:1]*^4[8:1],
{8},7,,4/3h[4:1],1,4h[4:1],8,3h[8:1],
{8}1^4[8:1]*^6[8:1],,1,,5/6h[4:1],8,5h[4:1],1,
{8}6^1[8:1]*^3[8:1],,6,,,1/7-3[8:1],,5/7,
{8},1/7-3[8:1],,5/7,,7/8,6,5,
{16}1/2,,,4/5,,,7/8,,,,1/2-6[8:1],,,,2/5,,
{8},1/2-6[8:1],,2/5,,1/2qq6[8:3],,2b/5h[8:3],
{8},,,4/5,6,8/7v4[8:1],1,3-7[8:1],
{8},8q4[8:1],8,3-7[8:1],,1-4[8:1],1,3,
{8},2/6,,4/5,3,1/2v5[8:1],8,6-2[8:1],
{8},1p5[8:1],1,6-2[8:1],,8-5[8:1],8,6,
{8},3/7,,4/5,6,8/7v4[8:1],1,3-7[8:1],
{8},8q4[8:1],8,3-7[8:1],,1-4[8:1],1,3,
{8},2/6,,5,3/7,1,3/7,5,
{8}4,5,2/7,,1/7,3/5,4/6,2-5[8:1]/8-5[8:1],
{8},2b/8b,,1/8,7,5/6v1[8:1],4,2-6[8:1],
{8},5p1[8:1],5,2-6[8:1],,4-1[8:1],4,2,
{8},3/7,,1/8,2,4/3v8[8:1],5,7-3[8:1],
{8},4q8[8:1],4,7-3[8:1],,5-8[8:1],5,7,
{8},2/6,,1/8,7,5/6v1[8:1],4,2-6[8:1],
{8},5p1[8:1],5,2-6[8:1],,4-1[8:1],4,2,
{8},3/7,,4,2/6,8,2/6,4,
{8}5,4,2/7,,5/7,6,2/4,3,
{16}1/2,,,4/5,,,7b/8bq4[8:1],,,,6q2[8:1],,6,,3p7[8:1],,
{8},6q2[8:1],6,3p7[8:1],,6,,1^6[8:1]/2^5[8:1],
{8},1/2,,3b/7b,,1/2q6[8:1],8,7p3[8:1],
{8},2q6[8:1],2,7p3[8:1],,2,,7/8,
{8},4,5,2/7,,3/8p4[8:1],2,1q5[8:1],
{8},8p4[8:1],8,1q5[8:1],,8,,3^8[8:1]/7^4[8:1],
{8},3/7,,2b/6b,,7/4p8[8:1],6,5q1[8:1],
{8},4p8[8:1],4,5q1[8:1],,4,,2/6,
{8},7/8,3/4,1-6[8:1]/2-5[8:1],,1/2,,3/5>6[8:3],
{8}5b/3h[2:1],,,,,,2/8,1pp3[8:1]/7qq5[8:1],
{8},1/7,,2b/6b,,7/5q2[8:1],4,3v6[8:1],
{8},5q2[8:1],5,3v8[8:1],,5,,3/7,
{8},6,2,4b/8b,,3/5p8[8:1],6,7v4[8:1],
{8},5p8[8:1],5,7v2[8:1],,5,,4qq2[8:1]/8qq6[8:1],
{8},4/8,,3b/7b,,6/4q1[8:1],3,2v5[8:1],
{8},4q1[8:1],4,2v7[8:1],,4,,2/6,
{8},1/2,5/6,7-4[8:1]/8-3[8:1],,7/8,,4/8,
{8}6h[8:7]/2bq5[8:5],,,,,,,,
E

Re:MASTER


名前:
コメント:

タグ:

+ タグ編集
  • タグ:
最終更新:2026年10月04日 08:19