| アーティスト |
舞風-MAIKAZE/時音-TOKINE |
EASY
BASIC
(170.0){1},
{2}1,1,
{2}8,8,
{2}2,2,
{2}7,7,
{2}1,1/8,
{2}8,1/8,
{2}2,1/8,
{2}7,1b/8b,
{2}1,1,
{2}2,2,
{2}3,3,
{2}4,4/5,
{2}5,5,
{2}6,6,
{2}7,7,
{2}8,1b/8b,
{2}1,1,
{2}2,1/2,
{2}3,3,
{2}4,4/5,
{2}5,5,
{2}6,5/6,
{1}7h[1:1],,
{2}8,8,
{2}7,7/8,
{2}6,6,
{2}5,4/5,
{2}4,4,
{2}3,3/4,
{1}2h[1:1],,
{1}1-5[4:3],,
{1}8-4[4:3],,
{2}3,3,
{2}2,2,
{2}1,1,
{2}8,8b,
{4}1,1,1,,
{4}2,2,2,,
{1}3h[1:1],,
{4}5,5,5,,
{4}6,6,6,,
{1}7h[1:1],,
{4}8,8,8,,
{4}7,7,7,,
{1}6h[1:1],,
{4}4,4,4,,
{4}3,3,3,,
{1}2h[1:1],,
{2}1/8,1/8,
{1}1-4[4:3]/8-5[4:3],,
E
ADVANCED
(170.0){4}1,8,2/7,1/8,
{2}2,3,
{4}3,4,2/5,,
{2}7,6,
{4}6,5,4/7,,
{2}1,8,
{4}1/8,2/7,3/6,,
{2}4,5,
{4}4/5,2/7,1b/8b,,
{4}3,4,5,6,
{4}6,5,3/4,,
{4}2,1,8,7,
{4}7,8,1/2,,
{4}8,1,8,2/7,
{4}3,4,5/6,,
{4}1,8,1,2/7,
{4}7,8,1b/2b,,
{2}1h[2:1],8,
{4}8,7,6,,
{2}6h[2:1],5,
{4}6,5,4,,
{2}3h[2:1],4,
{4}3,2,1,,
{2}8h[2:1],1,
{4}2/7,2/7,1b/8b,,
{2}8-5[4:1],1-4[4:1],
{4}5,7,1/8,,
{2}1-4[4:1],8-5[4:1],
{4}4,2,1/8,,
{2}7-4[4:1],2-5[4:1],
{4}8,1/7,2/6,3/5,
{1}4-1[2:1]*-7[2:1],
{4}2/7,1/8,2b/7b,,
{4}3,4,2/5,,
{4}6,5,4/7,,
{4}4,5,3/6,,
{4}1,8,2/7,1/8,
{4}3,3/4,6,5/6,
{4}1,8,3/6,,
{4}1h[2:1],8,8,,
{1}1p5[2:1]*q5[2:1],
{4}5b,4/6,3/7,2/8,
{4}1,2/8,3/7,4/6,
{4}5,4,2/7,1/8,
{4}1,8,3/6,4/5,
{4}3/4,3/4,4/5,5/6,
{4}5/6,5/6,4/5,3/4,
{4}1/2,1/2,7/8,7/8,
{4}1/2,3/4,5/6,7b/8b,
{2}1-3[8:1],8-6[8:1],
{2}2-4[8:1],7-5[8:1],
{1}1pp4[4:3],
{1}8qq5[4:3],
{4}1,2,3,4,
{4}5,6,7,8,
{1}1pp4[4:3]/8qq5[4:3],
{8},,3/6,,1,8,1,,
{8}2h[8:3]/7h[8:3],,,,,,,8h[2:1],
{8},,,1-4[8:11]*-6[8:11],,,,,{1},,
E
EXPERT
(170.0){1},
{8}2h[8:3],,,4h[8:3],,,5,,
{1}6qq8[16:9],
{8}7h[8:3],,,5h[8:3],,,4,,
{1}3pp1[16:9],
{8}2h[8:3],,,1h[8:3],,,8,,
{1}6qq8[16:9],
{8}7h[8:3],,,8h[8:3],,,1,,
{4}2/7,4-1[4:1]/5-8[4:1],,,
{8}7h[8:3],,,6h[8:3],,,5,,
{1}4pp1[16:9],
{8}2h[8:3],,,3h[8:3],,,4,,
{1}5qq8[16:9],
{8}7h[8:3],,,8h[8:3],,,1,,
{1}4pp1[16:9],
{8}2h[8:3],,,1h[8:3],,,8,,
{4}2/7,4^1[4:1]/5^8[4:1],,,
{4}2,3,4,4/5,
{8}6h[8:3],,5,5,,4/7,4/7,,
{4}7,6,5,4/5,
{8}3h[8:3],,4,4,,2/5,2/5,,
{4}2,3,4,5/6,
{8}3/4,,1/8,1/8,,2/7,2/7,,
{8}5h[8:3],,,4h[8:3],,,3>6[2:1],,
{4},,,1b/8b,
{8}4/5,,1/2,1/2,,3/8,3/8,,
{4}6,5/7,3,2/4,
{8}4/5,,7/8,7/8,,1/6,1/6,,
{4}3,2/4,6,5/7,
{8}4/5,,1/2,1/2,,3/8,3/8,,
{8}4/5,,7/8,7/8,,1/6,1/6,,
{4}4/5,1/2,4/5,7/8,
{8}4/5,,1/3,1/3,,6/8,6/8,,
{8}3h[2:1],,,4,4,,1/7,,
{8}6h[2:1],,,5,5,,2/8,,
{8}4h[2:1],,,5,5,,2/7,,
{4}4/5,2/4,5/7,1/8,
{8}2h[2:1],,,1,1,,4/6,,
{8}7h[2:1],,,8,8,,3/5,,
{8}1h[2:1],,,8,8,,2/7,,
{8}4/5,,8,8-4[16:3],,1b,,,
{8}4/5,,7/8,7/8,,1^3[16:3]/6^8[16:3],1/6,,
{4},4h[4:1],5h[4:1],6h[4:1],
{8}7^2[4:1],,,3^6[4:1],,,7^2[4:1],,
{8},,,,1/8,,3/4,3/4,
{8},2^4[16:3]/5^7[16:3],2/5,,,,8h[4:1],,
{8}1,,2/7,2/7,,4/5,,3-8[4:1],
{8}3,,6-1[4:1],6,,3,3,3>6[16:7],
{4},,,1b/8b,
{8}4/5,,1/2,1/2,,3^1[16:3]/8^6[16:3],3/8,,
{4},5h[4:1],4h[4:1],3h[4:1],
{8}2^7[4:1],,,,,,6qq3[8:5],6,
{4},,,1h[4:1],
{8}8,,3/7,3/7,,2/6,2/6,,
{8}7h[4:1],,6h[4:1],,5h[4:1],,4>5[4:3],4,{1},
{4}4/5,1/3,4/5,6/8,
{8}1-5[16:3],1,,8-4[16:3],8,,3-7[16:3],3,
{8},6,6,6b<3[8:7],{1},,
E
MASTER
(170.0){16}1/8,,,,1/8,,,,7,6,5,4,3,2,1,8,
{8}3h[4:1],,4,3h[4:1],,2,1,,
{8}7,8,,6,5,,3/4,,
{8}6h[4:1],,5,6h[4:1],,7,8,,
{8}2,1,,3,4,,5/6,,
{8}1h[4:1],,8,1h[4:1],,3,2,,
{8}7,6,,5,4,,1/8,,
{8}8h[4:1],,1,8h[4:1],,6,7,,
{16}2,,3,,,,1/8,,2,3,4,5,6,7,8,1,
{8}6,6,4,4h[4:1],,5,4/6,,
{8}1,2/8,,3/7,2/6,1/5,4/8,,
{8}1,7,3,5h[4:1],,4,3/5,,
{8}8,1/7,,2/6,3/7,4/8,1/5,,
{8}7,3,8,4h[4:1],,1,2/8,,
{8}5,4/6,,2-6[8:1],6^1[8:1],,,,
{8}7,3,8,4h[4:1],,1,2/8,,
{16}4,,3/5,,,,1,8,1,,2/7,,2/7,,,,
{8}5/4h[1:1],,5,,5,,5,5,
{8}5h[4:3],,2,2,,1,1,,
{8}8/1h[1:1],,8,,8,,8,8,
{8}8h[8:3],,4,4h[8:3],,5,5,,
{8}3/2h[1:1],,3,,3,,3,3,
{8}3h[8:3],,1,1h[8:3],,8,8h[4:1],,
{8}7h[8:3],,,6h[8:3],,,5h[4:1],,
{16}8,,,,8,,,,1,8,1,,2/7,,,,
{8}3,4,5,6,,1/8,3/6,,
{8}3,3h[4:1],4,4h[4:1],5,5h[4:1],6,6,
{8}6,5,4,3,,1/8,3/6,,
{8}6,6h[4:1],5,5h[4:1],4,4h[4:1],3,3,
{8}8,1,5,4,,4/7,3/8,1/2,
{8},2/5,1/6,7/8,,1/8,2/7,3/6,
{4}5<1[4:1],1-5[4:1],5>1[4:1],1pp4[8:5]*qq6[8:5],{1},
{8}3b/6b,,1,8,,3,4,2/5,
{8}3/4,,8,1,,6,5,4/7,
{8}5/6,,3,1/5,,6,4/8,,
{8}1,,7,1/5,,2,4/8,,
{8}2^5[4:1],,1,8^5[4:1],,3,2,1,
{8}4h[4:1]/8h[4:1],,,2/6,,2/6,3/7,4/8,
{8}1/5,,3/7,1/8,,3/4,5/6,3/4,
{8}5/6,4/7,3/8,2/1p5[8:1]*q5[8:1],,1b,,,
{8}7p3[8:1],3>6[8:1],,,,4,2/7,1/8,
{4}1p3[4:1],3p5[4:1],5p7[4:1],7p1[4:1],
{8}5h[8:3],,,2h[8:3],,,6h[4:1],,
{8}5-1[8:1],,5,,2,3,4,5-1[8:1],
{8},4,4-8[8:1],,7,,1/6,2/5,
{8}3/4,,7/8,1/6,,1-5[8:1]/2-5[8:1],,1/2,
{8},,4,3/5,,5^2[8:3]*^8[8:3],4/6,5,
{16},,,,,,,,1,8,1,,2/7,,2/7,,
{8}1-3[8:1],8-6[8:1],1-5[8:1],8-4[8:1],1pp3[8:1],8qq6[8:1],,,
{4},7h[4:1],5h[4:1],3>6[2:1],
{8}3h[2:1],,,,,,4qq1[2:1]/5pp8[2:1],4/5,
{8},,,,,,7/8,1/6,
{8}2/5,,2/3,3/4,,6/7,5/6<2[4:1],,
{8}2>6[4:1],,6<2[4:1],,,,4,3,
{4}2>6[4:1],6<2[4:1],2>6[4:1],,
{16}8,,,,1,8,1,,2/7,,3/6,,4/5,,,,
{8}2/1^6[8:1],3,4,5,,7/8^3[8:1],6,5,
{8},3/4>5[8:37],2,1,,,,,{1},,,,,
E
Re:MASTER
最終更新:2026年10月04日 08:20