EASY
BASIC
(132.0){1},,,,
{4}8,8,8,,
{4}7,7,7,,
{4}6,6,6,,
{4}5,5,5,,
{4}4,4,4,,
{4}3,3,3,,
{4}2,2,2,,
{4}1,1,1,,
{1}7h[1:1]/8h[1:1],,
{1}1h[1:1]/2h[1:1],,
{1}3h[1:1]/4h[1:1],,
{1}5h[1:1]/6h[1:1],,
{4}7,7,7,,
{4}6,6,6,,
{4}5,5,5,,
{4}4/5,4/5,4/5,,
{4}4,4,4,,
{4}3,3,3,,
{4}2,2,2,,
{4}1/2,1/2,1/2,,
{1}8-4[4:3],,
{1}1-5[4:3],,
{1}8-3[4:3],,
{1}1-6[4:3],,
{4},,8,8,
{4}8,8,7,7,
{4}7,,6,6,
{4}6,6,5,5,
{4}4/5,,4,4,
{4}4,4,3,3,
{4}3,,2,2,
{4}2,2,1,1,
{4}1/8,,2,2,
{4}2,2,3,3,
{4}3,,4,4,
{4}4,4,5,5,
{4}4/5,,6,6,
{4}6,6,7,7,
{4}7,,8,8,
{4}8,8,1,1,
{2}1b/8b,1h[2:1]/8h[2:1],
{4},,2,2,
{4}1,1,8b,
E
ADVANCED
(132.0){4}4,4,4,,
{4}5,5,5,,
{4}4,4,5,5,
{4}4/5,4/5,3b/6b,,
{4}3,4,5,6,
{4}7,7/8,7/8,,
{4}6,5,4,3,
{1}1h[2:1]/2h[2:1],
{4}2,1,8,7,
{4}6,5/6,5/6,,
{4}7,8,1,2,
{1}3h[2:1]/4h[2:1],
{4}6,5,4/7,,
{4}3,4,2/5,,
{2}5h[4:1]/6h[4:1],3h[4:1]/4h[4:1],
{1}5-2[8:3]/6-1[8:3],
{4}2,1,3/8,,
{4}7,8,1/6,,
{1}1/2>7[4:3],
{4},,1/8,1/8,
{4}7,8,1/6,,
{4}2,1,3/8,,
{2}7h[4:1]/8h[4:1],1h[4:1]/2h[4:1],
{1}7-4[8:3]/8-3[8:3],
{4}3,4,2/5,,
{4}6,5,4/7,,
{1}4/3>6[4:3],
{4},,4/5,4/5,
{1}4/3-8[8:3],
{2}8h[2:1],7h[2:1],
{1}6-1[8:3],
{2}1h[2:1],2h[2:1],
{1}3^8[8:3],
{2}8h[2:1],7h[2:1],
{1}6^1[8:3],
{2}1h[2:1],2,
{4}1/8,1/8,2h[4:1],1,
{4}3/8,,7h[4:1],8,
{4}1/6,,1/2,1/2,
{4}7/8,7/8,1-6[8:3]/2-5[8:3],,
{4},,6h[4:1],5,
{4}4/7,,3h[4:1],4,
{2}2/5,5/6<3[4:3],{1},
{4}4/5,3/6,3h[4:1],4,
{4}2/5,,6h[4:1],5,
{4}4/7,,3/4,3/4,
{4}5/6,5/6,3-8[8:3]/4-7[8:3],,
{4},,7h[4:1],8,
{4}1/6,,2h[4:1],1,
{2}3/8,8/7^4[2:1],
{2},3^8[2:1],
{2},7-3[8:3],
{4},,3/4,5/6,
{4}4/5,4/5,2b/7b,
E
EXPERT
(132.0){8}3h[1:1],4,,4,,5,,5,
{8}6h[1:1],5,,5,,4,,4,
{8}3h[2:1],4,,5,6h[8:3],5,,4,
{4}4/5,4/5,4/5,2b/7b,
{8}2,1,3,8,3,4,2,5,
{8}3/7,6,5,4,2/5,3,4,5,
{8}6,5,7,4,7,8,6,1,
{8}6,5,4/6,3,4,3h[4:1]/5h[4:1],,,
{8}7,8,6,1,6,5,7,4,
{8}2/6,3,4,5,4/7,6,5,4,
{8}3,4,2,5,2,1,3,8,
{8}3,4,3/5,6,5,4h[4:1]/6h[4:1],,,
{8}7^4[8:1],,,1q5[8:1],,,8h[4:1],,
{8}2^5[8:1],,,8p4[8:1],,,1h[4:1],,
{8}7p3[8:1],,,1^4[8:1],,,7,,
{1}7qq4[2:1]/8pp3[2:1],
{8}7-5[8:1],,,8-4[8:1],,,1h[4:1],,
{8}2-4[8:1],,,1-5[8:1],,,8h[4:1],,
{1}7pp2[2:1],
{8}4,,4,,4,,4,5,
{8}4^1[8:1],,,6q2[8:1],,,3h[4:1],,
{8}5^8[8:1],,,3p7[8:1],,,6h[4:1],,
{8}4p8[8:1],,,7^2[8:1],,,3,,
{1}1qq6[2:1]/2pp5[2:1],
{8}1^4[8:1],,,6^1[8:1],,,3h[4:1],,
{8}7^4[8:1],,,2^7[8:1],,,5h[4:1],,
{1}6qq3[2:1],
{8}5,,5,,5,,5,4,
{2}3h[2:3]/5h[4:1],4h[4:1],
{4}2h[4:1],,1,2/7,
{2}4h[4:1]/6h[2:3],5h[4:1],
{4}7h[4:1],,8,2/7,
{2}2h[2:3]/8h[4:1],1h[4:1],
{4}3h[4:1],,4,3/6,
{2}1h[4:1]/7h[2:3],8h[4:1],
{4}6h[4:1],,5,3/6bpp4[2:1],
{4},,3,2/4,
{8}2,1,3/8,,6,,5/7,,
{8}7,8,1/6,,1/8,,2/7,,
{8}4,5,3/6,,2pp1[2:1]/6pp5[2:1],,,,
{8},,,,2,1,3/8,,
{8}7,8,1/6,,3,4,2/5,,
{8}6,5,4/7,,4>5[2:1]/5p4[2:1],,,,
{4},,4,4,
{8}4,,4,5,4/6,5,4,3/5,
{8}4,5,4/6,,2/5,4,5,4/7,
{8}5,4,2/5,,5/7,4,5,2/4,
{8}5,4,5/7,,1/2,3,5,7/8,
{8}6,4,1/2,,2,1,3,8,
{8}4,7,5,6,8,7,1,6,
{8}2,5,3,4,3qq8[2:1]/5pp8[2:1],,,,
{2},4qq1[2:1]/6pp1[2:1],
{2},2h[4:3]/8h[4:3],
{4},,1/6,3/8,
{8}1/5,,1,8,2b/7b,
E
MASTER
(132.0){8}3/5,4,4/6,5,3/5,4,4/6,5,
{8}2/5,3,4/7,6,2/5,3,4/7,6,
{4}2/5-1[8:1],4-8[8:1],6-1[8:1],4,
{12}2b/7b,2b/7b,,{24}3/6,,,4,,{24}4,{8}5,2/7,{12}6,{24}6,{12}5,{24}5,
{8}4,1/2,5,7/8,4,1/2,5,7/8,
{8}2/4,3/5,4/6,{12}7,{24}7,{12}6,{24}6,{12}5,{24}5,{8}4h[8:1],3,
{8}2/6h[8:1],5,7/3h[8:1],4,1/6h[8:1],5,8/3h[8:1],4,
{12}2,{24}2,{12}1,{24}1,{24}2b,,,7,,{24}7,{12}8,{24}8,{8}7b,1/8,2/7,
{8}5,7/8,4,1/2,5,7/8,4,1/2,
{8}5/7,4/6,3/5,{12}2,{24}2,{12}3,{24}3,{12}4,{24}4,{8}5h[8:1],6,
{8}7/3h[8:1],4,2/6h[8:1],5,8/3h[8:1],4,1/6h[8:1],5,
{12}7,{24}7,{12}8,{24}8,{24}7b,,,2,,{24}2,{12}1,{24}1,{8}2b,1/8,3/6,
{8}2/7^4[8:1],,3/7,2^7[8:1],,2/4,5-1[8:1],,
{8}5/2^5[8:1],,2/6,7^2[8:1],,5/7,4-8[8:1],,
{8}4/7^4[8:1],,3/7,2^7[8:1],,2/4,6h[4:1],,
{8}5,2/8,5/6,1/3,5/6,2/8,5/6,1/3,
{8}5/6-2[8:1],,6,1h[4:1],,2,3^8[8:1]/8^5[8:1],,
{8}3/8-4[8:1],,8,6-1[8:1],,2/6,3,4,
{16}1/5^2[8:1],,,,1/5,,8,,7h[16:3],,,6h[16:3],,,5,,
{8}3p2[4:1]/4<1[4:1],,,,,4/5,2b/7b,,
{8}7/2^5[8:1],,2/6,7^2[8:1],,5/7,4-8[8:1],,
{8}4/7^4[8:1],,3/7,2^7[8:1],,2/4,5-1[8:1],,
{8}5/2^5[8:1],,2/6,7^2[8:1],,5/7,3h[4:1],,
{8}4,1/7,3/4,6/8,3/4,1/7,3/4,6/8,
{8}4/3-7[8:1],,3,8h[4:1],,7,1^4[8:1]/6^1[8:1],,
{8}6/1-5[8:1],,1,3-8[8:1],,3/7,6,5,
{16}8/4^7[8:1],,,,4/8,,1,,2h[16:3],,,3h[16:3],,,4,,
{4}5>8[4:1]/6q7[4:1],,,3b/6b,
{16}7/1pp5[4:1],,,,,,,,8h[16:3],,,7h[16:3],,,6,,
{16}2h[16:3],,,3h[16:3],,,4,,5-1[8:1],,,,,,,,
{16}2/8qq4[4:1],,,,,,,,1h[16:3],,,2h[16:3],,,3,,
{16}7h[16:3],,,6h[16:3],,,5,,4-8[8:1],,,,,,,,
{16}7/1pp6[4:1],,,,,,,,8h[16:3],,,7h[16:3],,,6,,
{16}2h[16:3],,,3h[16:3],,,4,,5-1[8:1],,,,,,,,
{16}2/8qq3[4:1],,,,,,,,1h[16:3],,,2h[16:3],,,3,,
{16}7h[16:3],,,6h[16:3],,,5,,2/7,,,,3/6,,4,5,
{16}4,5,3,4,2,6,5,7,2-5[8:1],,3,,1/2,,8,,
{8}8/7-4[8:1],6,7/8,1,1/2-5[8:1],3,1/2,8,
{8}8/7-4[8:1],6,7/8,1,1/2-5[8:1],3,1/2,8,
{8}7/6-1[8:1],5,5/6,4,{12}2,{24}2,{12}3,{24}3,{12}4,{24}4,{12}5,{24}5,
{12}6,{24}6,{12}7,{24}7,{12}8,{24}8,{12}1,{24}1,{8}2-5[8:1],3/8,1/2,8,
{8}7/8-3[8:1]*-5[8:1],1/6,8,,8/7-4[8:1],1/6,7/8,1,
{8}2/1-4[8:1]*-6[8:1],3/8,1,,5/6^1[8:1],4/7,5/6,4,
{16}3h[16:3],,,2h[16:3],,,1,,7p6[4:1]/8>5[4:1],,,,,,,,
{8},3/6,1b/8b,,8/7^4[8:1],6,7/8,1,
{8}1/2^5[8:1],3,1/2,8,8/7^4[8:1],6,7/8,1,
{8}1/2^5[8:1],3,1/2,8,8/7^4[8:1],6,7/8,1,
{8}2/3-8[8:1],4,3/4,5,{12}7,{24}7,{12}6,{24}6,{12}5,{24}5,{12}4,{24}4,
{12}3,{24}3,{12}2,{24}2,{12}1,{24}1,{12}8,{24}8,{8}7^4[8:1],1/6,7/8,1,
{8}2/1-4[8:1]*<5[8:1],3/8,1,,1/2^5[8:1],3/8,1/2,8,
{8}7/8>4[8:1]*-5[8:1],1/6,8,,4/3^8[8:1],2/5,3/4,5,
{16}6h[16:3],,,7h[16:3],,,8,,1<4[4:1]/2q3[4:1],,,,,,,,
{8},,3/6,2/7,1pp4[2:1]/8qq5[2:1],,,,
{24},,,,,,,,,,,,2b/7b,,2b/7b,,,,3/6,,,5,,{24}5,
{8}4,2/7,{12}3,{24}3,{12}4,{24}4,{8}5,2b/7b,
E
Re:MASTER
最終更新:2026年11月06日 22:29