EASY
BASIC
(156.441){4}1,(156.889),(148.71)1,(154.331),
(154.331){4}1,(164.604),(149.378),(149.378),
(157.735){4}8,(157.735),(161.548)8,(161.548),
(156.439){4}8,(152.183),(162.157),(150.782),
(153.338){4}7,(153.338),(161.391)7,(161.391),
(153.001){4}7,(153.001),(153.837),(149.008),
(164.353){4}6,(156.567),(163.779)6,(163.779),
(159.451){4}6,(159.451),(154.012),(154.012),
(157.636){4}5,(157.636),(153.338)5,(153.338),
(148.836){4}5,(148.836),(163.077),(163.077),
(156.07){4}4,(156.07),(156.58)4,(152.814),
(152.814){4}4,(151.3),(151.3),(164.471),
(168.022){4}3,(156.58),(154.999)3,(163.081),
(157.051){4}3,(157.051),(158.154),(158.154),
(157.496){4}2,(157.496),(160.116)2,(160.116),
(160.651){4}2,(160.651),(156.578),(156.574),
(164.237){4}2-7[4:3],(164.691),(164.691),(159.419),
(159.419){4},(153.711),(153.711),(157.402),
(157.299){4}6-3[4:3],(159.41),(153.042),(161.756),
(154.106){4},(159.719),(159.719),(157.982),
(158.293){4}2-7[4:3],(159.987),(159.987),(158.303),
(158.303){4},(151.724),(151.724),(159.448),
(152.798){4}6-3[4:3],(161.954),(155.182),(155.62),
(156.58){4},(156.58),(171.668),(156.309),
(159.057){4}4,(159.057),(150.473)4,(150.473),
(159.687){4}4,(159.687)4,(159.163)4,(159.163),
(152.402){4}3,(152.402),(161.945)3,(162.391),
(158.225){4}3,(158.225)3,(156.567)3,(152.342),
(152.342){4}2,(154.714),(154.714)2,(154.965),
(159.653){4}2,(159.653)2,(155.255)2,(153.477),
(153.477){4}1,(158.851),(158.851)1,(153.605),
(151.054){4}1,(155.867)1,(158.066)1b,(158.066),
(155.588){4}8,(155.588),(158.746)8,(156.987),
(156.987){4}8,(161.844)8,(155.31)8,(155.31),
(154.29){4}7,(154.29),(156.818)7,(156.567),
(155.945){4}7,(155.945)7,(160.34)7,(160.34),
(150.967){4}6,(150.967),(156.774)6,(162.621),
(162.621){4}6,(154.313)6,(154.313)6,(155.169),
(155.169){4}5,(158.453),(158.453)5,(149.129),
(161.914){4}5,(161.914)5,(155.286)5b,(155.286),
(162.325){4}4,(156.605),(151.086)5,(156.593),
(156.593){4}4,(156.58),(161.25)5,(161.25)5,
(154.974){4}5,(154.974),(160.297)4,(160.297),
(156.58){4}4,(156.58)4,(151.132)4,(151.132),
(152.548){4}3h[2:1],(152.548),(157.551),(157.551),
(156.641){4}2h[2:1],(156.641),(157.646),(157.646),
(156.23){4}1h[2:1],(156.23),(153.678),(153.678),
(159.849){4}1,(156.605),(162.799),(162.799),
(163.922){4}2h[2:1],(163.922),(157.791),(157.791),
(151.054){4}3h[2:1],(151.054),(159.653),(159.653),
(159.497){4}4-1[4:3],(159.497),(156.586),(154.254),
(154.254){4},(170.252),(158.856),(150.389),
(158.844){4}8,(152.111),(153.373)7,(153.373),
(157.633){4}6,(157.633),(154.837),(154.837),
(154.308){4}5-8[4:3],(154.308),(159.507),(159.507),
(156.571){4},(156.571),(161.685),(161.685),
(157.337){4}1,(157.337),(163.547)2,(163.547),
(160.897){4}3,(160.897),(154.039)4,(154.039)4,
(157.855){4}4,(157.855),(163.364)4/5,(163.364),
(156.564){4}5,(156.891)5,(156.597)5,(156.597),
(156.995){4}5/6,(156.995),(153.199)5,(153.199)5,
(154.387){4}5,(154.387),(159.291)4,(159.291)4,
(154.651){4}4,(154.651),(156.333)3/4,(156.333),
(160.874){4}2,(160.874)2,(156.738)2,(156.738),
(159.387){4}1,(159.387),(157.378)2,(157.378),
(162.191){4}3,(162.191),(158.658)4,(158.658),
(152.715){4}5-8[4:3],(152.715),(156.563),(148.215),
(161.509){4},(161.509),(161.509)1b,(156.563),
(153.955){4}7/8,(153.955),(148.566)7,(148.566)7,
(156.563){4}7,(156.919),(156.919)5/6,(162.61),
(153.596){4}5,(164.874)5,(164.874)5,(154.327),
(154.327){4}4,(161.009)4,(161.009)4,(156.563),
(158.613){4}4-1[4:3],(158.613),(165.312),(156.563),
(156.563){4},(164.774),(164.774),(161.686),
(156.563){4}8h[2:1],(161.512),(161.512),(154.575),
(163.51){4}7h[2:1],(163.51),(163.51),(156.563),
(163.485){4}6h[2:1],(156.563),(162.667),(159.818),
(159.818){4}5h[2:1],(158.26),(149.458),(165.127),
(150.051){4}4,(157.369),(154.157)5,(175.271),
(148.808){4}4/5,(148.808),4/5,
E
ADVANCED
(156.441){4}1,(156.889),(148.71)2,(154.331),
(154.331){4}3,(164.604),(149.378)4,(149.378)4,
(157.735){4}5,(157.735),(161.548)6,(161.548),
(156.439){4}7,(152.183)7,(162.157)8,(150.782),
(153.338){4}1/8,(153.338),(161.391)2,(161.391)2,
(153.001){4}1/8,(153.001),(153.837)7,(149.008)7,
(164.353){4}1/8,(156.567),(163.779)2/7,(163.779)3/6,
(159.451){4}4h[2:1]/5h[2:1],(159.451),(154.012),(154.012),
(157.636){4}4/5,(157.636),(153.338)5/6,(153.338),
(148.836){4}3/4,(148.836),(163.077)2,(163.077)3p8[1:1],
(156.07){4},(156.07),(156.58),(152.814),
(152.814){4},(151.3),(151.3)7,(164.471),
(168.022){4}1b/8b,(156.58),(154.999)2,(163.081)3,
(157.051){4}4/5,(157.051),(158.154)6,(158.154)7,
(157.496){4}8h[2:1],(157.496),(160.116)1,(160.116),
(160.651){4}1^4[2:1]/8^5[2:1],(160.651),(156.578),(156.574),
(164.237){8},3,(164.691),3,(164.691),4,(159.419),4,
(159.419){8},3,(153.711),3,(153.711),,(157.402),,
(157.299){8},6,(159.41),6,(153.042),5,(161.756),5,
(154.106){8},6,(159.719),6,(159.719),,(157.982),,
(158.293){8},7,(159.987),7,(159.987),8,(158.303),8,
(158.303){8},7,(151.724),7,(151.724),,(159.448),,
(152.798){8},2,(161.954),2,(155.182),1,(155.62),1,
(156.58){8},2,(156.58),2,(171.668),,(156.309),,
(159.057){4}1/2,(159.057),(150.473)1/2,(150.473),
(159.687){4}1,(159.687)1,(159.163)1,(159.163),
(152.402){4}7/8,(152.402),(161.945)7/8,(162.391),
(158.225){4}8,(158.225)8,(156.567)8,(152.342),
(152.342){4}5/6,(154.714),(154.714)5/6,(154.965),
(159.653){4}5,(159.653)5,(155.255)5,(153.477),
(153.477){4}4,(158.851)3,(158.851)2,(153.605)1-4[2:1],
(151.054){4},(155.867),(158.066),(158.066),
(155.588){4}1/2,(155.588),(158.746)7/8,(156.987),
(156.987){4}1,(161.844)8,(155.31)7,(155.31),
(154.29){4}7/8,(154.29),(156.818)1/2,(156.567),
(155.945){4}8,(155.945)1,(160.34)2,(160.34),
(150.967){4}3/4,(150.967),(156.774)5/6,(162.621),
(162.621){4}4/5,(154.313)4/5,(154.313)3/6,(155.169),
(155.169){4}5,(158.453)6,(158.453)7,(149.129)8-5[2:1],
(161.914){4},(161.914),(155.286),(155.286),
(162.325){4}1/2,(156.605),(151.086)1/8,(156.593),
(156.593){4}7/8,(156.58),(161.25)6,(161.25)5,
(154.974){4}3/4,(154.974),(160.297)5/6,(160.297),
(156.58){4}7,(156.58)8,(151.132)1b,(151.132),
(152.548){4}2h[4:1],(152.548),(157.551)1,(157.551)1,
(156.641){4}1h[4:1],(156.641),(157.646)8,(157.646)8,
(156.23){4}8h[4:1],(156.23),(153.678)7,(153.678)7,
(159.849){4}7^2[2:1],(156.605),(162.799),(162.799),
(163.922){4}3h[2:1],(163.922),(157.791)6h[2:1],(157.791),
(151.054){4}4,(151.054),(159.653)5,(159.653)6,
(159.497){4}5/6,(159.497),(156.586)5,(154.254)4,
(154.254){4}3p6[2:1],(170.252),(158.856),(150.389),
(158.844){4}7h[2:1],(152.111),(153.373)8,(153.373)1,
(157.633){4}2h[2:1],(157.633),(154.837),(154.837)3,
(154.308){4}3,(154.308)4p1[1:1],(159.507),(159.507),
(156.571){4},(156.571),(161.685),(161.685),
(157.337){4}8,(157.337)7,(163.547)6,(163.547)5,
(160.897){4}4,(160.897),(154.039)3,(154.039)2,
(157.855){4}1,(157.855)2,(163.364)3,(163.364)4,
(156.564){4}5,(156.891)6,(156.597)7/8,(156.597),
(156.995){4}2,(156.995)3,(153.199)4,(153.199)5,
(154.387){4}6,(154.387)7,(159.291)8,(159.291)7,
(154.651){4}6,(154.651)5,(156.333)4,(156.333)3,
(160.874){4}2,(160.874),(156.738)1b/8b,(156.738),
(159.387){4}8,(159.387)8,(157.378)7,(157.378)7,
(162.191){4}6,(162.191)5,(158.658)4,(158.658)3p8[1:1],
(152.715){4},(152.715),(156.563),(148.215),
(161.509){4},(161.509),(161.509)7b,(156.563),
(153.955){4}7,(153.955)8,(148.566)1,(148.566)2,
(156.563){4}3/4,(156.919),(156.919),(162.61)5,
(153.596){4}4,(164.874)5,(164.874)4,(154.327)4-1[2:1]/5-8[2:1],
(154.327){4},(161.009),(161.009),(156.563),
(158.613){4}1>8[4:5],(158.613),(165.312),(156.563),
(156.563){4},(164.774),(164.774),(161.686),
(156.563){8},2,(161.512),1,(161.512),2,(154.575),1,
(163.51){8},2,(163.51),1,(163.51),3/8,(156.563),,
(163.485){8},7,(156.563),8,(162.667),7,(159.818),8,
(159.818){8},7,(158.26),8,(149.458),1/6,(165.127),,
(150.051){8},5,(157.369),4,(154.157),5,(175.271),4,
(148.808){8},3/6,(148.808),4/5,4/5,
E
EXPERT
(156.441){4}2-4[8:1],(156.889),(148.71)8-6[8:1],(154.331),
(154.331){4}1-5[8:1],(164.604),(149.378)6,(149.378)5/6,
(157.735){4}3,(157.735)3/4,(161.548)2,(161.548)1/2,
(156.439){8}8,1,(152.183)8,,(162.157)2b/7b,,(150.782),,
(153.338){4}5,(153.338)3/4,(161.391)2,(161.391)1/2,
(153.001){4}4,(153.001)5/6,(153.837)7,(149.008)7/8,
(164.353){4}1/2,(156.567)7/8,(163.779)5/6,(163.779)3/4,
(159.451){4}2^7[4:1],(159.451),(154.012),(154.012)2/7,
(157.636){4}7-5[8:1],(157.636),(153.338)1-3[8:1],(153.338),
(148.836){4}8-4[8:1],(148.836),(163.077)3,(163.077)4-1[4:1]/5-8[4:1],
(156.07){4},(156.07),(156.58)2/7,(152.814)1/2,
(152.814){8}7/8,,(151.3)2,8,(151.3)1b,,(164.471),,
(168.022){4}3,(156.58)3/4,(154.999)6,(163.081)5/6,
(157.051){8}7,,(157.051)7/8,,(158.154)1/2,,(158.154)3,4,
(157.496){8}3,,(157.496)6,5,(160.116)6,,(160.116)4,5,
(160.651){8}4,,(160.651)6,4,(156.578)5,3,(156.574),2/7,
(164.237){8},3/4,(164.691),3/4,(164.691),5/6,(159.419),5/6,
(159.419){8},1/8,(153.711),1-3[4:1]/8-4[4:1],(153.711),,(157.402),,
(157.299){8},5/6,(159.41),5/6,(153.042),3/4,(161.756),3/4,
(154.106){8},1/8,(159.719),1-5[4:1]/8-6[4:1],(159.719),,(157.982),,
(158.293){8},3/4,(159.987),3/4,(159.987),1/2,(158.303),1/2,
(158.303){8},7/8,(151.724),7-4[4:1]/8-3[4:1],(151.724),,(159.448),,
(152.798){8},5/6,(161.954),5/6,(155.182),3/4,(155.62),3/4,
(156.58){8},1/2,(156.58),1-6[4:1]/2-5[4:1],(171.668),,(156.309),,
(159.057){4}7^4[8:1],(159.057),(150.473)2^5[8:1],(150.473),
(159.687){4}6,(159.687)7/8,(159.163)1/6,(159.163),
(152.402){8}1/2,,(152.402)3,4,(161.945)3,,(162.391)6,5,
(158.225){4}6,(158.225)4/5,(156.567)2/7,(152.342),
(152.342){4}3h[4:1],(154.714)4h[4:1],(154.714)5h[4:1],(154.965)6h[4:1],
(159.653){4}5h[4:1],(159.653)4h[4:1],(155.255)3,(153.477),
(153.477){8}2,1,(158.851)2,,(158.851)7/8,,(153.605)6<3[8:3],,
(151.054){4},(155.867),(158.066)1b/8b,(158.066),
(155.588){4}2^5[8:1],(155.588),(158.746)7^4[8:1],(156.987),
(156.987){4}3,(161.844)1/2,(155.31)3/8,(155.31),
(154.29){8}1/8,,(154.29)7,5,(156.818)7,,(156.567)2,4,
(155.945){4}2,(155.945)4/5,(160.34)2/7,(160.34),
(150.967){4}2h[4:1],(150.967)1h[4:1],(156.774)8h[4:1],(162.621)7h[4:1],
(162.621){4}8h[4:1],(154.313)1h[4:1],(154.313)2,(155.169),
(155.169){8}7,8,(158.453)7,,(158.453)1/2,,(149.129)3>6[8:3],,
(161.914){4},(161.914),(155.286)1b/8b,(155.286),
(162.325){4}1^6[8:1],(156.605),(151.086)8^3[8:1],(156.593),
(156.593){4}1-5[8:1],(156.58),(161.25)6,(161.25)5/7,
(154.974){4}8,(154.974)1/7,(160.297)2,(160.297)1/3,
(156.58){8}8,1,(156.58)8,,(151.132)2b/7b,,(151.132),,
(152.548){8}5/6,,(152.548)3/4,,(157.551)5,4,(157.551)5,,
(156.641){8}4/5,,(156.641)3/6,,(157.646)2,7,(157.646)2,,
(156.23){4}7/8,(156.23)1/2,(153.678)3/4,(153.678)5/6,
(159.849){4}7^2[4:1],(156.605),(162.799),(162.799)2/7,
(163.922){4}8^3[8:1],(163.922),(157.791)1^6[8:1],(157.791),
(151.054){4}8-4[8:1],(151.054),(159.653)3,(159.653)4-1[4:1]/5-8[4:1],
(159.497){4},(159.497),(156.586)1/2,(154.254)7/8,
(154.254){8}1/8,,(170.252)1,8,(158.856)2b/7b,,(150.389),,
(158.844){4}3/4,(152.111)5/6,(153.373)2/4,(153.373)5/7,
(157.633){8}3/6,,(157.633)2/7,,(154.837)1/8,,(154.837)3,4,
(154.308){8}3,,(154.308)6,5,(159.507)6,,(159.507)4,5,
(156.571){4}4,(156.571)3/5,(161.685)4/6,(161.685)2/7,
(157.337){4}1^6[8:1],(157.337),(163.547)8^3[8:1],(163.547),
(160.897){4}4-8[8:1],(160.897),(154.039)7,(154.039)6/8,
(157.855){4}1,(157.855)2/8,(163.364)3,(163.364)2/4,
(156.564){8}5,4,(156.891)5,,(156.597)2b/7b,,(156.597),,
(156.995){8}5/6,,(156.995)3/4,,(153.199)2,5,(153.199)2,,
(154.387){8}3/4,,(154.387)5/6,,(159.291)7,4,(159.291)7,,
(154.651){4}1/8,(154.651)3/4,(156.333)5/6,(156.333)2/7,
(160.874){4}3p6[8:3],(160.874),(156.738),(156.738)2/7,
(159.387){4}8^3[8:1],(159.387),(157.378)1^6[8:1],(157.378),
(162.191){4}5-1[8:1],(162.191),(158.658)2,(158.658)3-8[4:1]/4-7[4:1],
(152.715){4},(152.715),(156.563)5/6,(148.215)3/4,
(161.509){8}2/7,,(161.509)1,8,(161.509)2b/7b,,(156.563),,
(153.955){4}1/2,(153.955)4/5,(148.566)7/8,(148.566)4/5,
(156.563){8}1/3,,(156.919)6/8,,(156.919)2/7,,(162.61)3,4,
(153.596){8}2/5,,(164.874)6,5,(164.874)4/7,,(154.327)5,4,
(154.327){8}3/6,,(161.009),1/8,(161.009),,(156.563)5/4>5[4:7],,
(158.613){4},(158.613),(165.312),(156.563),
(156.563){4},(164.774),(164.774),(161.686),
(156.563){8},3,(161.512),3/4,(161.512),6,(154.575),5/6,
(163.51){8},4,(163.51),4/5,(163.51),3/6,(156.563)3/6,3/6,
(163.485){8},2,(156.563),1/2,(162.667),7,(159.818),7/8,
(159.818){8},1,(158.26),1/8,(149.458),2/7,(165.127)2/7,2/7,
(150.051){8},3/4,(157.369),5/6,(154.157),7/8,(175.271),1/6,
(148.808){8},3/8,(148.808),2/7,2b/7b,
E
MASTER
(156.441){4}2-5[4:1],(156.889),(148.71)7-4[4:1],(154.331),
(154.331){16}3>6[4:1],,,,(164.604),,,,(149.378)5,,,4,(149.378),,3/6,,
(157.735){8}2-7[8:1],,(157.735),6-3[8:1],(161.548),,(161.548)1,1,
(156.439){8},2/7,(152.183)6,3,(162.157)5v4[8:1],,(150.782)1,,
(153.338){16}1>5[8:1]/5p1[8:1],,,,(153.338),,,,(161.391)3/7,,,2/6,(161.391),,3/7,,
(153.001){16}4q8[8:1]/8<4[8:1],,,,(153.001),,,,(153.837)2/6,,,3/7,(149.008),,2/6,,
(164.353){16}1v3[8:1]/5v7[8:1],,,,(156.567),,,,(163.779)2/6,,,4/8,(163.779),,1/5,,
(159.451){4}2^7[4:1]/6q3[4:1],(159.451),(154.012),(154.012)4/5,
(157.636){4}6/2^7[8:1],(157.636),(153.338)3/7^2[8:1],(153.338),
(148.836){8}2^4[8:1]/7^5[8:1],,(148.836),,(163.077)3/4,,(163.077)3-7[8:1]/4v7[8:1],3/4,
(156.07){8},,(156.07),,(156.58),1/6,(152.814)2/5,4/3q6[8:3],
(152.814){4},(151.3),(151.3)8,(164.471)2/7,
(168.022){16}1b/8b,,,,(156.58),,,,(154.999)2/7,,,3/6,(163.081),,4/5,,
(157.051){4}4^1[4:1]/5^8[4:1],(157.051),(158.154),(158.154)1-4[8:1],
(157.496){8}7-2[8:1],,(157.496)6-3[8:1],,(160.116)8,8h[4:1],(160.116),1,
(160.651){8},2,(160.651)3,4,(156.578)5,6,(156.574),7/8,
(164.237){8},1/2,(164.691),7/8,(164.691),1/2,(159.419),7/8,
(159.419){8},1/2,(153.711),3/6,(153.711)4,5,(157.402)4,5,
(157.299){8},1/7,(159.41),2/8,(153.042),1/7,(161.756),2/8,
(154.106){8},1/7,(159.719),4/5,(159.719)6,6,(157.982)3,3,
(158.293){8},1/6,(159.987),3/8,(159.987),1/6,(158.303),3/8,
(158.303){8},1/6,(151.724),4/5,(151.724)3/6,3/6,(159.448)2/7,2/7,
(152.798){8},1/3,(161.954),6/8,(155.182),1/3,(155.62),6/8,
(156.58){8},1/3,(156.58),4/5,(171.668)4^1[3131:424]/5p7[8:1],,(156.309),,
(159.057){4}1^3[8:1]/5^7[8:1],(159.057),(150.473)4^2[8:1]/8^6[8:1],(150.473),
(159.687){4}4^6[8:1]/8^2[8:1],(159.687),(159.163)1^7[8:1]/5^3[8:1],(159.163),
(152.402){4}4^7[8:1]/8^3[8:1],(152.402),(161.945)1^6[8:1]/5^2[8:1],(162.391),
(158.225){4}4<8[4:1]/8>4[4:1],(158.225),(156.567),(152.342)2/6,
(152.342){4}6-3[8:1],(154.714)2-7[8:1],(154.714)6-3[8:1],(154.965)2-7[8:1],
(159.653){4}5-8[8:1],(159.653)1q4[8:3],(155.255),(153.477)8,
(153.477){8}5,6,(158.851)7,8,(158.851)1q8[4:1],,(153.605),,
(151.054){4}5q4[4:1],(155.867),(158.066)1,(158.066)4/7,
(155.588){4}4^2[8:1]/7^5[8:1],(155.588),(158.746)2^4[8:1]/5^7[8:1],(156.987),
(156.987){4}5^2[8:1]/8^5[8:1],(161.844),(155.31)1^4[8:1]/4^7[8:1],(155.31),
(154.29){4}1^6[8:1]/6^3[8:1],(154.29),(156.818)3^6[8:1]/8^3[8:1],(156.567),
(155.945){4}1<5[4:1]/5>1[4:1],(155.945),(160.34),(160.34)3/7,
(150.967){4}3-6[8:1],(150.967)7-2[8:1],(156.774)3-6[8:1],(162.621)7-2[8:1],
(162.621){4}4-1[8:1],(154.313)8p5[8:3],(154.313),(155.169)1,
(155.169){8}4,3,(158.453)2,1,(158.453)8p1[4:1],,(149.129),,
(161.914){8}4p5[4:1],,(161.914),,(155.286)8,,(155.286)7,1,
(162.325){4}2-5[8:1]/8v5[8:1],(156.605),(151.086)1v4[8:1]/7-4[8:1],(156.593),
(156.593){16}3^1[8:1]/6^8[8:1],,,,(156.58),,,,(161.25)4/5,,,3/6,(161.25),,2/7,,
(154.974){8}1-5[8:1],,(154.974),7,(160.297),,(160.297)4,4,
(156.58){8},6v3[8:1],(156.58)2,2,(151.132)2^7[8:1],,(151.132)5,,
(152.548){16}1>5[8:1]/5q1[8:1],,,,(152.548),,,,(157.551)5/6,,,1/2,(157.551),,3/7,,
(156.641){16}4p8[8:1]/8<4[8:1],,,,(156.641),,,,(157.646)3/4,,,7/8,(157.646),,2/6,,
(156.23){16}3v1[8:1]/7v5[8:1],,,,(156.23),,,,(153.678)2/6,,,4/8,(153.678),,1/5,,
(159.849){4}2q7[8:1]/6^3[8:1],(156.605),(162.799),(162.799)4/5,
(163.922){4}7/3p6[8:1],(163.922)1,(157.791)2/6q3[8:1],(157.791)8,
(151.054){4}7-4[8:1]/8-3[8:1],(151.054),(159.653)3^1[8:1]/4^6[8:1],(159.653)3v8[8:1]/4v7[8:1],
(159.497){8},,(159.497),,(156.586),3-7[8:1]/4v7[8:1],(154.254)3/4,,
(154.254){8},6/8,(170.252)1/5,2/4,(158.856)3,,(150.389)6,,
(158.844){16}1h[8:3]/8h[8:3],,,,(152.111),,,,(153.373)2/7,,,3/6,(153.373),,4/5,,
(157.633){8}4-1[4:1]/5-8[4:1],,(157.633),,(154.837),,(154.837)1,8,
(154.308){8}4-8[8:1],,(154.308)5-1[8:1],,(159.507)3,3-8[8:1],(159.507),6-1[8:1],
(156.571){8},4,(156.571)4>5[4:1],,(161.685),,(161.685),,
(157.337){4}1^4[8:1]/5^8[8:1],(157.337),(163.547)4p8[8:1]/8p4[8:1],(163.547),
(160.897){16}4^7[8:1]/8^3[8:1],,,,(160.897),,,,(154.039)4/8,,,3/7,(154.039),,2/6,,
(157.855){8}6/2^7[16:3],,(157.855),6^3[8:1],(163.364),,(163.364)2,2,
(156.564){8},1/5,(156.891)1/5,2/6,(156.597)3-8[8:1]/7-4[8:1],,(156.597)3/7,,
(156.995){16}4^7[8:1]/8^3[8:1],,,,(156.995)4/8,,,,(153.199)2/6,,,2/6,(153.199),,2/6,,
(154.387){16}3^8[8:1]/7^4[8:1],,,,(154.387)3/7,,,,(159.291)1/5,,,1/5,(159.291),,1/5,,
(154.651){4}2^8[8:1]/6^4[8:1],(154.651)2/6,(156.333)2^4[8:1]/6^8[8:1],(156.333)2/6,
(160.874){4}2^8[8:1]/6^4[8:1],(160.874)2q6[8:1]/6q2[8:1],(156.738),(156.738),
(159.387){4}7<3[8:1],(159.387),(157.378)2>6[8:1],(157.378),
(162.191){16}1<4[8:1],,,,(162.191),,,,(158.658)3,,,3,(158.658),,3/4,,
(152.715){8}3^8[8:1]/4^7[8:1],,(152.715),,(156.563),3/4,(148.215)2/5,1/6,
(161.509){8},7/8,(161.509)1b/6b,2b/5b,(161.509)3-8[8:1]/4-7[8:1],,(156.563)3b/4b,,
(153.955){16}3^8[8:1],,,,(153.955),,,,(148.566)6,,,5,(148.566),,4,,
(156.563){4}4<8[4:1],(156.919),(156.919),(162.61)1q4[2:1],
(153.596){8}1,,(164.874)8,,(164.874)8,8-5[8:1],(154.327),2,
(154.327){8}2>6[6242:1463],,(161.009),2<6[4:1],(161.009),,(156.563)4-1[4:1],,
(158.613){8}4,6,(158.613),6,(165.312),7/8,(156.563),1/2,
(156.563){8},3/6,(164.774),2/7,(164.774)1,8,(161.686)1,8,
(156.563){8},7/8,(161.512),3/4,(161.512),2/8,(154.575),5/8,
(163.51){8},3/5,(163.51),2/7,(163.51)1-5[8:1],8-4[8:1],(156.563)1,8,
(163.485){8},1/2,(156.563),5/6,(162.667),1/7,(159.818),1/4,
(159.818){8},4/6,(158.26),2/7,(149.458)1-6[8:1],8-3[8:1],(165.127)1,8,
(150.051){8},4/5,(157.369),3/8,(154.157),1/6,(175.271),4/7,
(148.808){8},2/5,(148.808),1/8,2b/7b,
E
Re:MASTER
(156.441){16}2/5,,3,,(156.889)4/7,,6,,(148.71)2/5,,3,4,(154.331),4,2,,
(154.331){16}4/7,,6,,(164.604)2/5,,3,,(149.378)4/7,,6,5,(149.378),5,7,,
(157.735){16}2/5,,3,,(157.735)4/7,,6,,(161.548)2/5,,3,4,(161.548),4,2,,
(156.439){8}4/7,6,(152.183)2<6[8:1]/4p6[8:1],2/4,(162.157),,(150.782)1/8,,
(153.338){16}4/7,,6,,(153.338)3/8,,2,,(161.391)4/7,,6,5,(161.391),5,7,,
(153.001){16}2/5,,3,,(153.001)1/6,,7,,(153.837)2/5,,3,4,(149.008),4,2,,
(164.353){16}4/7,,6,,(156.567)3/8,,2,,(163.779)4/7,,6,5,(163.779),5,7,,
(159.451){8}2/5,3,(159.451)1/6,7,(154.012)2/5,1/8,(154.012)2/7,,
(157.636){4}4-1[8:1]/5-8[8:1],(157.636)4/5,(153.338)4-1[8:1]/5-8[8:1],(153.338)4/5,
(148.836){4}5-2[8:1]/6-1[8:1],(148.836)5/6,(163.077)4/3-8[8:1],(163.077)3/4qq7[8:3],
(156.07){8},,(156.07),,(156.58),7/8,(152.814)1/6,2/5,
(152.814){8},4/7,(151.3)5>6[8:3]/6pp6[8:3],5/6,(151.3),,(164.471),,
(168.022){4}7qq5[4:1],(156.58)1,(154.999)2-7[4:1],(163.081)5,
(157.051){4}4q2[8:3],(157.051),(158.154),(158.154)7V15[4:1],
(157.496){4}5V72[4:1],(157.496)2pp2[2:1],(160.116),(160.116),
(160.651){8},1,(160.651)8,2,(156.578)7,1/2,(156.574),7b/4b-1[8:1]*^1[8:1],
(164.237){8},4-7[8:1]*^7[8:1],(164.691),4-1[8:1]*^1[8:1],(164.691),4-7[8:1]*^7[8:1],(159.419),4-1[8:1]*^1[8:1],
(159.419){16},,4,,(153.711),,3/6,,(153.711)5,4,5,4,(157.402)5,4,5-8[8:1]*^8[8:1],,
(157.299){8},5-2[8:1]*^2[8:1],(159.41),5-8[8:1]*^8[8:1],(153.042),5-2[8:1]*^2[8:1],(161.756),5-8[8:1]*^8[8:1],
(154.106){16},,5,,(159.719),,3/6,,(159.719)4,5,4,5,(157.982)4,5,4-1[8:1]*^1[8:1],,
(158.293){8},4-7[8:1]*^7[8:1],(159.987),4-1[8:1]*^1[8:1],(159.987),4-7[8:1]*^7[8:1],(158.303),4-1[8:1]*^1[8:1],
(158.303){16},,4,,(151.724),,3/6,,(151.724)5,4,5,4,(159.448)5,4,5-8[8:1]*^8[8:1],,
(152.798){8},5-2[8:1]*^2[8:1],(161.954),5-8[8:1]*^8[8:1],(155.182),5-2[8:1]*^2[8:1],(155.62),5-8[8:1]*^8[8:1],
(156.58){16},,5,,(156.58),,3/6,,(171.668)4,5,4,5,(156.309)4,5,4,,
(159.057){4}8/1-4[8:1],(159.057)1/8-5[8:1],(150.473)8/4-1[8:1],(150.473)4/5-8[8:1],
(159.687){4}5/1-4[8:1],(159.687)1/8-5[8:1],(159.163)8/4-1[8:1],(159.163)4/5,
(152.402){4}8/7-5[8:1],(152.402)7/8-3[8:1],(161.945)8/5-8[8:1],(162.391)5/3-1[8:1],
(158.225){4}3/8-6[8:1],(158.225)8/1-4[8:1],(156.567)1/6-1[8:1],(152.342)4/6,
(152.342){4}1/2-4[8:1],(154.714)2/1-6[8:1],(154.714)1/4-1[8:1],(154.965)4/6-8[8:1],
(159.653){4}6/1-3[8:1],(159.653)1/8-5[8:1],(155.255)8/3-8[8:1],(153.477)3/5,
(153.477){8}5/6,5/6,(158.851)5>7[4:1]/6p7[4:1],,(158.851),,(153.605),,
(151.054){4}3q2[4:1]/4<2[4:1],(155.867),(158.066),(158.066)4/5,
(155.588){4}1/8^5[8:1],(155.588)8/1^4[8:1],(158.746)1/5^8[8:1],(156.987)5/4^1[8:1],
(156.987){4}4/8^5[8:1],(161.844)8/1^4[8:1],(155.31)1/5^8[8:1],(155.31)4/5,
(154.29){4}1/2pp4[8:1],(154.29)2/1^6[8:1],(156.818)1/4^1[8:1],(156.567)4/6pp8[8:1],
(155.945){4}6/1pp3[8:1],(155.945)1/8^5[8:1],(160.34)8/3^8[8:1],(160.34)3/5,
(150.967){4}8/7qq5[8:1],(150.967)7/8^3[8:1],(156.774)8/5^8[8:1],(162.621)5/3qq1[8:1],
(162.621){4}3/8qq6[8:1],(154.313)8/1^4[8:1],(154.313)1/6^1[8:1],(155.169)4/6,
(155.169){8}3/4,3/4,(158.453)3q2[4:1]/4<2[4:1],,(158.453),,(149.129),,
(161.914){8}5>7[4:1]/6p7[4:1],,(161.914),,(155.286),,(155.286)4/5,4,
(162.325){16}5/8,,6,,(156.605)1/4,,3,,(151.086)5/8,,6,5,(156.593),5,7,,
(156.593){16}1/4,,3,,(156.58)5/8,,6,,(161.25)1/4,,3,4,(161.25),4,2,,
(154.974){16}5/8,,6,,(154.974)1/4,,3,,(160.297)5/8,,6,5,(160.297),5,7,,
(156.58){8}1/4,3,(156.58)5q3[8:1]/7>3[8:1],5/7,(151.132),,(151.132)1/8,,
(152.548){16}1/4,,3,,(152.548)5/8,,7,,(157.551)1/4,,3,4,(157.551),4,2,,
(156.641){16}5/8,,6,,(156.641)1/4,,2,,(157.646)5/8,,6,5,(157.646),5,7,,
(156.23){16}1/4,,3,,(156.23)5/8,,7,,(153.678)1/4,,3,4,(153.678),4,2,,
(159.849){8}5/8,6,(156.605)1/4,2,(162.799)5/7,1/8,(162.799)2/7,,
(163.922){4}4^1[8:1]/5^8[8:1],(163.922)4/5,(157.791)4^1[8:1]/5^8[8:1],(157.791)4/5,
(151.054){4}3^8[8:1]/4^7[8:1],(151.054)3/4,(159.653)5/6^1[8:1],(159.653)6/5pp2[8:3],
(159.497){8},,(159.497),,(156.586),1/2,(154.254)3/8,4/7,
(154.254){8},2/5,(170.252)3qq3[8:3]/4<3[8:3],3/4,(158.856),,(150.389),,
(158.844){8}6-1[8:1],5,(152.111)5,,(153.373)3-8[8:1],4,(153.373)4,,
(157.633){8}6-1[8:1],5,(157.633)5,,(154.837)3-8[8:1],4,(154.837)4,,
(154.308){8}5-1[8:1],3,(154.308)4,3,(159.507)4-8[8:1],6,(159.507)5,6,
(156.571){8}5-1[8:1],3,(156.571)4,3,(161.685)4-8[8:1],5,(161.685)5,,
(157.337){16}1/6,,2,,(157.337)3/8,,7,,(163.547)1/6,,2,1,(163.547),1,4,,
(160.897){16}3/8,,7,,(160.897)1/6,,2,,(154.039)3/8,,7,8,(154.039),8,5,,
(157.855){16}1/6,,2,,(157.855)3/8,,7,,(163.364)1/6,,2,1,(163.364),1,4,,
(156.564){8}3/8,7,(156.891)1<5[8:1]*>5[8:1],1,(156.597),,(156.597)3/7,,
(156.995){16}3/8,,7,,(156.995)1/6,,2,,(153.199)3/8,,7,8,(153.199),8,5,,
(154.387){16}1/6,,2,,(154.387)3/8,,7,,(159.291)1/6,,2,1,(159.291),1,4,,
(154.651){16}3/8,,7,,(154.651)1/6,,2,,(156.333)3/8,,7,8,(156.333),8,5,,
(160.874){8}1/6,2,(160.874)3/8,7,(156.738)1/6,4/5,(156.738)2/7,,
(159.387){8}4/5-2[8:1],3,(159.387)1,1,(157.378)5/4-7[8:1],6,(157.378)8,8,
(162.191){16}4/5-2[8:1],,3,,(162.191)1,,1,,(158.658)4b/5b,,,1b/8b,(158.658),,2b/5b,,
(152.715){8}2qq1[4:1]/5pp6[4:1],,(152.715),,(156.563),3/5,(148.215)2/6,1/7,
(161.509){8},2/5,(161.509)3/4w8[4:1],2/5,(161.509),,(156.563),,
(153.955){4}3p5[8:1]/4v5[8:1],(153.955)3/4,(148.566)3p6[8:1]/4v6[8:1],(148.566)3/4,
(156.563){4}3p7[8:1]/4v7[8:1],(156.919)3/4,(156.919)3-8[8:1]/4-8[8:1],(162.61)3/4,
(153.596){4}3/5,(164.874)2V84[8:3]/6V84[8:3],(164.874),(154.327),
(154.327){8}2/5,4,(161.009)3,4/7,(161.009)6,5,(156.563)6,7/4-1[8:1]*^1[8:1],
(158.613){8},4-7[8:1]*^7[8:1],(158.613),4-1[8:1]*^1[8:1],(165.312),4-7[8:1]*^7[8:1],(156.563),4-1[8:1]*^1[8:1],
(156.563){16},,4,,(164.774),,3/7,,(164.774)5,4,6,3,(161.686)5,4,5-8[8:1]*^8[8:1],,
(156.563){8},5-2[8:1]*^2[8:1],(161.512),5-8[8:1]*^8[8:1],(161.512),5-2[8:1]*^2[8:1],(154.575),5-8[8:1]*^8[8:1],
(163.51){16},,5,,(163.51),,2/6,,(163.51)4,5,3,6,(156.563)4,5,4-1[8:1]*^1[8:1],,
(163.485){8},4-7[8:1]*^7[8:1],(156.563),4-1[8:1]*^1[8:1],(162.667),4-7[8:1]*^7[8:1],(159.818),4-1[8:1]*^1[8:1],
(159.818){16},,4,,(158.26),,3/7,,(149.458)5,4,6,3,(165.127)5,4,5-8[8:1]*^8[8:1],,
(150.051){8},5-2[8:1]*^2[8:1],(157.369),5-8[8:1]*^8[8:1],(154.157),5-2[8:1]*^2[8:1],(175.271),5-8[8:1]*^8[8:1],
(148.808){8},5,(148.808),4b/5b,7b/2b-6[8:1],,,,
E
最終更新:2026年10月04日 08:20