EASY
BASIC
(201.47){4}1/8,(201.47),(194.932),(200.44),
(202.619){4}2,(204.278),(189.582)2,(195.667),
(197.798){4}1/8,(197.798),(197.798),(178.989),
(189.365){4}7,(204.222),(204.222)7,(201.217),
(199.977){4}1/8,(199.977),(192.942),(181.668),
(197.507){4}2,(194.717),(202.464)2,(201.954),
(201.954){4}1/8,(193.153),(195.826),(194.145),
(199.623){4}7,(195.349),(199.909)7,(201.585),
(201.585){4}6,(201.8),(201.954)6,(189.433),
(200.25){4}5,(200.25)5,(198.426)5,(192.507),
(192.507){4}3,(199.683),(197.007)3,(195.566),
(197.787){4}4,(218.551)4,(186.707)4,(204.191),
(182.326){4}5,(203.821)5,(203.821)5,(200.197),
(187.753){4}6,(201.378)6,(200.0)5/6,(200.0),
(194.602){4}4,(194.43)4,(194.788)4,(203.555),
(194.459){4}3,(193.847)3,(198.277)3/4,(206.211),
(206.211){4}6,(200.486)5,(193.762)6,(194.103),
(197.5){4}3,(197.5)4,(201.432)3,(194.431),
(197.198){4}4,(197.906)5,(202.278)4,(195.32),
(207.472){4}5,(207.472)4,(194.331)5,(203.086),
(203.086){4}3/6,(193.904),(193.16),(211.166),
(198.553){4},(198.553),(194.573),(190.428),
(199.172){4}7,(201.309),(205.699)7,(205.699),
(200.675){4}8,(200.675),(205.347)8,(205.347),
(201.685){4}1,(201.685),(197.176)1,(197.176),
(209.426){4}2,(209.426),(201.341)1/2,(212.463),
(212.463){4}3,(204.296),(204.296)3,(197.362),
(197.362){4}4,(208.744),(201.662)4,(202.542),
(207.758){4}5,(198.992),(198.992)5,(202.116),
(202.116){4}6,(205.558)6,(205.558)5/6,(206.001),
(203.058){4}6,(199.344),(199.344)6,(200.836),
(201.678){4}5,(201.678),(212.795)5,(212.795),
(204.512){4}4,(200.41),(200.41)4,(216.547),
(202.837){4}3,(202.837),(197.906)3/4,(209.303),
(209.303){4}2,(206.381),(206.381)2,(207.758),
(201.723){4}1,(210.435),(207.465)1,(207.465),
(204.134){4}8,(206.913),(208.036)8,(208.215),
(208.215){4}7,(205.396)7,(205.396)7/8,(196.664),
(196.664){4}7-3[4:3],(193.012),(193.012),(197.169),
(195.87){4},(195.87),(199.924),(204.712),
(204.712){4}2-6[4:3],(199.562),(193.252),(200.151),
(204.783){4},(204.783),(199.06),(199.06),
(196.198){4}8-4[4:3],(196.198),(196.087),(199.42),
(199.42){4},(202.094),(202.094),(201.001),
(198.254){4}1-5[4:3],(198.254),(201.234),(204.482),
(204.482){4},(194.189),(196.444),(196.444),
(190.903){4}8,(190.903)8,(198.307)8,(196.073),
(201.11){4}1,(200.698)1,(200.896)1,(197.798),
(197.798){4}2,(197.798)2,(197.798)2,(197.798),
(183.287){4}3/4,(195.184)3/4,(195.184)3/4,(193.083),
(198.396){4}4,(198.396)4,(199.69)4,(199.69),
(195.754){4}5,(195.754)5,(195.104)5,(201.785),
(195.739){4}4/5,(202.721)4/5,(202.721)4/5,(190.196),
(190.196){4}3h[2:1]/6h[2:1],(197.264),(197.264),(200.934),
(200.934){4}4,(193.691)4,(195.508)4,(203.061),
(203.061){4}5,(199.672)5,(204.736)5,(195.638),
(198.231){4}6,(198.231)6,(204.279)6,(204.279),
(192.477){4}7/8,(193.847)7/8,(196.758)7/8,(200.031),
(196.364){4}8,(194.932)8,(195.589)8,(195.589),
(202.477){4}1,(201.125)1,(201.14)1,(200.607),
(194.245){4}1/8,(195.601)1/8,(195.601)1/8,(194.404),
(201.156){4}2h[2:1]/7h[2:1],(201.202),(199.789),(172.299),
(196.189){4}1-5[4:3],(196.145),(196.145),(201.924),
(201.924){4},(201.401),(198.753),(204.025),
(193.62){4}8-4[4:3],(193.62),(196.459),(196.459),
(202.233){4},(195.248),(201.739),(180.037),
(194.16){4}2-6[4:3],(197.798),(197.798),(195.55),
(195.55){4},(183.493),(197.798),(187.213),
(183.457){4}7-3[4:3],(197.798),(201.25),(201.25),
(201.986){4},(201.646),(194.652),(194.652),
(198.918){4}3,(199.623),(192.954)3/4,(192.954),
(201.823){4}6,(201.823),(200.718)5/6,(193.548),
(195.783){4}3/4,(199.06),(199.06)3/4,(200.143),
(200.143){4}5/6,(201.818),(197.581)5/6,(208.216),
(210.0){4}3,(205.001),(196.422)3/5,(202.17),
(205.477){4}6,(205.477),(194.098)4/6,(200.554),
(200.554){4}3/5,(194.443),(207.757)3/5,(207.757),
(196.439){4}4/6,(203.148),(198.188)4b/6b,(199.217),
(201.324){4}3,(203.994)4,(199.94)3,(203.398),
(202.93){4}6,(202.93)5,(200.775)6,(205.26),
(198.775){4}3,(198.775)5,(199.911)3,(201.003),
(201.003){4}6,(204.181)4,(204.181)6,(200.627),
(199.503){4}3,(197.096)5,(197.096)4,(199.23),
(201.493){4}6,(200.653)4,(201.462)5,(201.324),
(203.375){4}3b/6b,(203.375),(199.69),(199.69),
(199.69){4},(199.69),(193.252),(199.06),
(199.06){4}2,(199.06)2,(199.06)1/2,(206.575),
(206.575){4}1,(199.06)1,(199.06)1/8,(199.06),
(206.211){4}8,(199.316)8,(199.316)8,(205.148),
(205.148){4}7/8,(191.28)7/8,(181.769)7/8,(197.862),
(205.644){4}6,(205.644)6,(193.66)5/6,(193.904),
(193.904){4}5,(206.372)5,(206.372)4/5,(194.402),
(194.76){4}4,(198.865)4,(198.865)4,(195.393),
(201.723){4}4h[2:1]/5h[2:1],(197.579),(197.579),(200.444),
(198.002){4}5,(198.002)5,(195.026)4/5,(195.026),
(202.355){4}4,(194.731)4,(200.835)3/4,(202.0),
(197.346){4}3,(197.346)3,(198.428)3,(198.428),
(197.798){4}1/2,(197.798)1/2,(197.798)1/2,(204.032),
(195.363){4}1,(194.616)1,(201.019)1/8,(201.232),
(193.083){4}8,(194.874)8,(190.965)1/8,(190.965),
(199.802){4}1/8,(199.06)1/8,(199.06)1/8,(199.06),
(202.83){4}2h[2:1]/7h[2:1],(193.676),(200.242),(200.927),
(195.248){4}8,(201.831)8,(199.06)8,(205.496),
(205.496){4}1,(204.805)1,(204.805)1,(200.638),
(201.877){4}2,(194.145),(193.655)3,(193.655),
(193.294){4}4,(204.907),(204.907)5,(199.991),
(193.813){4}6,(193.813)6,(200.908)6,(199.06),
(212.437){4}3,(199.06)3,(199.69)3,(212.463),
(200.137){4}4,(200.769),(200.769)5,(208.128),
(188.825){4}6,(200.228),(196.845)7,(196.845),
(201.083){4}7/8,(200.682)7/8,(200.682)7/8,(204.678),
(204.678){4}1/2,(205.587)1/2,(205.587)1/2,(198.424),
(198.424){4}8,(218.454),(197.423)7,(197.423),
(202.332){4}6,(208.249),(208.249)5,(202.308),
(199.864){4}3/4,(186.024)3/4,(203.743)3/4,(194.359),
(199.503){4}5/6,(196.16)5/6,(199.112)5/6,(199.112),
(203.242){4}4h[2:1]/5h[2:1],(180.123),(191.434),(193.287),
(201.656){1}3/6,
E
ADVANCED
(201.47){4}3,(201.47),(194.932)4,(200.44),
(202.619){4}3/4,(204.278),(189.582)4/5,(195.667),
(197.798){4}6,(197.798),(197.798)5,(178.989),
(189.365){4}5/6,(204.222),(204.222)4/5,(201.217),
(199.977){4}3,(199.977),(192.942)4,(181.668),
(197.507){4}3/4,(194.717),(202.464)2/5,(201.954),
(201.954){4}6,(193.153),(195.826)5,(194.145),
(199.623){4}5/6,(195.349),(199.909)4/7,(201.585),
(201.585){4}5^8[2:1],(201.8),(201.954),(189.433),
(200.25){4}1^4[2:1],(200.25),(198.426),(192.507),
(192.507){4}5^8[2:1],(199.683),(197.007),(195.566),
(197.787){4}1,(218.551)1,(186.707)1b/8b,(204.191),
(182.326){4}2,(203.821)1,(203.821)2,(200.197),
(187.753){4}7,(201.378)8,(200.0)7,(200.0),
(194.602){4}3,(194.43)4,(194.788)3,(203.555),
(194.459){4}6,(193.847)5,(198.277)6,(206.211),
(206.211){4}2,(200.486)1,(193.762)1/2,(194.103),
(197.5){4}7,(197.5)8,(201.432)7/8,(194.431),
(197.198){4}3,(197.906)4,(202.278)3/4,(195.32),
(207.472){4}6,(207.472)5,(194.331)5/6,(203.086),
(203.086){4}8^5[2:1],(193.904),(193.16),(211.166),
(198.553){4}4,(198.553)4,(194.573)4b/5b,(190.428),
(199.172){4}3,(201.309)3,(205.699)3/4,(205.699),
(200.675){4}6,(200.675)6,(205.347)5/6,(205.347),
(201.685){4}2,(201.685)2,(197.176)1/2,(197.176),
(209.426){4}7,(209.426)7,(201.341)7/8,(212.463),
(212.463){4}2,(204.296)1/2,(204.296)1/2,(197.362),
(197.362){4}7,(208.744)7/8,(201.662)7/8,(202.542),
(207.758){4}3,(198.992)3/4,(198.992)3/4,(202.116),
(202.116){4}6,(205.558)5/6,(205.558)4/7,(206.001),
(203.058){4}2,(199.344)1,(199.344)3,(200.836),
(201.678){4}7,(201.678)8,(212.795)6,(212.795),
(204.512){4}3,(200.41)4,(200.41)2,(216.547),
(202.837){4}6,(202.837)5,(197.906)7,(209.303),
(209.303){4}2,(206.381)1,(206.381)3/8,(207.758),
(201.723){4}7,(210.435)8,(207.465)1/6,(207.465),
(204.134){4}3,(206.913)4,(208.036)2/5,(208.215),
(208.215){4}6,(205.396)5,(205.396)4/7,(196.664),
(196.664){4}3h[1:1],(193.012),(193.012)4,(197.169),
(195.87){4}4h[1:1],(195.87),(199.924)5,(204.712),
(204.712){4}5h[1:1],(199.562),(193.252)6,(200.151),
(204.783){4}6h[2:1],(204.783),(199.06)7,(199.06),
(196.198){4}6h[1:1],(196.198),(196.087)5,(199.42),
(199.42){4}5h[1:1],(202.094),(202.094)4,(201.001),
(198.254){4}4h[1:1],(198.254),(201.234)3,(204.482),
(204.482){4}3h[2:1],(194.189),(196.444)2,(196.444),
(190.903){4}2,(190.903)1,(198.307)1/2,(196.073),
(201.11){4}7,(200.698)8,(200.896)7/8,(197.798),
(197.798){4}2,(197.798)1,(197.798)3/8,(197.798)3/8,
(183.287){4}4/7,(195.184)4/7,(195.184)5/6,(193.083),
(198.396){4}2,(198.396)1,(199.69)3/8,(199.69),
(195.754){4}7,(195.754)8,(195.104)1/6,(201.785),
(195.739){4}7,(202.721)8,(202.721)1/6,(190.196)1/6,
(190.196){4}2/5,(197.264)2/5,(197.264)3/4,(200.934),
(200.934){4}3,(193.691)4,(195.508)3/4,(203.061),
(203.061){4}6,(199.672)5,(204.736)5/6,(195.638),
(198.231){4}3,(198.231)4,(204.279)2/5,(204.279)2/5,
(192.477){4}1/6,(193.847)1/6,(196.758)7/8,(200.031),
(196.364){4}3,(194.932)4,(195.589)2/5,(195.589),
(202.477){4}6,(201.125)5,(201.14)4/7,(200.607),
(194.245){4}6,(195.601)5,(195.601)4/7,(194.404)4/7,
(201.156){4}3/8,(201.202)3/8,(199.789)1/2,(172.299),
(196.189){4}2,(196.145)1,(196.145)2,(201.924)1,
(201.924){4}1/2,(201.401)1/2,(198.753)3/8,(204.025),
(193.62){4}7,(193.62)8,(196.459)7,(196.459)8,
(202.233){4}7/8,(195.248)7/8,(201.739)1/6,(180.037),
(194.16){4}3,(197.798)4,(197.798)3,(195.55)4,
(195.55){4}3/4,(183.493)3/4,(197.798)2/5,(187.213),
(183.457){4}6,(197.798)5,(201.25)6,(201.25)5,
(201.986){4}5/6,(201.646)5/6,(194.652)4/7,(194.652),
(198.918){4}3h[2:1],(199.623),(192.954)4,(192.954),
(201.823){4}3/4,(201.823)3/4,(200.718)2/5,(193.548),
(195.783){4}6h[2:1],(199.06),(199.06)5,(200.143),
(200.143){4}5/6,(201.818)5/6,(197.581)4/7,(208.216),
(210.0){4}2h[2:1],(205.001),(196.422)1,(202.17),
(205.477){4}1/2,(205.477)1/2,(194.098)3/8,(200.554),
(200.554){4}7h[2:1],(194.443),(207.757)8,(207.757),
(196.439){4}7/8,(203.148)7/8,(198.188)1/6,(199.217),
(201.324){4}1h[2:1],(203.994),(199.94)8,(203.398),
(202.93){4}1/8,(202.93)2/7,(200.775)3/6,(205.26),
(198.775){4}5h[2:1],(198.775),(199.911)4,(201.003),
(201.003){4}4/5,(204.181)3/6,(204.181)2/7,(200.627),
(199.503){4}2h[2:1],(197.096),(197.096)1,(199.23),
(201.493){4}1/2,(200.653)3/8,(201.462)4/7,(201.324)4/7,
(203.375){4}7<2[4:5],(203.375),(199.69),(199.69),
(199.69){4},(199.69),(193.252),(199.06),
(199.06){4}7,(199.06)8,(199.06)7/8,(206.575)7/8,
(206.575){4}2,(199.06)1,(199.06)1/2,(199.06)1/2,
(206.211){4}8,(199.316)1,(199.316)2/7,(205.148)1/8,
(205.148){4}1q5[8:3],(191.28),(181.769),(197.862),
(205.644){4}7,(205.644)8,(193.66)7/8,(193.904)1/6,
(193.904){4}2,(206.372)1,(206.372)1/2,(194.402)3/8,
(194.76){4}8,(198.865)1,(198.865)1/8,(195.393)2/7,
(201.723){4}2q6[8:3],(197.579),(197.579),(200.444),
(198.002){4}6,(198.002)5,(195.026)5/6,(195.026)4/7,
(202.355){4}3,(194.731)4,(200.835)3/4,(202.0)2/5,
(197.346){4}5,(197.346)4,(198.428)4/5,(198.428)3/6,
(197.798){4}4q8[8:3],(197.798),(197.798),(204.032),
(195.363){4}6,(194.616)5,(201.019)5/6,(201.232)4/7,
(193.083){4}3,(194.874)4,(190.965)3,(190.965)2/5,
(199.802){4}5,(199.06)4,(199.06)4/5,(199.06)3/6,
(202.83){4}3q7[8:3],(193.676),(200.242),(200.927),
(195.248){4}2,(201.831)1,(199.06)2,(205.496)1,
(205.496){4}1/2,(204.805)3/8,(204.805)1^6[4:3]/2^5[4:3],(200.638),
(201.877){4},(194.145),(193.655),(193.655),
(193.294){4}5/6,(204.907)4/7,(204.907)3/8,(199.991)1/2,
(193.813){4}7,(193.813)8,(200.908)7,(199.06)8,
(212.437){4}7/8,(199.06)1/6,(199.69)7^4[4:3]/8^3[4:3],(212.463),
(200.137){4},(200.769),(200.769),(208.128),
(188.825){4}3/4,(200.228)2/5,(196.845)1/6,(196.845)7/8,
(201.083){4}6,(200.682)5,(200.682)6,(204.678)5,
(204.678){4}5/6,(205.587)4/7,(205.587)5^2[4:3]/6^1[4:3],(198.424),
(198.424){4},(218.454),(197.423),(197.423),
(202.332){4}1/2,(208.249)3/8,(208.249)4/7,(202.308)5/6,
(199.864){4}3,(186.024)4,(203.743)6,(194.359)5,
(199.503){4}4,(196.16)4/5,(199.112)5,(199.112)4/5,
(203.242){4}3-1[2:1]/6-8[2:1],(180.123),(191.434),(193.287),
(201.656){1}2b/7b,
E
EXPERT
(201.47){4}3,(201.47)6,(194.932)4,(200.44)5,
(202.619){8}3,3,(204.278),,(189.582)6,6,(195.667),,
(197.798){4}2,(197.798)7,(197.798)1,(178.989)8,
(189.365){8}2,2,(204.222),,(204.222)7,7,(201.217),,
(199.977){4}3,(199.977)6,(192.942)4,(181.668)5,
(197.507){8}3,4,(194.717),,(202.464)6,5,(201.954),,
(201.954){4}2,(193.153)7,(195.826)1,(194.145)8,
(199.623){8}2,1,(195.349),,(199.909)7,8,(201.585),,
(201.585){4}2^5[2:1]/6^1[2:1],(201.8),(201.954),(189.433),
(200.25){4}3/4,(200.25)1/6,(198.426)5/6,(192.507)3/8,
(192.507){4}3^8[2:1]/7^4[2:1],(199.683),(197.007),(195.566),
(197.787){4}1/2,(218.551)3/8,(186.707)7/8,(204.191)1/6,
(182.326){4}3h[4:1],(203.821)4,(203.821)6h[4:1],(200.197)5,
(187.753){4}3,(201.378)4/7,(200.0)6,(200.0)2/5,
(194.602){4}7h[4:1],(194.43)8,(194.788)2h[4:1],(203.555)1,
(194.459){4}7,(193.847)3/8,(198.277)2,(206.211)1/6,
(206.211){4}6h[4:1],(200.486)5,(193.762)3h[4:1],(194.103)4,
(197.5){4}6,(197.5)2/5,(201.432)3,(194.431)4/7,
(197.198){4}2h[4:1],(197.906)1,(202.278)7h[4:1],(195.32)8,
(207.472){4}2,(207.472)1/6,(194.331)7,(203.086)3/8,
(203.086){4}6b/3bq1[2:1],(193.904),(193.16),(211.166),
(198.553){4}8,(198.553)8,(194.573)1/8,(190.428)6/8,
(199.172){8}6h[8:3],,(201.309),5,(205.699),,(205.699)3/6,,
(200.675){8}3h[8:3],,(200.675),4,(205.347),,(205.347)3/7,,
(201.685){8}7h[8:3],,(201.685),8,(197.176),,(197.176)2/7,,
(209.426){4}5-2[4:1],(209.426),(201.341),(212.463)1/3,
(212.463){8}3h[8:3],,(204.296),4,(204.296),,(197.362)3/6,,
(197.362){8}6h[8:3],,(208.744),5,(201.662),,(202.542)2/6,,
(207.758){8}2h[8:3],,(198.992),1,(198.992),,(202.116)2/7,,
(202.116){4}1q5[4:1],(205.558),(205.558),(206.001)5/7,
(203.058){8}7h[4:1],,(199.344)8,7,(199.344),,(200.836)2/7,,
(201.678){8}2h[4:1],,(201.678)1,2,(212.795),,(212.795)2/6,,
(204.512){8}6h[4:1],,(200.41)5,6,(200.41),,(216.547)3/6,,
(202.837){4}6^4[4:1],(202.837),(197.906),(209.303)2/4,
(209.303){8}2h[4:1],,(206.381)1,3,(206.381),,(207.758)2/7,,
(201.723){8}7h[4:1],,(210.435)8,6,(207.465),,(207.465)3/7,,
(204.134){8}3h[4:1],,(206.913)4,2,(208.036),,(208.215)3/6,,
(208.215){4}1/3,(205.396)4/5,(205.396)6/8,(196.664)2/7,
(196.664){4}8h[4:1],(193.012)1^3[4:1],(193.012),(197.169),
(195.87){4}3h[4:1],(195.87)4^6[4:1],(199.924),(204.712),
(204.712){4}6h[4:1],(199.562)7^1[4:1],(193.252),(200.151),
(204.783){4}1/2,(204.783)7/8,(199.06)3/6,(199.06),
(196.198){4}5h[4:1],(196.198)4^2[4:1],(196.087),(199.42),
(199.42){4}2h[4:1],(202.094)1^7[4:1],(202.094),(201.001),
(198.254){4}7h[4:1],(198.254)6^4[4:1],(201.234),(204.482),
(204.482){4}3/4,(194.189)5/6,(196.444)2b/7b,(196.444),
(190.903){4}1/2,(190.903)3/8,(198.307)4/7,(196.073)5/6,
(201.11){4}4/7,(200.698)3/8,(200.896)1/5,(197.798),
(197.798){4}3,(197.798)4/8,(197.798)6,(197.798)1/5,
(183.287){4}1p5[4:1]/8^5[4:1],(195.184),(195.184),(193.083),
(198.396){4}7/8,(198.396)1/6,(199.69)2/5,(199.69)3/4,
(195.754){4}2/5,(195.754)1/6,(195.104)4/8,(201.785),
(195.739){4}6,(202.721)1/5,(202.721)3,(190.196)4/8,
(190.196){4}1^4[4:1]/8q4[4:1],(197.264),(197.264),(200.934),
(200.934){4}3/4,(193.691)2/5,(195.508)1/6,(203.061)7/8,
(203.061){4}1/6,(199.672)2/5,(204.736)4/8,(195.638),
(198.231){4}2,(198.231)1/5,(204.279)7,(204.279)4/8,
(192.477){4}4^1[4:1]/5p1[4:1],(193.847),(196.758),(200.031),
(196.364){4}5/6,(194.932)4/7,(195.589)3/8,(195.589)1/2,
(202.477){4}3/8,(201.125)4/7,(201.14)1/5,(200.607),
(194.245){4}7,(195.601)4/8,(195.601)2,(194.404)1/5,
(201.156){4}4q8[4:1]/5^8[4:1],(201.202),(199.789),(172.299),
(196.189){4}2,(196.145)1,(196.145)2,(201.924)1,
(201.924){8}1/2,1/2,(201.401),,(198.753)5/6,5/6,(204.025),,
(193.62){4}6,(193.62)5,(196.459)6,(196.459)5,
(202.233){8}5/6,5/6,(195.248),,(201.739)1/2,1/2,(180.037),,
(194.16){4}7,(197.798)8,(197.798)7,(195.55)8,
(195.55){8}7/8,7/8,(183.493),,(197.798)3/4,3/4,(187.213),,
(183.457){4}3,(197.798)4,(201.25)3,(201.25)4,
(201.986){8}3/4,3/4,(201.646),,(194.652)7/8,7/8,(194.652),,
(198.918){4}4/5,(199.623)3/4,(192.954)4/5,(192.954)5/6,
(201.823){4}5/4>6[2:1],(201.823),(200.718),(193.548),
(195.783){4}4/5,(199.06)2/4,(199.06)4/5,(200.143)5/7,
(200.143){4}4/5<3[2:1],(201.818),(197.581),(208.216),
(210.0){4}4/5,(205.001)1/4,(196.422)4/5,(202.17)5/8,
(205.477){4}5/4>6[2:1],(205.477),(194.098),(200.554),
(200.554){4}4/5,(194.443)4/8,(207.757)4/5,(207.757)1/5,
(196.439){4}4/5<3[2:1],(203.148),(198.188),(199.217),
(201.324){4}1/8,(203.994)1/2,(199.94)1/8,(203.398)7/8,
(202.93){4}8/1>7[2:1],(202.93),(200.775),(205.26),
(198.775){4}1/8,(198.775)1/3,(199.911)1/8,(201.003)6/8,
(201.003){4}1/8<2[2:1],(204.181),(204.181),(200.627),
(199.503){4}4/5,(197.096)1/4,(197.096)4/5,(199.23)5/8,
(201.493){4}4/7,(200.653)2/5,(201.462)4/8,(201.324)1bpp5[1:1]/5bpp1[1:1],
(203.375){4},(203.375),(199.69),(199.69),
(199.69){4},(199.69),(193.252)1/8,(199.06)2/7,
(199.06){4}2,(199.06)1/3,(199.06)7,(206.575)6/8,
(206.575){4}3/4,(199.06)5/6,(199.06)1/8,(199.06),
(206.211){4}1,(199.316)5/6,(199.316)8,(205.148)3/4,
(205.148){4}8/1<5[4:1]*p5[4:1],(191.28),(181.769),(197.862)2/7,
(205.644){4}7,(205.644)6/8,(193.66)2,(193.904)1/3,
(193.904){4}5/6,(206.372)3/4,(206.372)1/8,(194.402),
(194.76){4}8,(198.865)3/4,(198.865)1,(195.393)5/6,
(201.723){4}1/8>4[4:1]*q4[4:1],(197.579),(197.579),(200.444)2/7,
(198.002){4}3,(198.002)2/4,(195.026)6,(195.026)5/7,
(202.355){4}1/2,(194.731)7/8,(200.835)4/5,(202.0)3/6,
(197.346){4}5,(197.346)1/2,(198.428)4,(198.428)7/8,
(197.798){4}4/5>1[4:1]*p1[4:1],(197.798),(197.798),(204.032)3/6,
(195.363){4}6,(194.616)5/7,(201.019)3,(201.232)2/4,
(193.083){4}7/8,(194.874)1/2,(190.965)4/5,(190.965)3/6,
(199.802){4}4,(199.06)7/8,(199.06)5,(199.06)3/4,
(202.83){4}5/4<8[4:1]*q8[4:1],(193.676),(200.242),(200.927)3/6,
(195.248){4}2h[4:1],(201.831)8,(199.06)7h[4:1],(205.496)1,
(205.496){4}2/8,(204.805)1/7,(204.805)6/8,(200.638),
(201.877){4}6-1[4:1],(194.145),(193.655)2-5[4:1],(193.655),
(193.294){4}6<4[2:1],(204.907),(204.907),(199.991),
(193.813){4}6h[4:1],(193.813)5,(200.908)3h[4:1],(199.06)4,
(212.437){4}4/6,(199.06)3/5,(199.69)2/4,(212.463),
(200.137){4}2-5[4:1],(200.769),(200.769)6-1[4:1],(208.128),
(188.825){4}2<4[2:1],(200.228),(196.845),(196.845),
(201.083){4}3,(200.682)2/4,(200.682)6,(204.678)5/7,
(204.678){4}3/4,(205.587)5/6,(205.587)2/7,(198.424),
(198.424){4}3-8[4:1],(218.454),(197.423)7-4[4:1],(197.423),
(202.332){4}3>5[2:1],(208.249),(208.249),(202.308),
(199.864){4}6,(186.024)5/7,(203.743)3,(194.359)2/4,
(199.503){4}5/6,(196.16)4/8,(199.112)2/7,(199.112),
(203.242){8}1/3,,(180.123),6/8,(191.434),,(193.287)4/5,,
(201.656){1}2b/7b,
E
MASTER
(201.47){4}2h[4:3],(201.47),(194.932)1h[4:1],(200.44),
(202.619){8}1/6,1/6,(204.278),,(189.582)3/4,3/4,(195.667),,
(197.798){4}7h[4:3],(197.798),(197.798)8h[4:1],(178.989),
(189.365){8}3/8,3/8,(204.222),,(204.222)5/6,5/6,(201.217),,
(199.977){4}3h[4:3],(199.977),(192.942)4h[4:1],(181.668),
(197.507){8}4/7,4/7,(194.717),,(202.464)1/2,1/2,(201.954),,
(201.954){4}6h[4:3],(193.153),(195.826)5h[4:1],(194.145),
(199.623){8}2/5,2/5,(195.349),,(199.909)7/8,7/8,(201.585),,
(201.585){8}3h[8:3],,(201.8),4h[8:3],(201.954),,(189.433)5,,
(200.25){4}5/6,(200.25)3/4,(198.426)5/7,(192.507)2/4,
(192.507){8}6h[8:3],,(199.683),5h[8:3],(197.007),,(195.566)4,,
(197.787){16}2/4,,,,(218.551)5/7,,,,(186.707)4,5,4,,(204.191)2/7,,,,
(182.326){8}3,4,(203.821)4,2,(203.821)5,5,(200.197)1,6,
(187.753){4}2-4[8:1],(201.378)6-8[8:1],(200.0)1-5[8:1],(200.0),
(194.602){8}6,5,(194.43)5,7,(194.788)4,4,(203.555)8,3,
(194.459){4}7-5[8:1],(193.847)3-1[8:1],(198.277)8-4[8:1],(206.211),
(206.211){8}3,4,(200.486)3,6,(193.762)5,6,(194.103)3,4,
(197.5){4}3-1[8:1],(197.5)7-5[8:1],(201.432)4-8[8:1],(194.431),
(197.198){8}6,5,(197.906)6,3,(202.278)4,3,(195.32)6,5,
(207.472){4}6-8[8:1],(207.472)2-4[8:1],(194.331)5-1[8:1],(203.086),
(203.086){4}4qq1[4:3],(193.904),(193.16),(211.166),
(198.553){8}6,,(198.553)7,,(194.573)1,8,(190.428)2b/7b,,
(199.172){8}8h[8:3],,(201.309)5,5-2[8:1],(205.699),6,(205.699)6,,
(200.675){8}1h[8:3],,(200.675)4,4-7[8:1],(205.347),3,(205.347)3,,
(201.685){8}8h[8:3],,(201.685)5,5-2[8:1],(197.176),6,(197.176)6,,
(209.426){4}1h[4:1],(209.426)8h[4:1],(201.341)7,(212.463)2/5,
(212.463){8}1h[8:3],,(204.296)4,4-7[8:1],(204.296),3,(197.362)3,,
(197.362){8}8h[8:3],,(208.744)5,5-2[8:1],(201.662),6,(202.542)6,,
(207.758){8}1h[8:3],,(198.992)4,4-7[8:1],(198.992),3,(202.116)3,,
(202.116){4}8h[4:1],(205.558)7,(205.558)1/6,(206.001)4/5,
(203.058){8}4h[8:3],,(199.344)3,3-7[8:1],(199.344),1,(200.836)1,,
(201.678){8}5h[8:3],,(201.678)6,6-2[8:1],(212.795),8,(212.795)8,,
(204.512){8}4h[8:3],,(200.41)3,3-7[8:1],(200.41),1,(216.547)1,,
(202.837){4}6h[4:1],(202.837)7h[4:1],(197.906)8,(209.303)2/5,
(209.303){8}5h[8:3],,(206.381)6,6-2[8:1],(206.381),8,(207.758)8,,
(201.723){8}4h[8:3],,(210.435)3,3-7[8:1],(207.465),1,(207.465)1,,
(204.134){8}5h[8:3],,(206.913)6,6-2[8:1],(208.036),8,(208.215)8,,
(208.215){4}4h[4:1],(205.396)3,(205.396)1-5[8:1]/2-6[8:1],(196.664)1/2,
(196.664){4}7h[2:1],(193.012)8,(193.012)8,(197.169)6/1^4[4:1],
(195.87){4}4^7[4:1],(195.87)7,(199.924)8,(204.712)3/4,
(204.712){4}2h[2:1],(199.562)1,(193.252)1,(200.151)3/8^5[4:1],
(204.783){4}5^2[4:1],(204.783)2,(199.06)1,(199.06)5/6,
(196.198){4}6h[2:1],(196.198)5,(196.087)5,(199.42)7/4^1[4:1],
(199.42){4}1^6[4:1],(202.094)6,(202.094)5,(201.001)3/4,
(198.254){4}5/6,(198.254)1/3,(201.234)6/8,(204.482)1/8,
(204.482){16}2/7,,,,(194.189)3/6,,,,(196.444)4,5,4,,(196.444)2b/7b,,,,
(190.903){8}1^4[8:1],,(190.903)1q5[8:1],,(198.307)1,,(196.073),7^4[8:1],
(201.11){8},7,(200.698)3-8[8:1],,(200.896)3,,(197.798),7h[4:1],
(197.798){8},8,(197.798)1-5[8:1],1,(197.798)8-6[8:1],8,(197.798)2-4[8:1],2,
(183.287){8}7<8[8:3],7,(195.184),,(195.184),,(193.083)3/5,,
(198.396){8}8^5[8:1],,(198.396)8p4[8:1],,(199.69)8,,(199.69),2^5[8:1],
(195.754){8},2,(195.754)6-1[8:1],,(195.104)6,,(201.785),2h[4:1],
(195.739){8},1,(202.721)8-4[8:1],8,(202.721)1-3[8:1],1,(190.196)7<8[8:3],7,
(190.196){4},(197.264),(197.264)3/4,(200.934)1/6,
(200.934){8}8-4[8:1],,(193.691)8-2[8:1]*-6[8:1],,(195.508)8,,(203.061),2^5[8:1],
(203.061){8},2,(199.672)7-2[8:1]*-4[8:1],,(204.736)7,,(195.638),2h[4:1],
(198.231){8},1,(198.231)8-4[8:1],8,(204.279)1-3[8:1],1,(204.279)7-5[8:1],7,
(192.477){8}2>1[8:3],2,(193.847),,(196.758),,(200.031)4/6,,
(196.364){8}1-5[8:1],,(194.932)1-3[8:1]*-7[8:1],,(195.589)1,,(195.589),7^4[8:1],
(202.477){8},7,(201.125)2-5[8:1]*-7[8:1],,(201.14)2,,(200.607),7h[4:1],
(194.245){8},8,(195.601)1-5[8:1],1,(195.601)8-6[8:1],8,(194.404)2>1[8:3],2,
(201.156){8},,(201.202),,(199.789)6,5,(172.299)4/7,,
(196.189){4}2h[4:3],(196.145)3,(196.145)4,(201.924)5,
(201.924){8}6,5/6,(201.401),,(198.753)3,3/4,(204.025),,
(193.62){4}7h[4:3],(193.62)6,(196.459)5,(196.459)4,
(202.233){8}3,3/4,(195.248),,(201.739)6,5/6,(180.037),,
(194.16){4}4/3h[4:3],(197.798)2,(197.798)1,(195.55)8,
(195.55){8}7,7/8,(183.493),,(197.798)2,1/2,(187.213),,
(183.457){4}5/6h[4:3],(197.798)7,(201.25)8,(201.25)1,
(201.986){8}2,1/2,(201.646),,(194.652)7,7/8,(194.652),,
(198.918){8}3,4,(199.623)3,6,(192.954)5,6,(192.954)3,4,
(201.823){4}3-8[8:1],(201.823)7-4[8:1],(200.718)1-5[8:1],(193.548)8,
(195.783){8}6,5,(199.06)7,3,(199.06)4,2,(200.143)6,5,
(200.143){4}6-1[8:1],(201.818)2-5[8:1],(197.581)8-4[8:1],(208.216)1,
(210.0){8}3,4,(205.001)1,6,(196.422)5,8,(202.17)3,4,
(205.477){4}2-5[8:1],(205.477)6-1[8:1],(194.098)4-8[8:1],(200.554)5,
(200.554){8}6,4,(194.443)8,3,(207.757)5,1,(207.757)6,4,
(196.439){4}7-4[8:1],(203.148)3-8[8:1],(198.188)5-1[8:1],(199.217)4,
(201.324){8}2-5[8:1],5,(203.994)2,7-4[8:1],(199.94)4,7,(203.398)2,5,
(202.93){4}3-6[8:1],(202.93)7-3[8:1],(200.775)1-5[8:1],(205.26)8,
(198.775){8}7^4[8:1],4,(198.775)7,2q6[8:1],(199.911)6,2,(201.003)7,4,
(201.003){4}6-3[8:1],(204.181)2-6[8:1],(204.181)8-4[8:1],(200.627)1,
(199.503){8}2^5[8:1],5,(197.096)2,7p3[8:1],(197.096)3,7,(199.23)2,5,
(201.493){4}3-6[8:1],(200.653)7-3[8:1],(201.462)1-5[8:1],(201.324)8,
(203.375){4}3b/6b,(203.375),(199.69),(199.69),
(199.69){4},(199.69),(193.252)4-7[8:1]/5-2[8:1],(199.06)4b/5b,
(199.06){8}1-3[8:1]/8-4[8:1],,(199.06)1-5[8:1]/8-6[8:1],,(199.06)1/8,,(206.575),3^8[8:1],
(206.575){8},3,(199.06)5-2[8:1]*-8[8:1],,(199.06)5,,(199.06),3h[4:1],
(206.211){8},4,(199.316)5-1[8:1],5,(199.316)4-2[8:1],4,(205.148)6-8[8:1],6,
(205.148){8}2>1[8:3],2,(191.28),,(181.769),,(197.862)4/6,,
(205.644){8}1-5[8:1]/8-6[8:1],,(205.644)1-3[8:1]/8-4[8:1],,(193.66)1/8,,(193.904),6^1[8:1],
(193.904){8},6,(206.372)4-1[8:1]*-7[8:1],,(206.372)4,,(194.402),6h[4:1],
(194.76){8},5,(198.865)4-8[8:1],4,(198.865)5-7[8:1],5,(195.393)1s5[8:3],1,
(201.723){8},,(197.579),,(197.579)2,1,(200.444)4/7,,
(198.002){8}8^3[8:1]*^5[8:1],,(198.002)8w4[8:1],,(195.026)8,,(195.026),3^8[8:1],
(202.355){8},3,(194.731)5w1[8:1],,(200.835)5,,(202.0),6h[4:1],
(197.346){8},5,(197.346)4-8[8:1],4,(198.428)5-7[8:1],5,(198.428)3-1[8:1],3,
(197.798){8}7<8[8:3],7,(197.798),,(197.798),,(204.032)5/7,,
(195.363){8}1^4[8:1]*^6[8:1],,(194.616)1w5[8:1],,(201.019)1,,(201.232),6^1[8:1],
(193.083){8},6,(194.874)4w8[8:1],,(190.965)4,,(190.965),3h[4:1],
(199.802){8},4,(199.06)5-1[8:1],5,(199.06)4-2[8:1],4,(199.06)8z4[8:3],8,
(202.83){8},,(193.676),,(200.242)7,8,(200.927)2/5,,
(195.248){8}1^7[8:1]/2^4[8:1],,(201.831)1-5[8:1]/2-6[8:1],,(199.06),,(205.496),8-4[8:1],
(205.496){8},8,(204.805)2<4[8:3],,(204.805)2,,(200.638),,
(201.877){8}3,4,(194.145)3,6,(193.655)5,6,(193.655)2,1,
(193.294){4}2-5[8:1],(204.907)8-3[8:1],(204.907)5-1[8:1],(199.991)6,
(193.813){8}7^5[8:1]/8^2[8:1],,(193.813)7-3[8:1]/8-4[8:1],,(200.908),,(199.06),1-5[8:1],
(212.437){8},1,(199.06)7>5[8:3],,(199.69)7,,(212.463),,
(200.137){8}6,5,(200.769)6,3,(200.769)4,3,(208.128)7,8,
(188.825){4}7-4[8:1],(200.228)1-6[8:1],(196.845)4-8[8:1],(196.845)3,
(201.083){8}2^8[8:1]/3^5[8:1],,(200.682)2-6[8:1]/3-7[8:1],,(200.682),,(204.678),4-8[8:1],
(204.678){8},4,(205.587)6>8[8:3],,(205.587)6,,(198.424),,
(198.424){8}7,8,(218.454)7,2,(197.423)1,2,(197.423)6,5,
(202.332){4}6-1[8:1],(208.249)3-7[8:1],(208.249)4-8[8:1],(202.308)3,
(199.864){8}6^4[8:1]/7^1[8:1],,(186.024)6-2[8:1]/7-3[8:1],,(203.743),,(194.359),5-1[8:1],
(199.503){8},5,(196.16)3<1[8:3],,(199.112)3,,(199.112),,
(203.242){8}2,1,(180.123)2,7,(191.434)8,7,(193.287)1/8,2/7,
(201.656){1}3b/6b,
E
Re:MASTER
最終更新:2026年10月04日 08:21