アットウィキロゴ

物凄い勢いでけーねが物凄いうた〈スタンダード〉

アーティスト Halozy

BPM EASY BASIC ADVANCED EXPERT MASTER Re:MASTER
180 2 5 8 9+ 13 -

EXPERT MASTER Re:MASTER
譜面制作者 某S氏 mai-Star -

EASY


BASIC

(180.0){1},,,,,,,,
{1}1b,
{2}1,1,
{2}1,1,
{2}8,8,
{2}8,7/8,
{2}7,7,
{2}7,7,
{2}6,6,
{2}6,5/6,
{2}5,5,
{2}4,4,
{1}5h[1:1],,
{2}3,3,
{2}4,4,
{1}3h[1:1],,
{2}5,5,
{2}6,6,
{1}5h[1:1],,
{2}6,5,
{2}4,3,
{1}2h[1:1],,
{1}2-6[4:3],,
{1}7-3[4:3],,
{1}1-5[4:3],,
{1}8-4[4:3],,
{1}1b,
{4}1,1,1,,
{4}2,2,2,,
{4}3,3,3,,
{1}4/5,
{4}5,5,5,,
{4}6,6,6,,
{4}7,7,7,,
{2}1/8,1/8,
{4}8,8,8,,
{4}7,7,7,,
{4}6,6,6,,
{1}4/5,
{1}3h[2:1],
{1}2h[2:1],
{4}1,1,1,,
{4}8,8,8,,
{2}1/8,1/8,
{2}7,1/8,
{2}1/8,1/8,
{2}2,1/8,
{2}7/8,7/8,
{2}6,7/8,
{2}1/2,1/2,
{4}1,8,1,,
{2}7/8,1/7,
{2}2,1/8,
{2}1/2,2/8,
{2}7,1/8,
{2}7/8,1/2,
{2}3,1/8,
{2}1/2,7/8,
{4}6,5,6,,
{1}4b/5b,
E

ADVANCED

(180.0){4}3,3,4,4,
{4}3,4,3,,
{4}6,6,5,5,
{4}6,5,6,,
{4}4,5,4,5,
{4}4/5,4/5,4/5,,
{8}4,,5,,4,,4/5,4/5,
{8},4/5,,4b/5b,,,,,
{1}4^1[2:1]/5^8[2:1],
{4}1,1,2,2,
{4}3,3,4,4,
{4}5,5,6,6,
{4}7/8,7/8,7/8,,
{4}8,8,7,7,
{4}6,6,5,5,
{4}4,4,3,3,
{4}1/2,1/2,1/2,,
{4}3h[2:1],,4,4,
{4}6h[2:1],,5,5,
{2}4h[2:1],5h[2:1],
{4}4,5,4,5,
{4}2h[2:1],,4,4,
{4}7h[2:1],,5,5,
{2}4h[2:1],5h[2:1],
{4}4,3/4,5,5/6,
{4}2h[2:1],,3,4,
{4}7h[2:1],,6,5,
{2}4h[2:1],5h[2:1],
{2}4^2[4:1],5^7[4:1],
{4}3h[2:1],,2,1,
{4}6h[2:1],,7,8,
{1}1h[2:1]/8h[2:1],
{4}1/2,1/2,7/8,7/8,
{1}2-5[2:1],
{1}7-4[2:1],
{1}2^5[2:1],
{1}7^4[2:1],
{1}1V35[4:3],
{1}8V64[4:3],
{1}1w5[4:5],,
{4}1b,1b,8b,8b,
{4}3,3,3/4,3/4,
{4}6,6,5/6,5/6,
{4}4/5,3/4,4/5,5/6,
{1}4h[2:1]/5h[2:1],
{4}3,3,2/4,2/4,
{4}6,6,5/7,5/7,
{4}3,3/4,3,3/4,
{4}6,5/6,6,5/6,
{4}7,7,7/8,7/8,
{4}2,2,1/2,1/2,
{4}1/8,7/8,1/8,1/2,
{1}1h[2:1]/8h[2:1],
{4}7,7,6/8,6/8,
{4}2,2,1/3,1/3,
{4}7,7/8,7,7/8,
{4}2,1/2,2,1/2,
{1}1-6[2:1]/2-5[2:1],
{4}5/6,5/6,4b/7b,,
{1}7-4[2:1]/8-3[2:1],
{4}3/4,3/4,2b/5b,,
{1}5-2[2:1]/6-1[2:1],
{4}1/2,1/2,3b/8b,,
{1}3-8[2:1]/4-7[2:1],
{4}7/8,7/8,1b/6b,,
{1}1^6[2:1]/2^5[2:1],
{4}5/6,5/6,4b/7b,,
{1}7^4[2:1]/8^3[2:1],
{4}3/4,3/4,2b/5b,,
{1}5^2[2:1]/6^1[2:1],
{4}1/2,1/2,3b/8b,,
{1}3^8[2:1]/4^7[2:1],
{4}7/8,7/8,1b/6b,,
{2}8w4[4:5],{1},,
E

EXPERT

(180.0){4}1,2,3,4/5,
{8}6,,7,,8,1,8,,
{4}8,7,6,4/5,
{4}3h[4:3],,1,1b,
{4}5,6,7,1/8,
{8}2,,3,,4,5,4,,
{8}4,,3,,2,,1/8,1/8,
{8},2/7,,2h[8:3]/7h[8:3],,,,,
{1}8b/1bs5[2:1],
{4}7,7/8,2,1/2,
{8}7,,7/8,,4,5,4,,
{4}2,1/2,7,7/8,
{8}2,,1/2,,5,4,5,,
{4}7,6/8,2,1/3,
{8}7,,6/8,,4,5,4,,
{4}2,1/3,7,8/6pp4[8:3],
{8},,,,,1b,1b,,
{1}1<5[2:1]*>5[2:1],
{1}8<4[2:1]*>4[2:1],
{4}1h[2:1]/8h[2:1],,,1/8,
{4}1/2,4/5,7/8,4/5,
{1}2p6[2:1]*q6[2:1],
{1}7p3[2:1]*q3[2:1],
{4}1h[2:1]/8h[2:1],,,1/8,
{8}4,5,4,5,3,6,3,6,
{1}4V61[2:1]*v1[2:1],
{1}5V38[2:1]*v8[2:1],
{4}2h[2:1]/7h[2:1],,,2/7,
{4}3/5h[4:1],8,6/4h[4:1],1,
{1}3<1[2:1]*q1[2:1],
{1}6>8[2:1]*p8[2:1],
{4}2h[2:1]/7h[2:1],,,2/7,
{8}3,4,3,5,3,4,3,5,
{4}3h[4:1],2,6h[4:1],7,
{4}2h[4:1],3,7h[4:1],6,
{4}4h[4:1],3,5h[4:1],6,
{4}1/8,4/5,2b/7b,,
{4}1h[4:1],3,8h[4:1],6,
{4}3h[4:1],1,6h[4:1],8,
{4}4/5,3/6,2/7,1/8,
{4}1b,1b,1b,1b,
{4}8,7,6,5,
{4}1^4[8:1],7,8^5[8:1],2,
{4}2-6[8:1],7,7-3[8:1],2,
{4}1,7/8,1/2,7/8,
{4}1h[2:1]/2h[2:1],,,1/2,
{4}2/4,3/5,4/6,5/7qq3[2:1],{1},
{4}5/7,4/6,3/5,4/2pp6[2:1],{1},
{4}5h[4:1]/6^1[4:1],,4,4,
{4}4h[4:1]/3^8[4:1],,5,5,
{4}7/8,1/6,2/5,3/4,
{1}3-7[4:1]/4-8[4:1],
{4}8/1^4[2:1],7,6,5,
{4}4/5^8[2:1],3,2,1,
{4}1/2,3/8,4/7,5/6,
{4}3/4,2/5,1/6,7/8,
{2}8/7-4[8:1],1/2-5[8:1],
{4}8,1,2b/7b,,
{2}1/2-5[8:1],8/7-4[8:1],
{4}1,8,2b/7b,,
{2}8/7-4[8:1],1/2-5[8:1],
{4}8,1,2b/7b,,
{2}1/2-5[8:1],8/7-4[8:1],
{8}1,8,1,8,1b,,,,
{2}7-4[8:1]/8-4[8:1],1-5[8:1]/2-5[8:1],
{4}7/8,1/2,2b/7b,,
{2}1-5[8:1]/2-5[8:1],7-4[8:1]/8-4[8:1],
{4}1/2,7/8,2b/7b,,
{2}7-4[8:1]/8-4[8:1],1-5[8:1]/2-5[8:1],
{4}7/8,1/2,2b/7b,,
{2}1-5[8:1]/2-5[8:1],7-4[8:1]/8-4[8:1],
{8}1,8,1,8,1b,,,,
{1}2b/7b,
E

MASTER

(180.0){8}1,3,5,7,5,3,1,8h[4:1],
{8},6,7,8,1,2,3,4,
{8}8,6,4,2,4,6,8,1h[4:1],
{8},3h[4:1],,2h[4:1],,1h[4:1],,8,
{8}8,6,4,2,4,6,8,1h[4:1],
{8},3,2,1,8,7,6b,,
{8}1^4[8:1],,1p6[4:1],,,,,1b-4[8:1],
{8},1b-6[8:1],,1b,,5,{4}5w1[2:1],{1},
{16}2/5,,3,4,3,,,,4/7,,6,5,6,,,,
{16}2/7,,4,5,4,,,,3/4,,3/4,,5/6,,5/6,,
{16}3/8,,2,1,2,,,,1/6,,7,8,7,,,,
{16}1/6,,3,4,3,,,,7/8,,7/8,,5/6,,5/6,,
{16}7,,3,4,2,,4,,2,,6,5,7,,6,,
{16}5,,1,8,2,,1,,1/2,,1/2,,3/4,,3/4,,
{16}6,,2,1,3,,2,,3,,7,8,6,,7b,,
{8}4/8,1/5,2/6,3/7,,8b,8b,,
{8}2h[8:1],1,2h[8:1],3,2h[8:1],8,2h[8:1],4,
{8}2h[8:1],7,2h[8:1],5,2h[8:1],6,2,6,
{4}2-6[8:1],6-2[8:1],2-6[8:1],,
{8}8,1/7,2/6,,1,2/8,3/7,4/6,
{8}7h[8:1],8,7h[8:1],6,7h[8:1],1,7h[8:1],5,
{8}7h[8:1],2,7h[8:1],4,7h[8:1],3,7,3,
{4}4^1[8:1]/8^5[8:1],4q8[8:1]/8q4[8:1],,,
{8}3/4,3/4,5/6,5/6,2/4,2/4,5/7,5/7,
{8}3,2,2,1,1,8,8,7,
{8}7,6,6,5,5,4,4,3,
{1}3qq5[2:1],
{2}4-8[8:1]/6-8[8:1],3-1[8:1]/5-1[8:1],
{8}6,7,7,8,8,1,1,2,
{8}2,3,3,4,4,5,5,6,
{1}6pp4[2:1],
{8}1/2,1b/2b,7/8,7b/8b,1/2,1b/2b,7/8,7b/8b,
{16}1,,8,,1,,3,,2h[16:3],,,8h[16:3],,,6h[8:1],,
{8}4h[8:3],,,3h[8:3],,,4h[4:1],,
{8}5h[8:3],,,6h[8:3],,,5,,
{8}2/7,,,1/8,1b/8b,,1>5[4:1]*q5[4:1],1,
{16},,,,,,,,8<4[4:1],,,8,,,1,,
{8}2h[8:3],,,4h[8:3],,,1,,
{4}8<4[4:1],4>8[4:1],8<4[4:1],4pp8[8:5],
{4}1b,2b,3b,4b,
{4}1b-3[8:1]*-7[8:1],1b-5[8:1],1b-4[8:1]*-6[8:1],1b,
{8}2/8,1,2/8,1,3/7,1,3/7,1,
{8}1/7,8,1/7,8,2/6,8,2/6,8,
{8}2-6[8:1],2,3-7[8:1],3,4-8[8:1],4,5-1[8:1],5,
{1}8<1[8:3],
{4}1>5[4:1]/5<1[4:1],1p5[4:1]/5p1[4:1],,,
{4}8V64[4:1],4V28[4:1],8V64[4:1],,
{16}1-5[8:1],,,,1,,,,4/6,,,3/7,,,2/8,,
{4}1-3[8:1],1-7[8:1],1v4[8:1]*v6[8:1],1b,
{8}3/5,4,3/5,4,2/6,4,2/6,4,
{8}4/6,5,4/6,5,3/7,5,3/7,5,
{8}7-3[8:1],7,8-4[8:1],8,1-5[8:1],1,2-6[8:1],2,
{1}5<4[8:3],
{16}7/2^7[8:1],,,,,,,,1/8,,,2/7,,,3/6,,
{4}4-2[8:1],4-6[8:1],4v1[8:1]*v7[8:1],,
{4}2-4[8:1],1-5[8:1],8-6[8:1],8-4[8:1],
{4}1-3[8:1],7-5[8:1],2-6[8:1],8-3[8:1]*-5[8:1],
{16}8b,,,,,,,,4,5,4,5,4,,,,
{4}1-5[8:1],5w1[4:1],,,
{16}3,4,3,4,3,,,,6,5,6,5,6,,,,
{4}8-4[8:1],4w8[4:1],,,
{16}6,5,7,5,6,,,,3,4,2,4,3,,,,
{4}2-6[8:1],6w2[4:1],,,
{16}1,8,2,7,1,,,,5,4,6,3,5,,,,
{8}5/6,4/5,3/4,4/5,5b-2[8:1]/6b-1[8:1],,,,
{16}7,8,7,1,8,,,,2,1,2,8,1,,,,
{4}8-4[8:1],4V28[4:1]*V68[4:1],,,
{16}2,1,3,8,1,,,,7,8,6,1,8,,,,
{16}1/2,,,3,8,,1/2,,3b/8b,,,,,,,,
{16}4,5,3,5,4,,,,7-3[8:1],8,6,8,7,,,,
{4}1-5[8:1],5V31[4:1]*V71[4:1],,,
{16}5,4,6,4,5,,,,2-6[8:1],1,3,1,2,,,,
{8}7,8,1,2,,4/5,3pp1[2:3]/6qq8[2:3],,
{2}3b/6b,{1},,
E

Re:MASTER


名前:
コメント:

タグ:

+ タグ編集
  • タグ:
最終更新:2026年10月04日 08:21