アットウィキロゴ

Starlight Vision

アーティスト 矢鴇つかさ feat. 三澤秋

BPM EASY BASIC ADVANCED EXPERT MASTER Re:MASTER
180 2 3 8 11+ 12+ -

EXPERT MASTER Re:MASTER
譜面制作者 ぴちネコ LabiLabi -

EASY


BASIC

(180.0){1},
{1}1h[1:2],,,,
{1}8h[1:2],,,,
{1}1,
{1}2,
{1}3,
{1}4,
{1}5,
{1}6,
{1}7,
{1}8,
{1}1-4[4:3],,
{1}8h[1:1],,
{1}8-5[4:3],,
{1}1h[1:1],,
{2}1,1,
{1}1,
{2}2,2,
{1}2,
{2}3,3,
{2}4,4,
{1}4h[1:1]/5h[1:1],,
{2}6,6,
{2}7,7,
{1}8-4[4:3],,
{2}3,3,
{2}2,2,
{1}1-5[4:3],,
{2}8,8,
{1}8,
{2}7,7,
{1}7,
{2}6,6,
{2}5,5,
{1}4h[1:1]/5h[1:1],,
{2}3,3,
{2}2,2,
{1}1-5[4:3],,
{2}6,6,
{2}7,7,
{2}8,8,
{1}1b/8b,
{2}1,1,
{2}2,2,
{2}3,3,
{2}4,4,
{2}5,5,
{2}6,6,
{2}7,7,
{1}1/8,
{2}7,7,
{2}6,6,
{2}5,5,
{2}4,4,
{4}3,3,3,,
{4}2,2,2,,
{1}1-5[4:3],,
{2}5,5,
{2}6,6,
{2}7,7,
{2}8,8,
{2}1,1,
{2}2,2,
{2}3,3,
{1}4/5,
{2}3,3,
{2}2,2,
{2}1,1,
{2}8,8,
{4}7,7,7,,
{4}6,6,6,,
{1}5-1[4:3],,
{1}1-4[4:3]/8-5[4:3],,
E

ADVANCED

(180.0){1},
{1}7h[1:1],
{1}6h[1:1],
{1}5h[1:1],
{2}4,3/4,
{1}2h[1:1],
{1}3h[1:1],
{1}4h[1:1],
{2}5,5/6,
{1}7h[1:1],
{1}6h[1:1],
{1}5h[1:1],
{2}4,3/4,
{2}2,1/2,
{2}7,7/8,
{1}1^4[4:3]/8^5[4:3],,
{2}4,3/5,
{2}5,4/6,
{2}3,2/4,
{2}6,5/7,
{2}2,1/3,
{2}7,6/8,
{2}1,2/8,
{2}8,1/7,
{2}2h[2:1],3h[2:1],
{2}4h[2:1],5h[2:1],
{1}6<3[4:3],,
{2}7h[2:1],6h[2:1],
{2}5h[2:1],4h[2:1],
{1}3>6[4:3],,
{2}3h[2:1],4,
{2}6h[2:1],5,
{4}4/5,,4/5,3/6,
{1}2h[2:1]/7h[2:1],
{2}2h[2:1],1,
{2}7h[2:1],8,
{1}1^4[4:3]/8^5[4:3],,
{2}2h[2:1],3h[2:1],
{4}4,4,3/5,,
{2}7h[2:1],6h[2:1],
{4}5,5,4/6,,
{2}1h[2:1],2h[2:1],
{4}3,3,2/4,,
{2}8h[2:1],7h[2:1],
{4}6,6,5/7,,
{4}3,3,2/4,,
{4}6,6,5/7,,
{4}3/6,,1/8,1/8,
{2}2/7,4/5,
{1}1-6[2:1]/2-5[2:1],
{1}7-4[2:1]/8-3[2:1],
{1}1^4[4:3]/8^5[4:3],
{2},2b/7b,
{4}6,5,4/7,,
{4}3,4,2/5,,
{4}6,5,4/7,,
{4}3,4,2/5,,
{4}7,8,1/6,,
{4}2,1,3/8,,
{4}7,8,1/6,,
{4}2,1,3/8,,
{4}6,5/7,4,3/5,
{2}2h[2:1],1,
{4}3,2/4,5,4/6,
{2}7h[2:1],8,
{4}2,1/3,8,1/7,
{2}6h[2:1],5,
{4}7,6/8,1,2/8,
{2}3h[2:1],4,
{4}6,5/7,3,2/4,
{4}1,7/8,1/6,,
{4}3,2/4,6,5/7,
{4}8,1/2,3/8,,
{4}7,6/8,2,1/3,
{4}4,5/6,4/7,,
{4}2,1/3,7,6/8,
{4}5,3/4,2/5,,
{4}7,7/8,6,5/6,
{4}4,3/4,2,1/2,
{4}8,1/7,6,5/7,
{4}3,2/4,1/8,,
{4}2,1/2,3,3/4,
{4}5,5/6,7,7/8,
{4}1,2/8,3,2/4,
{4}6,5/7,1/8,,
{1}1b^4[4:3]/8b^5[4:3],,
E

EXPERT

(180.0){1},
{4}4/5,4,3,2,
{8}1,,8,8h[8:19],,,,,
{1}2-6[2:1],
{1}5-1[2:1],
{4}1/8,8,7,6,
{8}5,,4,4h[8:19],,,,,
{1}6-2[2:1],
{1}1-5[2:1],
{8}4/5,,3,4,3,,6,5,
{8}6,,2,2h[8:13],,,,,
{1}1<5[2:1],
{2}4h[2:1],3,
{8}4/5,,6,5,6,,3,4,
{8}3,,7,7h[8:13],,,,,
{1}8>4[2:1],
{2}5h[2:1],6b,
{8}1/2,,1/2,,7,7,,5,
{8}5,,4,4,,2,2,,
{8}7/8,,7/8,,2,2,,4,
{8}4,,5,5,,7,7,,
{8}1/3,,1/3,,7,5,,6,
{8}4,,5,3,,4,2,,
{8}6/8,,6/8,,2,4,,3,
{8}5,,4,6,,5,7,,
{1}8/1pp5[2:1],
{8}6h[8:3],,,7h[8:3],,,8,,
{1}1/8qq4[2:1],
{8}3h[8:3],,,2h[8:3],,,1,,
{8}1h[4:1]/7h[4:1],,,1/7,,,4,,
{8}2h[4:1]/8h[4:1],,,2/8,,,5,,
{1}1pp4[4:3]/7qq4[4:3],
{8},,,3/5,3/5,,1/7,,
{8}8h[4:1],,2h[4:1],,4,4,,1h[4:1],
{8},7h[4:1],,5,5,,1/8,,
{4}3/6,,4/5,2/7,
{1}1-4[4:1]/8-5[4:1],
{8}2h[8:3],,,1h[8:3],,,8,,
{8}7/8,,,3/6,,2/7,,1pp4[8:5]/8qq5[8:5],{1},
{8}4/5,,7,2,7,2,1b/8b,,
{8}6,,2/8,,,1,2/8,,
{8}3,,1/7,,,8,1/7,,
{8}7,,3/5,,,4,3/5,,
{8}2,,4/6,,,5,4/6,,
{8}5,,3/8,,,1/2,3/8,,
{8}4,,1/6,,,7/8,1/6,,
{8}8,,2/5,,,3/4,2/5,,
{8}1,,4/7,,,5/6,4/7,,
{8}6h[4:1],,8,,2,1,2,,
{8}3h[4:1],,1,,7,8,7,,
{8}2h[4:1],,4,,6,5,6,,
{8}7h[4:1],,5,,3,4,3,,
{1}7^4[8:3]/8^3[8:3],
{1}1^6[8:3]/2^5[8:3],
{8}7/8,,4,5,3,6,3,6,
{8}2,7,2,7,1b/8b,,,,
{8}7/8,,2b/4,,6,5b,6,,
{1}8h[4:3]/1bpp4[2:1],
{8}5/6,,1/7,,3,4,3,,
{1}5q2[8:3]/6^1[8:3],
{8}3/4,,6b/8,,2,1b,2,,
{1}4h[4:3]/5bpp8[2:1],
{8}1/2,,3/5,,7,8,7,,
{1}1q6[8:3]/2^5[8:3],
{8}7/8,,2b/4,,6,5b,6,,
{1}7h[4:3]/8bpp3[2:1],
{8}1/2,,6/8,,3,4,3,,
{1}1^6[8:3]/2p5[8:3],
{8}3/4,,6b/8,,2,1b,2,,
{1}3h[4:3]/4bpp7[2:1],
{8}5/6,,2/4,,7,8,7,,
{1}5^2[8:3]/6p1[8:3],
{8}7/8,,2b,1,3,7b,8,6,
{4}3b,3/4,2/5,1/6,
{4}7/8,5/7,3/5,3/8,
{1}1V75[8:3]/2v4[8:3],
{8}3/4,,6b,5,7,3b,4,2,
{4}7b,7/8,1/6,2/5,
{4}3/4,1/3,1/7,4/7,
{1}5V31[8:3]/6v8[8:3],
{8}2/7-3[4:3],,8b,,,1b,,,
{4}2b,,5/6,3/4,
{8}7/2-6[4:3],,1,,,8,,,
{4}7,,3/4,5/6,
{8}2,1,3b,8,4,7b,5,6,
{8}3b,4,2,5,1,6,8,7,
{8}1,2,3,4,5,6,7,8,
{8}1h[4:3],,5,5h[8:3],,,,,
{2}1b<3[4:5]*p3[4:5],{1},,
E

MASTER

(180.0){8},,,3,3,,2>8[4:7],2h[8:25],{1},,
{1}7h[1:1],
{8},,,6,6,,7<1[4:7],7h[8:15],{1},,
{8},,6h[8:3],,,7h[8:3],,,
{8}8h[4:3],,,5,5,,2,2h[4:3],
{8},7,,7,,1,,,
{8}4/7,,,,,2h[4:1]/5h[4:1],,,
{8}2/5,,4/7,4/7h[4:1],,8,,,
{8}2/5,,,4/7,4h[4:1]/7h[4:1],,,2h[1:2]/5-1[8:1],
{8},,,1-6[8:1],,,,6-3[8:1],
{8},,,3-8[8:1],,,,8<1[8:5],
{8},4,3,2h[8:5],,,,,
{8}5,,5,,5,4/6,3/7,2/8,
{8}1,1h[4:1],,3,3h[4:1],,5,5h[4:1],
{8},7,7h[4:1],,8,7,1/6,,
{8}8,8h[4:1],,6,6h[4:1],,4,4h[4:1],
{8},2,2h[4:1],,1,2,3/8,,
{8}6,6h[4:1],,8,8h[4:1],,2,2h[4:1],
{8},4,4h[4:1],,2,1,3/8,,
{8}2,3,4,2/5h[8:9],,,,,
{8}7,,7,,7,8,1b/6b,,
{1}8<4[2:1]*>4[2:1],
{8}2/8h[8:3],,,5h[8:3],,,6,,
{8}1-6[8:1],8-3[8:1],,,,6,7,8,
{8}1,,5,,4,,3/6,2/7,
{8}8/1h[8:3],,,4h[8:3],,,6h[4:1],,
{8}8h[8:3],,,3h[8:3],,,5,,
{8}7,7-3[8:1],,,,3,2,1,
{8}8,,5,,2,,3,4,
{8}2/5h[4:1],,6h[4:1],,7,7h[4:1],,8-4[8:1],
{8},7h[8:9],,3,3,3,,2,
{16}2h[4:1],,,,,,,,5/6,,,4/5,,,3/4,,
{8}3/4w8[4:1],,,,,,3,5h[8:3],
{8}4h[4:3],,,5,,,3h[4:1],,
{8}2h[4:1],,1,1h[4:1],,8h[4:1],,7w3[8:5],{1},
{8}3/4,,5/6,,1/8,2/7,3b/6b,,
{8}1,,2/8,1,,6/8,5,,
{8}1,,3/8,4,,4/8,6,,
{8}5,,1/7,3-8[8:1],,7,7,,
{16}8,,6,5,6,,3,,1,,8,,2/7,,,,
{8}8,,1/7,8,,1/3,4,,
{8}8,,1/6,5,,1/6,3,2,
{8}3,4,2/5,6-1[8:1],,2,2,,
{16}6,,3,4,3,,6,,4/5,,3/6,,2/7,,,,
{8}1/8,,2/4,3,,5/7,6,4,
{16}3,,2,,1/8,,,,3/4,,,4/5,,,5/6,,
{16}5h[4:1]/6h[1:1],,,,,,,,2,,,3,,,4,,
{4}4p1[2:1],5,6,7,
{4}1/8,5/7,2/4,1/8,
{8}3/7,3/7,2/6,2/6,1/5,1/5,4/8,4/8,
{8}1/5,2/6,3/7,4/8,1/5,4/8,3/7,2/6,
{16}1,8,1,8,1,8,1,8,1w5[8:1],,,,1b,,,,
{8},7-4[8:1],7,,1-5[8:1],1,,8-4[8:1],
{8}8,,2-5[8:1],2,6,7,8,1/3,
{8},2-5[8:1],2,,8-4[8:1],8,,1-5[8:1],
{8}1,,7-4[8:1],7,3,2,1,6/8,
{8},7-2[8:1],7,,5-2[8:1],5,,8-3[8:1],
{8}8,,6-3[8:1],6,8,7,6,2/5,
{8},2-7[8:1],2,,4-7[8:1],4,,1-6[8:1],
{8}1,,3-6[8:1],3,1,2,3,4/7,
{8},8p4[8:1],8,,2p6[8:1],2,,4p8[8:1],
{8}4,,6p2[8:1],6,7,8,1,2/8,
{8},1q5[8:1],1,,7q3[8:1],7,,5q1[8:1],
{8}5,,3q7[8:1],3,2,1,8,1/7^4[4:1],
{8},4^1[4:1],,1^6[4:1],,6^3[4:1],,3^8[4:1],
{8},8^5[4:1],,5^2[4:1],,2^7[4:1],,7,
{8},4,5,6,7,8,1,2,
{16}4,5,4,5,4,5,4,5,4w8[8:1],,,,4b,,,,
{8},2^5[8:1],1,,1^6[8:1],2,,5^2[8:1],
{8}6,,6^1[8:1],5,3,2,1,3/8,
{8},7^4[8:1],8,,8^3[8:1],7,,4^7[8:1],
{8}3,,3^8[8:1],4,6,7,8,1/6,
{8},2-6[8:1],5,,8-4[8:1],5,,2-6[8:1],
{8}5,,8-4[8:1],5,3,2,1,6/8,
{8},7-3[8:1],4,,1-5[8:1],4,,7-3[8:1],
{8}4,,1-5[8:1],4,6,7,8,1/3,
{8},7-3[8:1],8,,4-8[8:1],5,,6-2[8:1],
{8}5,,3-7[8:1],4,5,6,7,1/8,
{8},2-6[8:1],1,,5-1[8:1],4,,3-7[8:1],
{8}4,,6-2[8:1],5,4,3,2,1/8,
{8},7-3[16:3],6/8,7b,,1-5[8:1],2/8,1b,
{8},8-4[8:1],1/7,8b,,2-6[8:1],1/3,2b,
{8},7/8h[8:7],7,6,6,5,5,4,
{8}4,,2h[4:11],1,8,7,6h[8:3],,
{4},7bs3[2:3],,,{1},,
E

Re:MASTER


名前:
コメント:

タグ:

+ タグ編集
  • タグ:
最終更新:2026年10月04日 08:21