EASY
BASIC
(161.0){1},
{1}1,
{1}8,
{1}1,
{1}8,
{1}1/2,
{1}7/8,
{1}1/2,
{1}7/8,
{2}1,1,
{2}2,2,
{2}3,3,
{1}4h[2:1],
{2}5,5,
{2}6,6,
{2}7,7,
{2}8,1b/8b,
{4}8,8,8,,
{4}8,8,8,,
{4}7,7,7,,
{4}7,7,7,,
{4}6,6,6,,
{4}6,6,6,,
{4}5,5,5,,
{1}4h[2:1]/5h[2:1],
{4}4,4,4,,
{4}4,4,4,,
{4}3,3,3,,
{4}3,3,3,,
{4}2,2,2,,
{4}2,2,2,,
{4}1,1,1,,
{1}1b/8b,
{1}1-5[4:3],,
{1}8-4[4:3],,
{1}2-5[4:3],,
{2}7,7,
{4}6,6,6,,
{4}5,5,5,,
{4}4,4,4,,
{2}3/4,3/4,
{4}2,2,2,,
{4}1,1,1,,
{4}8,8,8,,
{1}1h[2:1],
{1}8h[2:1],
{1}1h[2:1],
{4}8,8,8b,,
{1}8h[2:1],
{1}1h[2:1],
{1}8h[2:1],
{4}1,1,1b,,
{4}2,2,3,3,
{4}4,4,5,5,
{4}6,6,7,7,
{4}8,8,1b/8b,,
{4}7,7,6,6,
{4}5,5,4,4,
{4}3,3,2,2,
{4}1,1,1b/8b,,
{4}1,1,3,3,
{4}5,5,7,7,
{4}5,4,3,2,
{4}1,1,1b/8b,,
{4}8,8,6,6,
{4}4,4,2,2,
{4}4,5,6,7,
{4}8,8,1,1b,
{4}2,2,2,,
{4}3,3,3,,
{4}4,4,4,,
{4}5,4,5,,
{4}5,5,5,,
{4}6,6,6,,
{4}7,7,7,,
{1}1h[2:1]/8h[2:1],
{4}7,7,7,,
{4}6,6,6,,
{4}5,5,5,,
{4}4,5,4,,
{4}4,4,4,,
{4}3,3,3,,
{4}2,2,2,,
{1}1b/8b,
E
ADVANCED
(161.0){1},
{1}3h[2:1]/5h[2:1],
{1}4h[2:1]/6h[2:1],
{1}3h[2:1]/5h[2:1],
{4}4h[4:1]/6h[4:1],,3/5,4/6,
{1}2h[2:1]/5h[2:1],
{1}4h[2:1]/7h[2:1],
{1}2h[2:1]/5h[2:1],
{4}4h[4:1]/7h[4:1],,5/6,4/5,
{4}3,3,3/4,3/4,
{4}3,3,3/4,2/5,
{4}6,6,5/6,5/6,
{4}6,6,5/6,5/6,
{1}4-1[8:3],
{1}8-5[8:3],
{1}4-1[8:3],
{2}8h[2:1],1b,
{4}7,7,5/6,3,
{4}3/4,2,1,1/8,
{4}2,2,3/4,6,
{4}5/6,7,8,1/8,
{4}2,2,3/4,6,
{4}5/6,7,8,1/8,
{4}7,7,5/6,3,
{4}3/4,2,1,1/8,
{4}2,3h[4:1],4,5,
{4}6h[4:1],5,7,1/8,
{4}7,6h[4:1],5,4,
{4}3h[4:1],4,2,1/8,
{4}2,3h[4:1],4,5,
{4}6h[4:1],5,7,1/8,
{4}2/7,3/6,4/5,4-1[2:1]/5-8[2:1],{1},
{4}8,7,6,5/7,
{4}4,3,2,1/3,
{4}8,7,6,5-1[2:1],{1},
{2}2h[2:1],1,
{2}3h[2:1],4,
{4}5,6,7,8,
{4}1,2,3,2/4,
{4}5,6,7,6/8,
{4}1,2,3,4-8[2:1],{1},
{2}7h[2:1],8,
{2}6h[2:1],5,
{4}4,4,5,3/6,
{1}3h[4:3]/6h[4:3],
{4}5,5,5,4/5,
{4}4,4,4,4/5,
{4}5,6,7,1/8,
{8}7,7,7/8,,6,6,5/6,,
{8}3,3,3/4,,2,2,1/2,,
{8}8,8,8,,1,1,1,,
{4}8h[2:1],,,8b,
{8}1,1,2/8,,6,6,5/7,,
{8}8,8,1/7,,3,3,2/4,,
{8}1,1,2/8,,6,6,5/7,,
{4}7/8,1/2,3/4,5/6,
{8}4,4,3/5,,7,7,6/8,,
{8}5,5,4/6,,2,2,1/3,,
{8}4,4,3/5,,7,7,6/8,,
{4}5/6,3/4,1/2,7/8,
{8}6,6,4,4,5,5,4/6,,
{8}3,3,5,5,4,4,3/5,,
{8}2,2,8,8,1,1,2/8,,
{8}7,7,1,1,8,8,1/7,,
{8}6,6,4,4,5,5,4/6,,
{8}3,3,5,5,4,4,3/5,,
{8}2,2,8,8,1,1,8/2-6[2:1],,
{4},,,8b,
{8}7,7,7,,5/6,,3,3,
{8}3/4,,2,,1,1,1/8,,
{8}2,2,2,,3/4,,6,6,
{8}5/6,,7,,8,8,1/8,,
{8}2,2,2,,3/4,,6,6,
{8}5/6,,7,,8,8,1/8,,
{8}7,7,7,,5/6,,3,3,
{8}3/4,,2,,1,1,1/8,,
{8}2,2,3h[4:1],,4,,5,5,
{8}6h[4:1],,5,,7,7,1/8,,
{8}7,7,6h[4:1],,5,,4,4,
{8}3h[4:1],,4,,2,2,1/8,,
{8}2,2,3h[4:1],,4,,5,5,
{8}6h[4:1],,5,,7,7,1/8,,
{8}7,7,6,,4/5,,4-1[2:1]/5-8[2:1],,,,,,,
E
EXPERT
(161.0){1},
{16}3h[16:3],,,5h[16:3],,,4,,,,4/5,,4/5,,,,
{16}6h[16:3],,,4h[16:3],,,5,,,,4/5,,4/5,,,,
{16}2h[16:3],,,4h[16:3],,,3,,,,3/4,,3/4,,,,
{16}7h[16:3],,,5h[16:3],,,6,,,,5,,4/5,,,,
{16}2h[16:3],,,3h[16:3],,,4,,,,4/5,,4/5,,,,
{16}7h[16:3],,,6h[16:3],,,5,,,,4/5,,4/5,,,,
{16}2h[16:3],,,3h[16:3],,,4,,,,5/7,,5/7,,,,
{16}6h[16:3],,,7h[16:3],,,8,,,,1,,1b,,,,
{16}3,4,,3,4,,3,4h[16:5],,,3,,3,,,,
{16}6,5,,6,5,,6,5h[16:5],,,6,,6,,,,
{16}3,4,,3,4,,3,4h[16:3],,,3,,3/4,,,,
{16}5,4,,5,4,,5,4h[16:3],,,5,,3/6,,,,
{1}4/3q5[2:1],
{1}5/6p4[2:1],
{2}2h[4:1]/4h[4:1],5h[4:1]/7h[4:1],
{4}3h[4:1]/6h[4:1],,4/5,1b/8b,
{8}3,3,5,5,4,4,7,7,
{8}3,3,2/4,,5/6,4/7,3/8,,
{8}6,6,4,4,5,5,2,2,
{8}6,6,5/7,,3/4,2/5,1/6,,
{8}2,2,5,5,4,4,7,7,
{8}3,3,3/4,,7/8,1/6,2/5,,
{8}6,6,4,4,7,7,5/7,,
{4}1/8-4[8:1],,2b/6b,4,
{8}2,2,5,5,3,3,7,7,
{8}5,5,4/6-3[8:1],,2,2,1/2,,
{8}7,7,4,4,6,6,2,2,
{8}4,4,5/3-8[8:1],,7,7,1/7,,
{8}2,2,5,5,4,4,7,7,
{8}2,2,1/8-4[8:1],,2,2,5/2<5[2:1],,
{4},,,2/7,
{16}3,4,,6,5,,3,4,,,2/5,,2/5,,,,
{16}3h[16:3],,,4h[16:3],,,2,,6h[16:3],,,5h[16:3],,,7,,
{16}3h[16:3],,,4h[16:3],,,2,,2/4,,,,4/5,,,,
{16}6h[16:3],,,5h[16:3],,,7,,3h[16:3],,,4h[16:3],,,2,,
{8}2/4,,3/5,3/5,,4/7,4/7,,
{16}6h[16:3],,,5,,,4/7,,4/7-4[8:1],,,,,,,,
{16}3h[16:3],,,4,,,2/5,,5/2-5[8:1],,,,,,,,
{8}7,7,5,,2,2,4,,
{16}2h[16:3],,,1h[16:3],,,3,,7h[16:3],,,8h[16:3],,,6,,
{16}2h[16:3],,,1h[16:3],,,3,,1/3,,,,4/5,,,,
{16}2h[16:3],,,3h[16:3],,,4,,7h[16:3],,,6h[16:3],,,5,,
{8}4/5,,2/4,2/4,,7/8,7/8,,
{4}1q6[4:1]/2^5[4:1],,,1/8,
{4}7^4[4:1]/8p3[4:1],,,1/8,
{8}3/4,,5/6,,1/8,1/8,1/8,,
{4}2h[2:1]/7^4[4:1],,,1b,
{4}7h[2:1]/2^5[4:1],,,8b,
{4}7,5/6,2,3/4,
{4}8,5/7,3/5,1b,
{8}7,7,4,4,5/7,,1b,,
{8}2,2,5,5,2/4,,8b,,
{8}7,7,5,5,4,4,2,2,
{4}2V41[8:3]/7V58[8:3],,,2b/7b,
{8}3/4,3,1/2,1,8,7,1b/6b,,
{8}5/6,6,7/8,8,1,2,3b/8b,,
{8}1/2,2,1/2,,5/7,7,5/7,,
{4}1-5[8:1],8-4[8:1],1,3b/6b,
{8}5/6,6,7/8,8,1,2,3b/8b,,
{8}3/4,3,1/2,1,8,7,1b/6b,,
{8}7/8,7,7/8,,2/4,2,2/4,,
{4}1-4[8:1]/8-5[8:1],,3/6,1b/8b,
{8}4/5,3,1/2,1/2,8,7,1b/6b,,
{8}4/5,6,7/8,7/8,1,2,3b/8b,,
{8}1/2,2,2/4,,5/6,6,6/8,,
{4}1-5[8:1],7-3[8:1],2,2b/8b,
{8}7-4[8:1],7,3-8[8:1],3,7,,1b/6b,,
{8}2-5[8:1],2,6-1[8:1],6,2,,3b/8b,,
{16}2,,2,,7,,7,,1,8,1,8,1,8,1,,
{4}2b/7b,,3/4-8[8:1],1b,
{8}2,2,8,8,3,3,4/3h[4:1],,
{8}6h[4:1],,5,,7/8,1/6,2/5,,
{8}8,8,1,1,7,7,5/6h[4:1],,
{8}3h[4:1],,4,,1/2,3/8,4/7,,
{8}6,6,4,4,7,7,8/7h[4:1],,
{8}2h[4:1],,1,,3/8,4/7,5/6,,
{8}7,7,3,3,2/4,,4-1[8:1]/5-8[8:1],,
{8},,2b/7b,,1/8,2/7,3b/6b,,
{8}3,3,7,7,2-5[8:1],,6,6,
{8}4/6,,2/4,,1/2,3/8,4/7,,
{8}6,6,2,2,7-4[8:1],,3,3,
{8}3/5,,5/7,,7/8,1/6,2/5,,
{8}2,2,6,6,3-8[8:1],,7,7,
{8}1/7,,3/4,,2/8,3/7,4/6<3[2:1],,
{4}3,,,2/7,
{16}3,4b,,6,5b,,1,8b,
E
MASTER
(161.0){4},,,1b,
{16}3,4,,2,4,,1-5[8:1],4,,,6,,6,,,,
{16}6,5,,7,5,,8-4[8:1],5,,,3,,3,,,,
{16}3,4,,2,4,,1-5[8:1],4,,,6,,6,,,,
{16}6,5,,7,5,,8,5,7,4,6,3,5,,3/6,,
{16}3,4,,2,4,,1-5[8:1],4,,,6,,8,,,,
{16}6,5,,7,5,,8-4[8:1],5,,,3,,1,,,,
{16}3,4,,2,4,,1-5[8:1],4,,,6,,8,,,,
{16}3,4,,6,5,,1h[4:1],8,,,{24}8,7,6,{16}2b/5b,,,,
{16}6,6,,4,4,,5,5,,3,4,2,4,,2/5,,
{16}3,3,,5,5,,4,4,,6,5,7,5,,4/7,,
{16}7,7,,1,1,,8,8,,2,1,2,1,,3/8,,
{16}2,2,,8,8,,1,1,,7,7/8,,7/8,,1/6,,
{16}5,5,,4,4,,6,4h[16:5]/7h[16:5],,,,,,,,,
{16}4,4,,5,5,,3,2h[16:5]/5h[16:5],,,,,,,,,
{16}4,5,4,5,3,6,3,6,2,7,2,7,1<2[8:3],8,1,8,
{4}1,,1w5[8:1],1b,
{8}1^4[8:1],8,1/7,6,4/7,{24}6,5,6,{8}5,3,
{8}2/1-5[8:1],8,1/7,6,5,4/6,3,4/7,
{8}8^5[8:1],1,2/8,3,2/5,{24}3,4,3,{8}4,6,
{8}7/8-4[8:1],1,2/8,3,3h[16:1]/5h[16:1],2h[16:1]/6h[16:1],1b/7b,,
{8}1^4[8:1],8,1/7,6,4/7,{24}6,5,6,{8}5,3,
{8}2/1-5[8:1],8,1/7,6,5,4/6,3,4/7,
{8}8^5[8:1],1,2/8,3,2/5,{24}3,4,3,{8}4,2/5,
{4}1^4[8:1]*^6[8:1],1-5[8:1],1,2b/6b,
{8}8^5[8:1],1,2/8,1,2/5,{24}3,4,3,{8}4,6,
{8}7/8-4[8:1],1,2/8,1,3/5,4/6,2/5,3/7,
{8}1^4[8:1],8,1/7,8,4/7,{24}6,5,6,{8}5,3,
{8}2/1-5[8:1],8,1/7,8,4h[16:1]/6h[16:1],3h[16:1]/7h[16:1],2b/8b,,
{8}8^5[8:1],1,2/8,1,2/5,{24}3,4,3,{8}4,6,
{8}7/8-4[8:1],1,2/8,1,3/5,4/6,2/5,3/7,
{8}7/8,7/8,5/6,5/6,3/4,3/4,1/2,1/2,
{16}3,3/4,,6,5/6,,8/1s5[8:1],1/8,,,,,,,,,
{16}6/1^4[8:1],,,7,,,8,,1/8^5[8:1],,,2,,,3,,
{16}4/3^8[8:1],,,5,,,6,,5/6^1[8:1],,,4,,,3,,
{16}8/3-8[8:1],,,7,,,6,,4/6-1[8:1],,,3,,,2,,
{8}6/2^5[8:1],,,,1/8,2/7,3b/6b,,
{16}7/4-1[8:1],,,5,4,,6,,6,,1/2,,3/8,,,,
{16}2/5-8[8:1],,,4,5,,3,,3,,7/8,,1/6,,,,
{16}3h[16:3],,,4h[16:3],,,5,,6h[16:3],,,7h[16:3],,,8,,
{16}3/8-4[8:1],,,2,,,1,,8/1-5[8:1],,,7,,,6,,
{16}5/6-1[8:1],,,4,,,3,,7/3-8[8:1],,,6,,,5,,
{16}1/5-8[8:1],,,2,,,3,,5/3-8[8:1],,,6,,,7,,
{8}3/7^4[8:1],,,,1/8,2/7,3b/6b,,
{16}8h[8:3],,,5,,,3,,3h[4:1],,1,,1,,,,
{16}1/8-5[8:1],,,2,,,3,,5/3^8[8:1],,,6,,,7,,
{16}7,,1,,1,,8,,8,1,7,2,6,3,5<4[8:5],4,
{4}5h[2:1],,,8b,
{4}6,5/6,7-4[8:1],1b/7b,
{4}1-3[8:1],1/8-6[8:1],8/2-4[8:1],2/7-5[8:1],
{4}7/4-1[8:1],4/5-8[8:1],5/1w5[8:1],1b,
{16}6,5,6,5,6h[8:1],,3,4,3,4,3,,2b/5b,,,,
{16}3,4,3,4,3h[8:1],,6,5,6,5,6,,4b/7b,,,,
{16}6,5,6,5,6h[8:1],,3,4,3,4,3h[8:1],,5,4,5,4,
{16}5,4,6,3,7,2,8,1,1-4[8:1]/8-5[8:1],,,,1b/8b,,,,
{16}3,4,3,4,3,4,2,1,2,1,2,1,3b/8b,,,,
{16}6,5,6,5,6,5,7,8,7,8,7,8,1b/6b,,,,
{16}3,4,3,4,3,4,2,1,2,1,2,1,3,4,2,5,
{16}3,4,2,5,1,6,8,7,7-3[8:1]/8-4[8:1],,,,7b/8b,,,,
{16}3,4,3,4,2,1,3,8,4,7,5,6,4b/7b,,,,
{16}6,5,6,5,7,8,6,1,5,2,4,3,2b/5b,,,,
{16}2,1,2,1,3,4,2,5,1,6,8,7,8,7,8,7,
{16}5,6,4,7,3,8,2,1,{24}2,3,4,8,7,6,{16}2b/5b,,,,
{16}3,4,2,5,1,6,1,8,2,7,3,6,5,6,4,7,
{16}3,8,1,8,2,7,3,6,3,4,2,5,1,6,1,8,
{16}2,7,3,6,5,6,4,7,3,8,1,8,2,7,3,6,
{16}3,4,3,4,2,1,2,1,{}2,3,4,5,6,7,8,1,{16}2b/6b,,,,
{16}1,7,2,6,3,5,3,1,4,8,5,7,2,8,3,7,
{16}4,6,8,6,1,5,2,4,2,8,3,7,4,6,3,7,
{16}1,8,1,8,2,7,2,7,{32}2,3,4,5,6,7,8,1,2,3,4,5,6,7,8,1,
{4}2h[4:1]/6h[4:1],,3-8[8:1]/7-4[8:1],3b/7b,
{8}1-5[8:1],8-6[8:1],1,8,2,{24}2,3,4,{16}5/6,,7,8,
{8}7-5[8:1],2,7-3[8:1],4,7,2,1b/5b,3,
{8}8-4[8:1],1-3[8:1],8,1,7,{24}7,6,5,{16}3/4,,2,1,
{8}2-4[8:1],7,2-6[8:1],5,2,7,4b/8b,6,
{8}2-4[8:1],1-5[8:1],2,1,2,{24}2,3,4,{16}5/6,,7,8,
{8}7-5[8:1],2,7-3[8:1],4,7,2,1b/5b,7,
{8}8-4[8:1],1-3[8:1],8-6[8:1],1,8,{24}1,2,3,{8}4/7,8,
{641}8-3[8:1]*-5[8:1],,,,,,,,,,,,,,,,,,,,{639}7,,,,,,,,,,,,,,,,,,,,6,,,,,,,,,,,,,,,,,,,,{641}5,,,,,,,,,,,,,,,,,,,,4,,,,,,,,,,,,,,,,,,,,{639}3,,,,,,,,,,,,,,,,,,,,2,,,,,,,,,,,,,,,,,,,,{641}1,,,,,,,,,,,,,,,,,,,,{8}8b,,4-1[8:1]/5-8[8:1],3/6,4b/5b,,
{8}1-7[8:1],6-2[8:1],1,6,1,{24}1,2,3,{16}4/6,,7,8,
{8}7^2[8:1],3,7-3[8:1],4,7,2,1b/5b,7,
{8}8-2[8:1],3-7[8:1],8,3,8,{24}8,7,6,{16}3/5,,2,1,
{8}2^7[8:1],6,2-6[8:1],5,2,7,4b/8b,2,
{8}1-5[8:1],6-8[8:1],1,6,2,{24}2,3,4,{16}5/7,,7,8,
{8}7^2[8:1],3,7-3[8:1],4,7,2,1b/5b,7,
{8}8-5[8:1],1-4[8:1],8-4[8:1],1-5[8:1],8^5[8:1],1,8,1,
{16}6,5b/7b,,3,2b/4b,,1/8,2b/7b,
E
Re:MASTER
最終更新:2026年10月04日 08:24