EASY
BASIC
(180.0){1},,,,
{2}3,3,
{2}4,4,
{2}5,5,
{2}6,6,
{4}7,7,7,,
{4}6,6,6,,
{4}5,5,5,,
{4}4,4,4/5,,
{4}3,3,3,,
{4}2,2,2,,
{4}1,1,1,,
{4}8,1,{2}8b,{1},
{1}7h[1:1],,
{1}6h[1:1],,
{1}5h[1:1],,
{1}4h[1:1],,
{4}3,3,3,,
{4}2,2,2,,
{4}1,1,1,,
{4}8,8,8,,
{4}1,1,1,,
{4}1/8,1/8,1/8,,
{1}2h[1:3]/7h[1:3],,,,
{1}1h[1:3]/8h[1:3],,,,
{4}7,7,7,,
{4}6,6,6,,
{4}5,5,5,,
{4}4,4,4/5,,
{4}3,3,3,,
{4}2,2,2,,
{4}1,1,1,,
{4}8,8,1/8,,
{2}2,2,
{4}3,3,3/4,,
{2}4,4,
{4}5,5,4/5,,
{2}6,6,
{4}7,7,7/8,,
{2}8,8,
{4}1,1,{2}1/8,{1},
{1}8-4[4:3],,
{1}1-5[4:3],,
{1}8-3[4:3],,
{1}1-6[4:3],,
{4}8,8,8,,
{4}7,7,7,,
{4}6,6,6,,
{4}5,5,5,,
{4}4,4,4,,
{1}3b,
{1}1h[1:1]/2h[1:1],,
{1}3h[1:1]/4h[1:1],,
{1}5h[1:1]/6h[1:1],,
{1}7h[1:1]/8h[1:1],,
{1}2-6[4:3],,
{1}7-3[4:3],,
{1}2-5[4:3],,
{1}7-4[4:3],,
{4}2,2,2,,
{4}3,3,3,,
{4}4,4,4,,
{4}4/5,4/5,4/5,,
{4}6,6,6,,
{4}7,7,7,,
{4}8,8,8,,
{4}1/8,1/8,1/8,,
{4}7,7,6,6,
{4}5,5,4/5,,
{4}4,4,3,3,
{4}2,2,1/2,,
{4}7,7,8,8,
{4}1/2,1/2,1/2,,
{4}2,2,1,1,
{4}7/8,7/8,7/8,,
{1}1b/8b,
E
ADVANCED
(180.0){1},,,,
{4}6,6,5/6,,
{4}3,3,3/4,,
{4}5,5,4,4,
{4}5,4,3/6,,
{4}2,1/2,7,7/8,
{4}1,8,1/8,,
{4}6,5/6,3,3/4,
{4}5,4,4/5,3/6,
{4}2,1/2,7,7/8,
{4}1/8,1/8,1b/8b,,
{4}6,5/6,3,3/4,
{4}4/5,4/5w1[2:1],,,{1},
{2}6h[2:1],5,
{2}3h[2:1],4,
{2}6h[2:1],5,
{2}3h[2:1],4,
{2}7h[2:1],8,
{2}2h[2:1],1,
{2}8h[2:1],1,
{2}2/7,3/6,
{1}4h[2:1]/5h[2:1],
{4}3,3,3/4,,
{4}6,6,5/6,,
{4}3,3,3/4,,
{4}5,5,4,4,
{2}4/5,4/5,
{1}4-7[1:1]/5-2[1:1],,,
{2},4/5,
{1}4qq1[4:7]/5pp8[4:7],,,
{4}1/8,1/8,2b/7b,,
{4}3h[4:1],4,6h[4:1],5,
{4}3h[4:1],4,2/5,,
{4}7/8,7/8,1/2,1-6[2:1]/2-5[2:1],{1},
{4}6h[4:1],5,3h[4:1],4,
{4}6h[4:1],5,4/7,,
{4}1/2,1/2,7/8,7-4[2:1]/8-3[2:1],{1},
{4}5b,5b,5b,5b,
{4}5b,5b,5b,5b,
{4}4/5,3/6,2b/7b,,
{1}1-4[2:1]/8-5[2:1],
{4}3,3/4,6,5/6,
{4}4/5,4/5,3/6,3/6,
{4}7,7/8,2,1/2,
{4}1/8,2/7,3/6,4/5,{1},
{2}7h[2:1],8,
{2}2h[2:1],1,
{2}7h[2:1],8,
{2}2h[2:1],1,
{2}6h[2:1],5,
{2}3h[2:1],4,
{2}5h[2:1],4,
{2}3/6,2/7,
{1}1/8h[1:3],,,
{1}7h[1:1],
{1}6h[1:1],
{1}5b,
{4}1,1,2,2,
{4}3,3,4,4,
{4}5,5,6,6,
{4}7,8,1/7,,
{4}8,8,7,7,
{4}6,6,5,5,
{4}4,4,3,3,
{4}1/2,1/2,3/8,,
{4}1,2,3,4,
{4}5,6,7,8,
{4}1/7,1/7,2/8,2/8,
{4}3/4,5/6,4/7,,
{4}8,7,6,5,
{4}4,3,2,1,
{4}2/8,2/8,1/7,1/7,
{4}5/6,3/4,2b/7b,,
{4}3h[4:1],4,6h[4:1],5,
{4}3h[4:1],4,2/5,,
{4}7/8,7/8,1/2,1-6[2:1]/2-5[2:1],{1},
{4}6h[4:1],5,3h[4:1],4,
{4}6h[4:1],5,4/7,,
{4}1/2,1/2,7/8,7-4[2:1]/8-3[2:1],{1},
{4}2h[4:1],1,7h[4:1],8,
{4}1/6,2/5,3/4,,
{4}5/6,5/6,3/4,3^8[2:1]/4^7[2:1],{1},
{4}7h[4:1],8,2h[4:1],1,
{4}3/8,4/7,5/6,,
{4}3/4,3/4,5/6,6/5w1[2:1],{1},
{1}1b,
E
EXPERT
(180.0){4}5,4,,4,
{4},4,,4,
{4},5,,5,
{4}6,5,4,3,
{4}3,3/4,,3/4,
{4}5,5/6,,5/6,
{4}4,2/4,5,5/7,
{4}7/8,1/2,1/8,2b/7b,
{4}5/6,7/8,5/6,3/4,
{4}1/2,5q2[4:1]/6^1[4:1],,,
{4}3/4,1/2,3/4,5/6,
{8}7/8,,3/4,,7/8,7/8,1/6,,
{8}4/5,,1/2,,4/5,,7/8,7b/8b,
{8},1q6[8:3]/2>6[8:3],1/2,,,,,,
{4}4/5,2-6[4:1]/7-3[4:1],,,
{4}1/8,5/4<3[2:1]*q3[2:1],,,
{4},2h[4:1],3h[4:1],4,
{1}5h[2:1]/6-1[4:1],
{1}4h[2:1]/3-8[4:1],
{1}5h[2:1]/6-1[4:1],
{1}4h[2:1]/3-8[4:1],
{1}5h[2:1]/6^1[8:3],
{1}4h[2:1]/3^8[8:3],
{1}1v4[8:3]/7v4[8:3],
{1}2-6[8:3]/3-5[8:3],
{8}6,,5,,3/4,,3,3,
{4}4,6h[4:1],5,3h[4:1],
{8}4,,5,,6,,7,7,
{4}8,2h[4:1],1,7h[4:1],
{4}8,2,3,4-2[8:1]/5-7[8:1],
{4},1/8,2/7,3/6,
{1}4/5<4[4:7],,,
{2},4h[4:1]/5h[4:1],
{4}2-7[8:1],3-6[8:1],2-7[8:1],3-6[8:1],
{4}2-7[8:1],3-6[8:1],2-7[8:1],3-6[8:1],
{4}2-7[8:1],3-6[8:1],2-7[8:1],3w7[8:3],
{4},,,3/4,
{2}3-1[8:1]/4-8[8:1],3-7[8:1]/4-6[8:1],
{1}3qq8[2:1]/4pp7[2:1],
{4}1/2,5/6,7/8,3-8[16:3]/4-7[16:3],
{4},,1b/6b,5/6,
{2}5-1[8:1]/6-8[8:1],5-3[8:1]/6-2[8:1],
{1}5qq2[2:1]/6pp1[2:1],
{4}7/8,3/4,1/2,5-2[16:3]/6-1[16:3],
{2},3b/8b,
{4}3/4,1/2,3/5b,3/5b,
{4}4/5b,5b/3^8[4:1],,,
{4}7/8,5-1[8:1]/6-1[8:1],,,
{4}8/1h[4:3],7,6,5,
{1}1V35[8:3]/5V71[8:3],
{2}8-4[8:1],1-3[8:1]/7-5[8:1],
{8}4,5,3,6,3,6,4,5,
{4}4^1[4:1]/5^8[4:1],,,1b/8b,
{4},7h[4:1],6h[4:1],5,
{1}3h[2:1]/4^7[8:3],
{1}6h[2:1]/5^2[8:3],
{1}3h[2:1]/4^7[8:3],
{1}6h[2:1]/5z1[2:1],
{1}2h[2:1]/1^6[8:3],
{1}7h[2:1]/8^3[8:3],
{1}2h[2:1]/1^6[8:3],
{1}7h[2:1]/8^3[8:3],
{6}1h[2:1]/8h[2:1],,,,,{995}8,,,,,,,,,,,,,,,,,,,,,,,,,,,,,,,,,,,,,,,,,,,,,,,,,,,,,,,,,,,,,,,,,,,,,,,,,,,,,,,,,,,{12}8,
{12}8,{995}1,,,,,,,,,,,,,,,,,,,,,,,,,,,,,,,,,,,,,,,,,,,,,,,,,,,,,,,,,,,,,,,,,,,,,,,,,,,,,,,,,,,{12}1,1,8,,,,,,,,
{8},,,,,,3b,3b,
{4}4b,6b,5b/6b,4b/5b,
{4}4b/5b,,,8b/1b-5[8:1],
{4},2/7,3/6,4/5,
{8}3/4,3/4,3/4,3/4,3/4,3/4,3/4,3/4,
{8},5/6,5/6,5/6,5/6,5/6,5/6,5/6,
{8},1/2,1/2,1/2,1/2,1/2,1/2,1/2,
{8},1/8,1/8,1/8,1/8,1/8,1/8,,
{8}7/8,7/8,7/8,7/8,7/8,7/8,7/8,7/8,
{8},1/2,1/2,1/2,1/2,1/2,1/2,1/2,
{8},5/6,5/6,5/6,5/6,5/6,5/6,5/6,
{8},4/5,4/5,4/5,4/5,4/5,4/5,,
{8}2/4,2/4,2/4,2/4,,5/7,,2/4,
{8},5/7,,2/4,2/4,2/4,2/4,,
{8}5/7,5/7,5/7,5/7,,2/4,,5/7,
{8},2/4,,5/7,5/7,5/7,5/7,,
{8}1/3,1/3,1/3,1/3,,6/8,,1/3,
{8},6/8,,1/3,1/3,1/3,1/3,,
{8}1/8,1/8,1/8,1/8,1/8,1/8,1/8,1-4[4:1]/8-5[4:1],
{4}1/8,,,5/6,
{2}5-3[8:1]/6-2[8:1],5-1[8:1]/6-8[8:1],
{1}5qq2[2:1]/6pp1[2:1],
{4}3/4,7/8,5/6,1-6[16:3]/2-5[16:3],
{4},,4b/7b,3/4,
{2}3-1[8:1]/4-8[8:1],3-7[8:1]/4-6[8:1],
{1}3qq8[2:1]/4pp7[2:1],
{4}5/6,1/2,3/4,7-4[16:3]/8-3[16:3],
{4},,2b/5b,6/7,
{2}6-4[8:1]/7-3[8:1],6-2[8:1]/7-1[8:1],
{1}6qq3[2:1]/7pp2[2:1],
{4}3/4,1/6,5/6,3V52[4:1]/8V61[4:1],
{4},,3b/8b,2/3,
{2}2-6[8:1]/3-5[8:1],2-8[8:1]/3-7[8:1],
{1}2qq7[2:1]/3pp6[2:1],
{4}5/6,3/8,3/4,1V38[4:1]/6V47[4:1],
{4},,1/8,2b/7b,
{1}1b/8b,
E
MASTER
(180.0){1},,,,
{16}4,5,4,5,4,5,4,5,4,5,4,5,4,5,4,5,
{16}3,6,3,6,3,6,3,6,3,6,3,6,3,6,3,6,
{16}2b,7,2,7,2b,7,2,7,1b,8,1,8,1b,8,1,8,
{32}1b,2,3,4,5,6,7,8,1b,2,3,4,5,6,7,8,1b,2,3,4,5,6,7,8,1b,2,3,4,5,6,7,8,
{8}1,1,2/8,8,8,1/7h[4:1],,5h[4:1],
{8},4,3,2,1-5[8:1],8,1,,
{8}8,8,1/7,1,1,8/2h[4:1],,4h[4:1],
{8},5,6,7,1-5[8:1]/8-4[8:1],1/8,,,
{8}1,1,2/8,8,8,1/7h[4:1],,5h[4:1],
{8},4,3,2,2V48[8:1]/7V51[8:1],2/7,,,
{8}2,7,1,8,2,7,3,6,
{16}4,5,4,5,3,6,3,6,2,7,2,7,1w5[8:1],,,,
{4}1b,8,8,8,
{8}2,8,2^5[8:1],1,,8,8,,
{8}7,1,7^4[8:1],8,,1,1,,
{8}2,8,2q6[8:1],1,,8,8,,
{8}7,1,7p3[8:1],8,,1,1,,
{8}2,8,2q7[16:3],1,,8,8,,
{8}7,1,7p2[16:3],8,,1,1,,
{8}2,8,2V47[16:3],1,,8,8,,
{8}8,1,7V52[16:3],8,,1,1,,
{4}2v5[8:1]/8v5[8:1],2/8,3-7[8:1]/6-4[8:1],3/6,
{4}1v4[8:1]/7v4[8:1],1/7,3-5[8:1]/6-2[8:1],3/6,
{4}4v1[8:1]*v7[8:1],4,2-6[8:1]/5-3[8:1],2/5,
{4}5v2[8:1]*v8[8:1],5,4-6[8:1]/7-3[8:1],4/7,
{1}2v4[2:1]*^7[2:1],
{4}4b,7^2[4:1],2v3[4:1],3^6[1:3],
{1}6,,,
{2},4h[4:1]/5h[4:1],
{16}1,8,1,8,1,8,1,8,2,7,2,7,2,7,2,7,
{16}3,6,3,6,3,6,3,6,4,5,4,5,4,5,4,5,
{16}4,4,4,4,4,4,4,4,4,4,4,4,4,4,4,4,
{16}4,4,4,4,4,4,4,4,4b,,,,4>6[4:1],,,,
{8}5h[4:1],,,5q3[16:3],,4,4,4qq8[16:5],
{8},5,6,7,,,1/6^1[8:1],6,
{8}3^8[8:1],3,5q2[8:1],5,4p7[8:1],4,5<4[2:1]*q4[2:1],5,
{4}5,,,5<3[4:1],
{8}4h[4:1],,,4p6[16:3],,5,5,5pp1[16:5],
{8},4,3,2,,,8/3^8[8:1],3,
{8}6^1[8:1],6,4p7[8:1],4,5q2[8:1],5,4>5[2:1]*p5[2:1],4,
{4}4,,,2b/7b,
{8}5/7,6,5/7,6,2/4,3,2/4,3,
{8}1/3,2,1/3,2,7/1-5[8:1],8,1/7,,
{8}4/6,5,3/5w1[8:1],4,5b,,,,
{8}8,3,1,6,2-6[8:1]/7-3[8:1],,,,
{8}2/4,3,2/4,3,5/7,6,5/7,6,
{8}6/8,7,6/8,7,2/8-4[8:1],1,2/8,,
{8}5/6,4/7,3/8,1/2,7/8,1/6,2/5,3/4,
{16}5,4,5,4,6,3,6,3,7z3[4:1],2,7,2,7,,,,
{4}1b,8,8,8,
{8}3,5,3^8[8:1],4,,5,5,,
{8}6,4,6^1[8:1],5,,4,4,,
{8}3,5,3p7[8:1],4,,5,5,,
{8}6,4,6q2[8:1],5,,4,4,,
{8}3,5,3p6[16:3],4,,5,5,,
{8}6,4,6q3[16:3],5,,4,4,,
{8}3,5,3V16[16:3],4,,5,5,,
{8}6,4,6V83[16:3],5,,4,4,,
{1}3bqq5[4:7]/6bpp4[4:7],,
{8},,,,,,4,5,
{4}4,3/5,2/6,7/1<2[4:3],
{16}1/8h[16:15],,,,,,,,,,,,,,,5b,
{4},1/8,2/7,3/6,
{16}4,5,4,5,4,5,3,6,3,6,3,6,3,6,3b,,
{16}3b,,4/5,,4,5,4b,,6,5,6,5,6,5,6,5,
{16}7,4,7,4,7,4,7,4,7,4,6h[4:1],,,,5b,,
{16}6,5,6,5,6b,,3,4,3,4,2,5,2,5,1,6,
{16}1,6,1,6,2,5,2,5,2,5,2,5,3b,,2b/4b,,
{16}2b/4b,,2,5,2,5,2,5,2b,,7,8,7,8,7,8,
{16}7,8,6,1,6z2[4:1],1,6,1,6b,,,,,,1,8,
{16}2,7,3,6,4,5v3[8:1],4,5,4h[4:1],5b,,,,,,,
{8}1-6[8:1],6,1-4[8:1],4,1-6[8:1],6,1-4[8:1],4,
{8}1-6[8:1],6,1-4[8:1],4,1-5[8:1]*-6[8:1],6,1b,,
{8}8-3[8:1],3,8-5[8:1],5,8-3[8:1],3,8-5[8:1],5,
{8}8-3[8:1],3,8-5[8:1],5,8-3[8:1]*-4[8:1],3,8b,,
{8}1^6[8:1],6,1^4[8:1],4,1^6[8:1],6,1^4[8:1],4,
{8}1^6[8:1],6,1^4[8:1],4,1w5[8:1],6,1b,,
{8}8-4[8:1],8,8/1-5[8:1],1,1/7-4[8:1],7,2/7,2,
{16}1b,8,1,8,2b,7,2,7,3b,6,3,6,4>6[4:1],,,,
{8}5h[4:1],,,5q3[16:3],,4,4,4qq8[16:5],
{8},5,6,7,,,1/6^1[8:1],6,
{8}3^8[8:1],3,5q2[8:1],5,4p7[8:1],4,5<4[2:1]*q4[2:1],5,
{4}5,,,5<3[4:1],
{8}4h[4:1],,,4p6[16:3],,5,5,5pp1[16:5],
{8},4,3,2,,,8/3^8[8:1],3,
{8}6^1[8:1],6,4p7[8:1],4,5q2[8:1],5,4>5[2:1]*p5[2:1],4,
{4}4,,,7bp2[16:3]/8bp3[16:3],
{8}7b/8b,,,1/2bq6[8:1],,8,8,7bp4[16:5],
{8},1,2,3,,,3,3,
{8}2/4,3,5/7,6,1/3,2,6/8,7,
{4}4qq1[16:5]/5pp8[16:5],,,1bq6[16:3]/2bq7[16:3],
{8}1b/2b,,,8/7bp3[8:1],,1,1,2bq5[16:5],
{8},8,7,6,,,6,6,
{8}5/7,6,2/4,3,6/8,7,1/3,2,
{8}4/5,{24}4,5,4,{8}5,4,5,,1/8,,
{1}2b/7b,
E
Re:MASTER
- MASTER譜面の書式を一部修正しました。 -- けもがみ (2026-05-27 09:00:16)
最終更新:2026年10月04日 08:24