| アーティスト |
ARM+夕野ヨシミ(IOSYS)feat. miko |
EASY
BASIC
(200.0){1}1,
{1}1,
{1}8,
{1}8,
{1}1,
{1}1,
{1}8,
{1}8,
{1}1,
{1}8,
{1}7,
{1}6,
{1}5,
{1}4,
{1}3h[2:1],
{2}2,2b,
{1}2,
{1}2,
{2}1,1,
{1}1/8,
{1}7,
{1}7,
{2}8,8,
{1}1/8,
{1}1,
{1}1/2,
{2}8,8,
{1}7/8,
{1}1/2,
{1}7/8,
{2}1,8,
{2}1/8,1/8,
{1}2-7[4:3],,
{1}6-3[4:3],,
{2}2,2,
{1}2,
{2}1,1,
{1}1,
{1}1-5[4:3],,
{1}6,
{1}7,
{1}7-3[4:3],,
{1}2,
{1}1,
{2}1,1,
{2}8,8,
{1}1h[2:3],,
{2}8,8,
{2}1,1,
{1}8h[2:3],,
{2}1,1,
{2}2,2,
{2}1,1,
{1}1h[2:1],
{2}8,8,
{2}7,7,
{2}8,8,
{1}8h[2:1],
{2}1,1,
{2}2,2,
{2}3,4,
{2}5,4/5,
{2}5,5,
{2}6,6,
{2}7,8,
{2}1,1/8,
{1}8h[2:1],
{1}7h[2:1],
{2}6,5,
{4}4,4,4,,
{1}4h[2:1],
{1}3h[2:1],
{2}2,1,
{4}8,8,8,,
{4}1,1,1,,
{4}8,8,8,,
{2}1,8,
{4}1,1,1,,
{4}8,8,8,,
{4}1,1,1,,
{2}8,1,
{4}8,8,8,,
{1}1b/8b,
E
ADVANCED
(200.0){1}1-4[8:3],
{1}8-5[8:3],
{1}2-5[8:3],
{1}7-4[8:3],
{1}1-4[2:1],
{1}8-5[2:1],
{1}2-5[8:3],
{1}7-4[8:3],
{4}1,1,1,,
{4}8,8,8,,
{4}2,2,2,,
{4}7,7,7,,
{4}1,2,3,,
{4}8,7,6,,
{4}4/5,3/6,2/7,1/8,
{1}1b/8b,
{4}1,2,3,4,
{4}5,6,7,8,
{4}8,8,6,6,
{2}4,2b,
{4}8,7,6,5,
{4}4,3,2,1,
{4}8,8,1,1,
{2}7/8,1/2,
{4}2,2,2,2/4,
{4}7,7,7,5/7,
{4}3,5,6,4,
{2}4/5,3/6,
{4}2,4,7,5,
{4}1,4,8,5,
{4}1/8,1/8,1/8,1/8,
{1}1h[2:1]/8h[2:1],
{1}2q5[4:3],,
{1}7p4[4:3],,
{4}1,1,1,1,
{4}3,3,3,3,
{4}5,5,5,5,
{4}7,7,7,7,
{1}1-5[4:3],,
{1}6,
{1}7,
{1}7-3[4:3],,
{1}2,
{1}1,
{4}1,1,5,5,
{4}3,3,7,7,
{2}3/4,5/6,
{4}3/6,2/7,1b/8b,,
{4}8,8,4,4,
{4}6,6,2,2,
{2}1/2,7/8,
{1}1^4[2:1]/8^5[2:1],
{4}2,2,7,7,
{4}1/8,1/8,1/8,,
{2}1/8,2/7,
{4}1/2,1/2,1/2,,
{4}6,6,3,3,
{4}4/5,4/5,4/5,,
{2}3/6,4/5,
{4}5/6,5/6,3/4,3/4,
{4}1,1,2,3,
{4}8,8,7,6,
{4}3,4,5,5,
{4}5/6,5/6,5/6,,
{4}6,6,7,8,
{4}3,3,2,1,
{4}7,8,1,1,
{4}1/2,1/2,1b/2b,,
{1}8<1[4:3],,
{1}1>8[4:3],,
{1}1-5[8:3],
{1}8-4[8:3],
{2}1/5,3/7,
{4}1/5,2/6,3/7,4b/8b,
{4}3/4,3/4,3/4,3/4,
{4}5/6,5/6,5/6,5/6,
{2}3/5,4/6,
{4}3/4,4/5,5/6,,
{4}1/2,1/2,1/2,1/2,
{4}7/8,7/8,7/8,7/8,
{2}1/2,7/8,
{4}1/8,2/7,3/6,4/5,
{1}1b/8b,
E
EXPERT
(200.0){4}5,5,5/6,,
{8}4,,4,,3,3/4,,,
{4}4,4,3/4,,
{8}5,,5,,6,5,5/6,,
{4}4,4,3/4,,
{8}5,,5,,6,5/6,,,
{4}5,5,5/6,,
{8}4,,4,,3,4,3/4,,
{8}7,,5,,6,5/6,,,
{8}2,,4,,3,3/4,,,
{8}6,,8,,7,6/7,,,
{8}3,,1,,2,3,2/3,,
{8}7,,8,,7,7/8,,,
{8}2,,1,,2,1/2,,,
{4}3h[4:1],4h[4:1],5h[4:1],6h[4:1],
{4}7h[4:1],8h[4:1],1-5[8:1],,
{4}1/2,7/8,1/2,7/8,
{4}1/2,7/8,1/2,7/8,
{4}2/7,3/8,2/7,1/6,
{2}2h[4:1]/7h[4:1],2b/7b,
{4}4/5,5/6,4/5,3/4,
{4}4/5,5/6,4/5,3/4,
{4}1/2,7/8,1/2,7/8,
{2}2h[4:1]/8h[4:1],1h[4:1]/7h[4:1],
{4}1/8,7/8,1/8,1/2,
{4}1/8,7/8,1/8,1/2,
{8}4/5,4/5,4/5,,4/6,,3/5,,
{2}4h[4:1]/5h[4:1],2h[4:1]/7h[4:1],
{4}4/5,1/2,4/5,7/8,
{4}4/5,2/8,1/7,2/8,
{8}3/4,,5/6,,4/5,4/5,4/5,,
{4}2/7,3/6,1b/8b,,
{4}3h[4:1],2h[4:1],1h[4:1],8h[4:1],
{16}7h[4:1],,,,6,,,,5/6,,,5/6,,,5/6,,
{4}6h[4:1],7h[4:1],8h[4:1],1h[4:1],
{4}2h[4:1],3,3/4,1b/6b,
{4}7h[4:1],6h[4:1],5h[4:1],4h[4:1],
{8}2h[8:3],,,4h[8:3],,,5,,
{4}7h[4:1],8h[4:1],1h[4:1],2h[4:1],
{8}3h[8:3],,,1h[8:3],,,8b,,
{1}1-5[4:3],,
{1}6,
{1}7,
{1}7-3[4:3],,
{1}2,
{1}1,
{4}1/2,7/8,1/2,7/8,
{4}1/2,7/8,1/2,7/8,
{4}5h[4:1],4h[4:1],3h[4:1],4h[4:1],
{4}5h[4:1],6^3[4:1],,,
{4}1/2,5/6,1/2,5/6,
{4}7/8,3/4,7/8,3/4,
{2}1-5[8:1]/2-4[8:1],7-5[8:1]/8-4[8:1],
{1}1b/8b,
{4}5/6,3/4,4/6,3/5,
{4}4/7,2/5,3/8,1/6,
{4}8h[4:1],2h[4:1],4h[4:1],6h[4:1],
{4}8h[4:1],2^7[4:1],,,
{4}7/8,1/6,2/5,3/4,
{4}1/2,3/8,4/7,5/6,
{2}7-4[8:1]/8-4[8:1],1-5[8:1]/2-5[8:1],
{1}3b/6b,
{4}4/6,5/8,4/6,3/4,
{4}4/6,5/8,4/6,3/4,
{4}5/6,4/5,3/4,4/5,
{4}5/6,4/5,2/7,,
{4}3/5,1/4,3/5,5/6,
{4}3/5,1/4,3/5,5/6,
{4}2/7,5/8,3/6,1/4,
{1}2h[2:1]/7h[2:1],
{8}7/8,,1/6,,3/4,3/4,,1/2,
{8},3/8,3/8,,5/6,5/6,,,
{8}1/2,,3/8,,5/6,5/6,,7/8,
{8},1/6,1/6,,3/4,3/4,3/4,,
{8}1/2,,3/8,,5/6,5/6,,7/8,
{8},1/6,1/6,,3/4,3/4,,,
{8}7/8,,1/6,,3/4,3/4,,1/2,
{8},3/8,3/8,,5/6,5/6,5/6,,
{8}1/2,,6-4[8:1]/7-4[8:1],,,,,7/8,
{8},2/3,2-5[8:1]/3-5[8:1],,,,,,
{8}3/4,,6-1[8:1]/7-1[8:1],,,,,5/6,
{8},2/3,2-8[8:1]/3-8[8:1],,,,,,
{8}3/4,,1-7[8:1]/2-7[8:1],,,,,3/4,
{8},5/6,5-3[8:1]/6-3[8:1],,,,,,
{4}1/2,5/6,7/8,3/4,
{4}5/6,3/4,4-2[8:1]/5-7[8:1],,
{1}1b/8b,
E
MASTER
(200){8}
78,,1-5[8:1],8,7,6,,56,
,45,45,,67,78,,,
12,,8-4[8:1],1,2,3,,34,
,45,45,,{16}3,4,5,6,2b/7b,,,,
{8}
56,,4-8[8:1],5,6,7,,78,
,45,45,,67,78,,,
34,,5-1[8:1],4,3,2,,12,
,45,45,,2-7[16:1]/3-6[16:1],,23,,
8,4,6,2,5,3,7,1^4[4:1],
,4^7[4:1],,7^2[4:1],,2-6[8:1],,,
7,3,5,1,6,2,4,8^5[4:1],
,5^2[4:1],,2^7[4:1],,7-3[8:1],,,
2,4,1,5,8,6,7,6^3[4:1],
,3^8[4:1],,8^5[4:1],,5-1[8:1],,,
{4}2-6[8:1],2/8-4[8:1],8/3-7[8:1],3/5-1[8:1],
5/4-8[8:1],4/7-3[8:1],7/1-4[8:1],1b,
{8}
57,6,6,6,24,3,3,3,45,6,6,6,45,3,3,3,
21,2,28,2,27,2,26,2,{4}2q7[8:1],2b,6q3[8:1],6b,
{2}4-8[16:1]/1h[4:1],5-1[16:1]/8h[4:1],1h[4:1]/3-8[16:1],8h[4:1]/6-1[16:1],
{16}7,8,7,,2,1,2,,7,8,7,,2,1,2,,{2}1^4[16:1]/8^5[16:1],4-7[16:1]/5-2[16:1],
{8}2h[8:1],1,7h[8:1],8,1h[8:1],2,8h[8:1],7,
3h[8:1],4,6h[8:1],5,4h[8:1],3,5h[8:1],6,
45,45,45,45,56,,34,,{2}4-7[16:1]/8-3[16:1],1-6[16:1]/5-2[16:1],
{8}1,1,28,,8,8,17,,36,27,18,,{16}18,27,36,,{8}45,,
{16}3,4,3,,6,5,6,,4,3,2,1,8,7,6,5,1,2,3,4,5,6,7,8,{8}1^4[16:1],5^8[16:1],,,
2,4,2,5,2,6,2,7,{16}4,5,4,5,3,6,3,,27,,,36,,,1b/8b,,
{8}
7,5,7,4,7,3,7,2,{16}1,8,1,8,2,7,2,,{4}3-8[16:1]/6-3[16:1],3b/6b,
{8}
1^4[8:1],5,1^6[8:1],,,,48,,6/7h[8:5],,3,2-6[8:1],,2,,,
67,,56,45,34,,23,,2h[8:5]/3,,6,7-3[8:1],,7,,,
{1}1-5[4:3],,6,7,7-3[4:3],,2,1,
{4}1-5[16:1],7-3[16:1],4-8[16:1],6-2[16:1],3-7[16:1],5-1[16:1],2-6[16:1],,
{8}7,6,58,,3,2,14,,3,6,4,5,27,,,,
{4}8-4[16:1],2-6[16:1],5-1[16:1],3-7[16:1],6-2[16:1],4-8[16:1],7-3[16:1],,
{8}21,2,28,2,{16}2h[8:3]/7,,,6,,,5,,{4}34,56,1b/2b,7b/8b,
1-5[8:1],1/7-3[8:1],7/4-8[8:1],4/6-2[8:1],6/3-7[8:1],3/5-1[8:1],5/2-6[8:1],2,
{8}7,8,1,2,3,4,15,,48,37,26,15,8^3[16:1]/4^7[16:1],,,,
{4}8-4[8:1],8/2-6[8:1],2/5-1[8:1],5/3-7[8:1],3,{8}18,27,36,,,4>6[8:3],
,,,5-1[8:1],5h[8:3],,,8,{4}78,12,5b/6b,3b/4b,
1-5[8:1],1/7-3[8:1],7/4-8[8:1],4/6-2[8:1],6,{8}3,2,14,,,6h[8:3],
,7,8,,2h[4:1],3,4,,15,26,37,48,5^2[16:1]/1^6[16:1],,,,
{4}8-4[8:1],8/2-6[8:1],2/5-1[8:1],5/3-7[8:1],3,{8}6,7,58,,,5<3[8:3],
,,,4-8[8:1],4h[8:3],,,1,{2}2p4[8:1],6p8[8:1],
{8}1-5[16:1],1,7-3[16:1],7,4-8[16:1],4,6-2[16:1],6,
3-7[16:1],3,5-1[16:1],5,2-6[16:1],2,,,
7,4,7,26,3,8,3,45,6,1,6,37,{16}6,5,4,3,2b/7b,,,,
{8}8-4[16:1],8,2-6[16:1],2,5-1[16:1],5,3-7[16:1],3,
6-2[16:1],6,4-8[16:1],4,7-3[16:1],7,,,
2,1,2,37,6,5,6,45,3,4,3,26,3v1[8:1]/7v5[8:1],,,,
2,38,7,26,7,46,3,45,6,17,2,36,5,16,2,38,
7,48,3,27,3,47,6,45,3,28,7,36,{16}45,36,27,18,2b/7b,,,,
{8}18,26,47,35,16,28,47,36,18,37,25,46,38,17,25,46,
5h[4:1]/7h[4:1],,,,2h[4:1]/4h[4:1],,,1-4[8:1]/5-8[8:1],
,1b/5b,,,{16}37,26,15,84,73,,,,1b/8b,
Re:MASTER
(200.0){8}1/7,,1/7,6,5/6,5/6,,1/7,
{8},1/7,7,6,4/5,4/5,,,
{8}2/8,,2/8,3,3/4,3/4,,2/8,
{16},,2/8,,2,,3,,4,5,4,5,4,,,,
{8}1/7,,1/7,6,5/6,5/6,,1/7,
{8},1/7,7,6,4/5,4/5,,,
{8}2/8,,2/8,3,3/4,3/4,,2/8,
{8},2/8,2,3,{32}8,7,6,5,4,3,2,1,{8}8b,,
{8}4,4,8,1,6,6,1>5[4:1],1,
{8}5<1[4:1],5,1^4[4:1],1,5,5,6,6,
{8}5,5,1,8,3,3,8<4[4:1],8,
{8}4>8[4:1],4,8^5[4:1],8,4,4,3,3,
{16}4,5,4,5,4,5,4,5,3,6,3,6,3,6,3,6,
{16}2,7,2,7,2,7,2,7,1,8,1,8,1,8,1,8,
{4}1bp5[8:1]*q5[8:1],1b^4[8:1]*^6[8:1],1bw5[8:1],1b,
{16}1b,2,3,4,8b,7,6,5,{32}1b,2,3,4,5,6,7,8,{8}1b/5b,,
{8}2/8,1,1/7,8,2/8,2,1/7,7,
{8}2/8,3,1/7,6,2/8,4,1/7,5,
{16}2,1,2,1,3,8,3,8,4,7,4,7,5,6,5,6,
{16}5-1[8:1],6,5,6b,,,,,4-8[8:1],3,4,3b,,,,,
{4}1h[8:3]/7h[8:1],3h[8:3],6h[8:3],8h[8:3],
{4}2h[8:3],4h[8:3],5h[8:3],7h[4:1],
{16}1,2,3,,8,7,6,,2,3,4,,7,6,5,,
{2}3bp7[8:1]/4b-7[8:1],5b-2[8:1]/6bq2[8:1],
{8}1-6[8:1],5,1-4[8:1],5,1-6[8:1],5,1-4[8:1],5,
{8}1-6[8:1],5,1-4[8:1],5,1-6[8:1],5,1,5,
{8}4/5,4/5,4/5,4/5,5b/6b,,3b/4b,,
{16}3,4,3,4,2b,,,,6,5,6,5,7b,,,,
{16}2,1,2,,4b/5b,,,,7,8,7,,4b/5b,,,,
{8}1/2,1/2,4b/5b,,4b/5b,,1/8,1/8,
{16}7b,6,5,4,3,2,1,8,2b,3,4,5,6,7,8,1,
{32}5b,4,3,2,1,8,7,6,5b-1[8:1],4,3,2,1,8,7,6,{16}5b,,,,,,,,
{16}2,1,2,,7,8,7,,2,1,3,,7,8,6,,
{16}2,4,3,,7,5,6,,1b/2b,,,4b/5b,,,7b/8b,,
{16}6,5,6,,3,4,3,,7,5,6,,2,4,3,,
{16}8,5,6,,1,4,3,,1/8,2/7,3/6,,1b/8b,,,,
{8}4/5,,3h[8:1],2h[8:1],1-5[8:1],,8,,
{8}6h[4:1],,7,7h[4:1],,8,8h[4:1],,
{8}1,,5/6,4/7,3/8,,1/6,,
{8}2pp4[8:1],,2,8qq6[8:1],,8,1,,
{1}1-5[4:3],,
{1}6,
{1}7,
{1}7-3[4:3],,
{1}2,
{1}1,
{8}1/8,2,1/2,8,1/8,7,7/8,1,
{8}1/8,7,1/7,2,2/8,7,2/7,1,
{8}8,4,5,1,8,3,7,5h[4:1],
{16},,4,,5,,6,,4,5,4,5,4,,,,
{8}1/8,7,7/8,1,1/8,2,1/2,8,
{8}1/8,2,2/8,7,1/7,2,2/7,8,
{16}1,,5,,4,,8,,2b/7b,,,3b/6b,,,4b/5b,,
{16}3/4,,3/4,,5/6,,5/6,,4,5,4,5,4,5,4,5,
{8}4-8[8:1],4,5-1[8:1],5,3-8[8:1],3,6-1[8:1],6,
{8}4-8[8:1],4,5-1[8:1],5,3-8[8:1],3,6,6,
{8}7,8,1,2,3/7,6,5,4h[4:1],
{16},,3,,4,,5,,4,5,4,5,4,,,,
{8}5-1[8:1],5,4-8[8:1],4,6-1[8:1],6,3-8[8:1],3,
{8}5-1[8:1],5,4-8[8:1],4,6-1[8:1],6,3,3h[4:1],
{16},,2,,1,,8,,5b/7b,,,2b/4b,,,1b/8b,,
{16}4/5,,4/5,,3/6,,3/6,,1,8,1,8,1,8,1,8,
{8}1-5[8:1],1,2-6[8:1],2,3-7[8:1],3,4-8[8:1],4,
{8}5-1[8:1],5,6-2[8:1],6,7-3[8:1],7,8,8h[4:1],
{8},1,2,1,3/8,7,6,5h[4:1],
{16},,4,,5,,6,,4,5,4,5,4,,,,
{8}8-4[8:1],8,7-3[8:1],7,6-2[8:1],6,5-1[8:1],5,
{8}4-8[8:1],4,3-7[8:1],3,2-6[8:1],2,1,1h[4:1],
{16},,8,,1,,2,,2b/4b,,,5b/7b,,,1b/8b,,
{16}2,,2,,6,,6,,4,5,4,5,4,5,4,5,
{8}8-3[8:1],8,4-7[8:1],4,5-2[8:1],5,1-6[8:1],1,
{8}8-3[8:1],8,4-7[8:1],4,5-2[8:1],5,1,1^4[8:1],
{8},8,7,6,4/5,3,2,5^8[8:1],
{16},,4,,3,,2,,1,8,1,8,1,,,,
{8}2/1-6[8:1],1,5-2[8:1],5,4-7[8:1],4,8-3[8:1],8,
{8}1-6[8:1],1,5-2[8:1],5,4-7[8:1],4,8,8h[4:1],
{16},,1,,2/7,,3/6,,4b/5b,,,1b/6b,,,3b/8b,,
{16}2,,2,,7,,7,,1,8,7,6,5,4,3,2,
{8}1/8-4[8:1],7,8/1-5[8:1],2,1/8-4[8:1],7,8/1-5[8:1],2,
{8}1/8-4[8:1],7,8/1-5[8:1],2,1/8-4[8:1],7,1/8,2^5[8:1],
{8},1,8,7,6^1[8:1],5,4,3^6[8:1],
{16},,1,,8,,7,,4,5,4,5,4,,,,
{8}8b/1-5[8:1],2,1b/8-4[8:1],7,8b/1-5[8:1],2,1b/8-4[8:1],7,
{8}8b/1-5[8:1],2,1b/8-4[8:1],7,8b/1-5[8:1],2,1b/8,7^4[8:1],
{8},8,1,2,3,4,5,6,
{16}1,8,1,8,2,7,2,7,{32}3,4,5,6,7,8,1,2,{4}3-6[8:1]/7-2[8:1],
{8}3b/7b,,
E
- エラーコード34が発生します。修正よろしくお願いします。 -- 名無しさん (2017-09-26 10:37:13)
- Re:MASTER譜面の書式を一部修正しました。 -- けもがみ (2026-05-28 22:00:32)
最終更新:2026年10月04日 08:01