アットウィキロゴ

Lost Princess

アーティスト ペコリーヌ(CV:M・A・O)、コッコロ(CV:伊藤美来)、キャル(CV:立花理香)

BPM EASY BASIC ADVANCED EXPERT MASTER Re:MASTER
150 2 4 7+ 10 11 12

EXPERT MASTER Re:MASTER
譜面制作者 Jack 緑風 犬三郎 某S氏

EASY


BASIC

(150.0){1},,,,,
{2}1,1,
{1}1,
{2}8,8,
{1}8-5[4:3],,
{2}1,1,
{1}1,
{2}2,2,
{1}2,
{2}3,3,
{1}3,
{2}4,4,
{1}4b/5b,
{2}6,6,
{1}5/6,
{1}6h[2:1],
{4}7,7,7,,
{1}1/8,
{4}1,1,1,,
{1}1h[2:1],
{2}2,2,
{4}3,3,3,,
{1}4-8[4:3],,
{2}8,8,
{2}7,7,
{2}6,6,
{4}5,5,4/5,,
{1}4h[2:1]/5h[2:1],
{1}3h[2:1]/6h[2:1],
{1}4-1[4:3]/5-8[4:3],,
{4}1,1,1,,
{4}2,2,2,,
{4}3,3,4,4,
{1}4/5,
{1}5h[2:1]/6h[2:1],
{1}3h[2:1]/4h[2:1],
{4}5,5,6,6,
{1}7/8,
{4}8,8,8,,
{4}7,7,7,,
{4}6,6,5,5,
{1}4/5,
{1}3h[2:1]/4h[2:1],
{1}5h[2:1]/6h[2:1],
{2}4/5,4/5,
{2}3/6,3/6,
{1}4-1[4:3]/5-8[4:3],,
E

ADVANCED

(150.0){1}1-4[4:3],
{2},5,
{1}5-8[4:3],
{2},1/8,
{1}2b/7b,
{2}6h[2:1],5,
{2}3h[2:1],4,
{2}5h[2:1],4,
{1}3V14[4:5]/6V85[4:5],,
{4}6,6,5/7,,
{4}3,3,2/4,,
{4}5,5,4,4,
{4}5,5,4/5,,
{4}3,3,2/4,,
{4}6,6,5/7,,
{4}1,1,8,8-4[2:1],{1},
{4}3,3,4,,
{4}6,6,5,,
{4}3,3,4,,
{4}5,5,4,4-8[8:5],{1},
{4}7,7,8,,
{4}2,2,1,,
{4}8,8,1,1,
{4}1/8,1/8,2/7,,
{1}1-4[4:3]/8-5[4:3],
{2},3b/6b,
{2}3h[2:1],4h[2:1],
{4}3,3,3/4,,
{2}6h[2:1],5h[2:1],
{4}6,6,5/6,,
{2}3h[4:1]/4h[4:1],5h[4:1]/6h[4:1],
{2}2h[4:1]/4h[4:1],5h[4:1]/7h[4:1],
{8}1h[4:1]/8h[4:1],,,,1/8,,2/7,2b/7b,
{4},,1/8,1/8,
{4}2b,3,4,5,
{4}4/6,3/7,2/8,,
{4}3,4,2/5,,
{4}6,5,4/7,,
{1}8^5[8:3],
{1}4^1[8:3],
{4}7/8,7/8,1/2,1/2,
{4}3b/8b,,4/5,4/5,
{4}3,2,1,8,
{4}1/7,2/6,3/5,,
{4}7,8,1/6,,
{4}2,1,3b/8b,,
{1}1-6[8:3]/2-5[8:3],
{1}7-4[8:3]/8-3[8:3],
{4}1/2,1/2,3/4,3/4,
{4}5/6,5/6,7/8,7/8,
{1}1b>8[4:11],,,,
E

EXPERT

(150.0){4}4/5,6^1[4:1],,,
{4}3/4,4/5,5/6,4/5,
{1}4/3>6[4:5],,
{4},,,4/5,
{1}3q5[4:3],
{2}7h[2:1],5h[2:1],
{2}4h[2:1],2h[2:1],
{1}7pp4[4:5],
{4},,,2/7,
{4}1-5[8:1],8b,6,5/7,
{4}3,2/4,6,5/7,
{4}3,2/4,3/5,4/6,
{4}7/8,1/2,3/4,5/6,
{4}8/7-4[8:1],,3,3/4,
{4}1/2-5[8:1],,6,5/6,
{4}7/8,1/2,3/4,5/6,
{8}4h[4:1]/8h[4:1],,,4^1[4:1]/8^5[4:1],,,,,
{4}2/6,5/7,4h[4:1],3,
{4}3/7,2/4,5h[4:1],6,
{4}1/6,5/7,3/8,2/4,
{4}7h[4:1],5,2h[4:1],4,
{4}6<3[2:1],3,,,
{4}4/5,5/7,2h[4:1],4,
{4}4/5,2/4,7h[4:1],5,
{8}6,,7,7-4[8:1],,,,,
{4}4,3/5,6/2-5[8:1],,
{8}5,,4/6,,3/7,,2^5[4:1]/8^5[4:1],2/8,
{4},,5,2/8,
{4}3-8[8:1],7b,6,2/5,
{4}6-1[8:1],2,3,4/7,
{4}4-1[8:1],8,2/7,4/5,
{8}3/4,,5/6,,4,5,4,,
{2}6/2-5[8:1],3/7-4[8:1],
{2}6/1-5[8:1],3/8-4[8:1],
{8}1^4[4:1]/8^5[4:1],,,,,,2b/7b,2b/7b,
{8},,,,4,5,4,,
{4}7/2-6[8:1],8b,7,6/8,
{8}3,4,2/5,,8/7-3[8:1],,1,,
{8}2,,1/3,,6,5,4/7,,
{4}2-4[8:1],8-6[8:1],1-5[8:1],8,
{4}6h[4:1],2,3h[4:1],7-5[8:1],
{4}1-3[8:1],8-4[8:1],1,2/7,
{8}3,4,2/5,,6,5,4/7,,
{8}4/5,,2/7,,1,8,1,8,
{4}2/7-3[8:1],1,2,1/3,
{8}6,5,4/7,,1/2-6[8:1],,8,,
{8}7,,6/8,,3,4,2/5,,
{8}4/7,,2/7,2h[4:1]/7h[4:1],,,2/7,,
{8}3,4,2/5,,6,5,4/7,,
{8}2,1,3/8,,7,8,1/6,,
{4}2-5[8:1],6,8-3[8:1],2,
{4}1-6[8:1],8,7-4[8:1],3>6[8:5],
{8},,,,,,1b/8b,1bpp4[8:15]/8bqq5[8:15],{1},,,
E

MASTER

(150.0){16}1h[16:3],,,3h[16:3],,,4,,4^1[4:1],,,,,,,,
{16},,7h[16:3],,,5h[16:3],,,4h[16:3],,,2h[16:3],,,8,,
{1}8<1[2:1],
{1}1>8[2:1],
{4}8h[4:3],,,1,
{8}6,5,4,3^1[8:1],,,,,
{8}6,5,4,3,6,5,4,3,
{8}6,5,4,3,6h[2:1],,,,
{2}5^2[4:1],6<5[4:3],
{4},,,2b/7b,
{4}6/5-2[8:1],8,3/4-7[8:1],1,
{4}6/5-1[8:1],8,3/4-8[8:1],1,
{2}4-2[8:1]/8-4[8:1],1-5[8:1]/5-7[8:1],
{2}4-2[8:1]/8-4[8:1],1/5,
{4}3/4-7[8:1],1,6/5-2[8:1],8,
{4}3/4-8[8:1],1,6/5-1[8:1],8,
{2}1-5[8:1]/5-7[8:1],4-2[8:1]/8-4[8:1],
{8}1/5,,1/8,2/7,,,4/5,6,
{8}6^3[8:1],,2,2,3^6[8:1],,7,7,
{8}6^3[8:1],,2,2,1-4[8:1],,5<4[2:1],,
{8}4,,,,,,3/6,4,
{4}7-4[8:1],3,2-5[8:1],6,
{8}7<2[4:1],,,,,,4/5,3,
{8}3^6[8:1],,8,8,6^3[8:1],,1,1,
{8}3^6[8:1],,7,7,8-5[8:1],,4>5[2:1],,
{8}5,,,,,,3/6,5,
{4}2-5[8:1],6,7-4[8:1],3-8[8:1],
{8}5<4[2:1],,,,,,1,1,
{8},6,5/7,3,2/4,5,3/6,,
{4}7/5>8[2:1],6,5,4,
{4}2/4<1[2:1],3,4,5,
{4}7/5>8[2:1],6,5,4,
{4}2/4<1[2:1],3,4,5,
{2}7-5[8:1]/8-4[8:1],1-5[8:1]/2-4[8:1],
{8}7-5[8:1]/8-4[8:1],,,,7/1-5[8:1],,8,8<1[8:3],
{8},,,,,,2/7,2b/7b,
{8},,,1/8,2/7,3/6,4^1[8:1]/5^8[8:1],,
{8},,2b/7b,6,7,8,1,2,
{16}3h[16:3],,,2h[16:3],,,1,,1^4[8:1]/8^5[8:1],,,,,,,,
{8}4^1[8:1],6,7,,5^8[8:1],3,2,,
{8}4/8,6,5,4,3/6,2,1,8,
{8}7,6,5^8[4:1],,3,2,1-5[8:1],,
{8}7-3[8:1],,4-1[8:1],,8,,2/7,1/8,
{8}1/8,,3/6,2,1,8,4/7p2[4:1],,
{8}1,,,1/8,2/7,3/6,4^1[8:1]/5^8[8:1],,
{8},,2/7,3,2,1,8,7,
{16}6h[16:3],,,7h[16:3],,,8,,1-5[8:1]/8-4[8:1],,,,,,,,
{8}5^8[8:1],3,2,,4^1[8:1],6,7,,
{8}1/5,2,3,4/7,,3/5,4/6,5/7,
{8},2/6,4/8h[4:1],,5,4/6,3/5,2/4,
{16},,3/7,,5/1h[4:1],,,,4,,5,,6,,1,8,
{4}1h[4:3],4,6,8-5[8:1],
{4}3-6[8:1],7-2[8:1],4-1[8:1],5<4[2:1],
{8}1,,,,,,2/7,2/7,
E

Re:MASTER

(150.0){16}1h[16:3],,,3h[16:3],,,4,,4qq5[4:1],,,,,,,,
{16},,7h[16:3],,,5h[16:3],,,4h[16:3],,,2h[16:3],,,1,,
{16}1<3[4:7],,,,,,,,4,,,3,,,2,,
{1}2^7[4:3],,
{2}4h[2:1],5,
{2}6h[2:1],5,
{2}2h[2:1],1h[2:1],
{1}8-5[4:5],
{16},,,,,,,,,,4,5,3b,,,,
{8}4/5-1[8:1],,6,,7h[8:3],8,1,2,
{8}3-7[8:1],,8,8-4[8:1],,1,2,3,
{4}3^6[4:1],6^1[4:1],1^4[4:1],4,
{4}6h[4:1],5,1h[4:1],2,
{8}5/4-8[8:1],,3,,2h[8:3],1,8,7,
{8}6-2[8:1],,1,1-5[8:1],,8,7,6,
{8}1/5h[8:1],2,6/3h[8:1],7,4/8h[8:1],5,1/6h[8:1],2,
{16}3/7,,,4,5,,2b/7b,,,,8,,8,,,,
{8}2h[4:1],,1,2,3/5,4,4/6,5,
{8}3h[4:1]/4^7[8:1],,,,2,1,8,7,
{8}6^3[8:1],,1,2,2^5[8:1],,8,7,
{8}6h[4:1],5,4,3,2h[4:1],1,8,7,
{4}6z2[2:1],6h[2:1],,,
{8}4/6,7,3/5,2,5/7,8,2/4,1,
{8}7h[4:1]/8^3[8:1],,,,6,5,4,3,
{8}2^7[8:1],,4,5,6^1[8:1],,5,4,
{8}3,2,1,8,7h[4:1],,3,3/7,
{8}2/6,1/5,4/8,3q1[8:5]/7q5[8:5],,,,,
{4},,4/5,7b/2b-4[8:1],
{4}5-1[8:1],4-8[8:1],7-5[8:1],1-5[8:1],
{4}6-8[8:1],3-1[8:1],8-4[8:1],1,
{4}1>5[4:1],5q1[4:1],1q5[4:1],5<4[8:3],
{2}7h[4:1],7w3[32:3],
{2}5h[4:1]/4-8[8:1],5h[4:1]/6-1[8:1],
{8}5h[4:1]/3-8[8:1],,,,4/7-3[8:1],,4>5[2:1]*q5[2:1],4,
{8},,,,,,1b/8b,2b/7b,
{16},,4,5,4,,1,,2/8,,3/7,,4,,3/5,,
{8}6/2-6[8:1],,1b,8,7,6,5p3[4:1],4h[8:3],
{4},,5/6,4/7,
{8}7-3[8:1],7,8-4[8:1],8,1-5[8:1],1,2-6[8:1],2,
{8}4pp4[4:1]*qq4[4:1],,,,,8,7,6,
{8}5-1[8:1],4,4,,2,3,4,5,
{16}1q5[8:1]/5q1[8:1],,,,1^6[8:1]/5^2[8:1],,,,1/5,,,,3/7,,1,8,
{8}1^4[8:1],,8,7,6^1[8:1],5,4,3,
{8}2-5[8:1],,8b,8,1/7,2/6,5,4/6,
{8}3/7-3[8:1],,8b,1,2,3,4q6[4:1],5h[8:3],
{4},,3/4,2/5,
{8}1^4[8:1],1,6^1[8:1],6,3^6[8:1],3,8^3[8:1],8,
{8}4q6[4:1],,,,,8,1,2h[8:5],
{8},8qq6[8:1],8,,,1,8,7h[8:5],
{16},,1pp3[8:1],,1,,,,,,,,4/5,,4,5,
{4}4h[4:1],3h[4:1],2h[4:1],1,
{8}1/8s4[16:3],,,,1z5[16:3],,,8,
{8}8<1[4:11],,,,1,2,3,4b<1[8:15],{1},,,
E

名前:
コメント:

タグ:

+ タグ編集
  • タグ:
最終更新:2026年10月04日 09:40