アットウィキロゴ

キミとボクのミライ

アーティスト ジータ(CV:金元寿子)、ルリア(CV:東山奈央)、ヴィーラ(CV:今井麻美)、マリー(CV:長谷川明子)

BPM EASY BASIC ADVANCED EXPERT MASTER Re:MASTER
178 2 4 8 10 11 12+

EXPERT MASTER Re:MASTER
譜面制作者 某S氏 緑風 犬三郎 Jack

EASY


BASIC

(178.0){1},,,,,,,,,
{2}1,1,
{1}1,
{2}2,2,
{1}2,
{2}3/4,3/4,
{1}3/4,
{2}5/6,5/6,
{1}5/6,
{2}7,7,
{1}7,
{2}6,6,
{1}6,
{2}5,5,
{2}4,4,
{2}5,4,
{1}5b,
{2}3,3,
{1}3,
{2}2,2,
{1}2,
{2}1,1,
{2}8,8,
{2}1,8,
{1}1/8,
{1}1-4[4:3],,
{1}8,
{1}8,
{1}8-5[4:3],,
{1}1,
{1}1,
{2}8,8,
{2}7,7,
{2}6,6,
{2}5,5,
{1}4h[1:1]/5h[1:1],,
{2}4/5,4/5,
{1}3/6,
{4}4,4,4,,
{4}3,3,3,,
{4}2,2,2,,
{4}1,1,1/8,,
{2}8,8,
{2}1,1,
{1}8h[1:1],,
{4}8,8,8,,
{4}7,7,7,,
{4}6,6,6,,
{4}5,5,4/5,,
{1}3h[1:1]/4h[1:1],
{2},5,
{1}5h[1:1]/6h[1:1],
{2},4,
{2}4/5,4/5,
{2}3/6,3/6,
{1}4-1[4:3]/5-8[4:3],,
{4}1b,1,1,,
{4}2,2,2,,
{4}3,3,3,,
{4}4,4,4/5,,
{4}6,5,6,,
{4}3,4,3,,
{2}3/4,5/6,
{4}4,5,4,,
{4}5-1[1:1],{1},,
E

ADVANCED

(178.0){1},
{2}3h[2:1],4,
{2}6h[2:1],5,
{2}3h[2:1],4,
{2}5h[2:1],4,
{4}4,4,4,,
{4}5,5,5,4-1[8:5]/5-8[8:5],{1},
{4}1/8,1/8,1/8,,
{4}6,6,5/6,,
{4}3,3,3/4,,
{4}6,6,5/6,,
{4}3,3,2/4,,
{4}7,7,7/8,,
{4}2,2,1/2,,
{1}1-4[4:3]/8-5[4:3],
{2},3/6,
{4}3,3,4,,
{4}6,6,5,,
{4}3,3,3/4,,
{4}4/5,4/5,4/5,,
{4}6,6,5,,
{4}3,3,4,,
{4}5,5,4/5,,
{2}4h[4:1]/5h[4:1],3/6,
{4}2,2,1,,
{4}7,7,8,,
{4}1,1,8,8,
{4}1,1,1/8,,
{4}3,3,2/4,,
{4}6,6,5/7,,
{4}4,4,5,5,
{4}4/5,4/5,3/6,,
{1}4-1[4:3],
{2},8,
{1}8-5[4:3],
{2},4/5,
{1}3-8[4:3],
{2},7,
{1}7-4[4:3],
{2},3/4,
{4}6,6,5/6,,
{4}3,3,3/4,,
{4}6,6,5/7,,
{4}3,3,2/4,,
{4}1,1,8,8,
{4}1/8,1/8,1/8,,
{1}1-4[4:3]/8-5[4:3],
{2},3b/6b,
{4}1,2,3,4,
{4}5,4/6,3/7,,
{4}1/2,1/2,1/2,,
{4}7/8,7/8,7/8,,
{4}6h[4:1],5,4/7,,
{4}3h[4:1],4,2/5,,
{1}4-1[4:3]/5-8[4:3],
{2},2b/7b,
{4}8,7,6,5,
{4}4,3/5,2/6,,
{4}7/8,7/8,1/6,,
{4}1/2,1/2,3/8,,
{4}3,3,4,4,
{4}3,3,2/4,,
{4}6,6,5,5,
{4}6,6,5/7,,
{4}4,4,5,5,
{4}4/5,4/5,3/6,3V14[1:1]/6V85[1:1],{1},
{2},3b/6b,
{4}5/6,5/6,4/7,,
{4}3/4,3/4,2/5,,
{4}5/6,5/6,4/7,,
{4}1/8,1/8,2/7,,
{4}3,3,4,4,
{4}5,5,6,6,
{1}5-2[4:3]/6-1[4:3],
{2},3/8,
{4}1,1,2,2,
{4}2>1[1:4],{1},,,,,
E

EXPERT

(178.0){1},
{1}1^4[2:1],
{1}8^5[2:1],
{1}1-5[2:1],
{1}8-4[2:1],
{8}1h[4:1]/8h[4:1],,,1/8,,2/7,,3h[8:3]/6h[8:3],
{4},,4/5,4-1[1:1]/5-8[1:1],{1},
{4},,1/8,2b/7b,
{2}1/2-5[8:1],8/7-4[8:1],
{4}1h[4:1],2h[4:1],3h[4:1],4,
{4}7h[4:1],6h[4:1],5h[4:1],4,
{4}3/5,4/6,4/5,3/6,
{8}1,1-5[8:1],,,,,8,8-4[8:1],
{4},,1/2,3/8,
{1}1pp4[4:3]/8qq5[4:3],
{2},2/7,
{4}4,4,4,3/5,
{4}5,5,5,4/6,
{4}4,3/5,5,4/6,
{8}3h[2:1],,,4,4,,3/4,,
{4}3h[4:1],5h[4:1],4,5/6,
{4}6h[4:1],4h[4:1],5,3/4,
{4}3,2/4,6,5/7,
{8}7h[2:1],,,8,8,,1/6,,
{4}7,7,7,6/8,
{4}2,2,2,1/3,
{4}7,6/8,2,1/3,
{8}7h[2:1],,,8,8,,7/8,,
{4}6h[4:3],5,4,3,
{4}2h[4:3],1,8,7,
{4}7/8,1/6,2/5,4/3qq6[16:9],{1},
{2}8-4[8:1],2-5[8:1],
{2}6-3[8:1],1-4[8:1],
{1}8pp4[4:3]*qq4[4:3],
{4},,3,2/4,
{2}1-5[8:1],7-4[8:1],
{2}3-6[8:1],8-5[8:1],
{1}1pp5[4:3]*qq5[4:3],
{4},,6,5/7,
{8}6,,5,,4,4,3/5,,
{8}3,,4,,5,5,4/6,,
{8}6,5,6,,3,4,3,,
{8}6,5,4/7,,3,4,2/5,,
{1}1qq6[4:3]/2pp5[4:3],
{4},,1/8,2/7,
{8}1,1,,1/8,,1/8,,2/7,
{8},8,8b,,1,,7/8,8/7-4[8:1],
{8},,,,3,,1/2,1/2-5[8:1],
{8},,,,6,,7/8,8/7^4[8:1],
{8},,,,3,,1/2,1/2qq5[2:1],{1},
{8}5h[4:1]/6h[4:1],,,5/6,,4/5,,3h[8:3]/4h[8:3],
{4},,3/4,2/5,
{1}4/3>6[4:3],
{8},,,,1/8,,1/2,1-6[8:1]/2-5[8:1],
{8},,,,7,,7/8,7-3[8:1]/8-4[8:1],
{8},,,,2,,1/2,1^6[8:1]/2^5[8:1],
{8},,,,7,,7/8,7qq4[8:5]/8pp3[8:5],{1},
{8}1,1,,1,,2,,3h[8:3],
{8},4,4,,3/4,,2b/5b,,
{8}8,8,,8,,7,,6h[8:3],
{8},5,5,,5/6,,4b/7b,,
{8}1/8,1/8,,1/8,,2/7,,3h[8:3]/6h[8:3],
{4},,4/5,5/4pp1[1:1],{1},
{4},,1/8,2b/7b,
{2}8/7-4[8:1],1/2-5[8:1],
{4}8h[4:1],7h[4:1],6h[4:1],5,
{4}2h[4:1],3h[4:1],4h[4:1],5,
{4}4/6,3/5,4/5,3/6,
{8}7/8,7-5[8:1]/8-4[8:1],,,,,1/2,1-5[8:1]/2-4[8:1],
{4},,7/8,1/6,
{1}1pp4[4:3]/8qq5[4:3],
{2},2/7,
{8}6,6,,5,5,,4,4,
{8},3,{4}3bV51[1:3],{1},,,,
E

MASTER

(178.0){2},7,
{2}1^4[2:1],6,
{2}8^5[2:1],3,
{2}4^1[2:1],6,
{1}7<2[2:1],
{2}1-4[4:1],8-5[4:1],
{4}2h[2:1],,7,8<1[4:3],{1},
{8}1/8,1/8,2/7,,4/5,,4/5<4[2:3],,
{4}4,4,4,4,
{4}5,5,5,5/4>5[4:7],
{4}5,5,5,5,
{4}4,4,4,4,
{8}6,6,,4/8,4/8-4[8:1],,1,1-5[8:1],
{8},8,8-4[8:1],,1,,2/7,,
{8}4/5,4/5,4/5,4/5,,4^1[4:1]/5^8[4:1],,,
{8},,3/6,,1/8,1b/8b,,,
{4}4/7^5[8:1],4,3/5,3/6,
{4}4/7^5[8:1],4,3/5,3/6,
{4}4/7^2[8:1],4,3,3>6[4:1],
{4},,1/8,3/6,
{4}5/2^4[8:1],5,4/6,3/6,
{4}5/2^4[8:1],5,4/6,3/6,
{4}5/2^7[8:1],5,6,3/6,
{8}4/5,,1/8,1/8,2/7,,,,
{4}5/3^1[8:1],5,4/6,3/6,
{4}5/3^1[8:1],5,4/6,3/6,
{4}5/1^4[8:1],5,6,6<3[4:1],
{4},,1/8,2/7,
{4}4/6^8[8:1],4,3/5,3/6,
{4}4/6^8[8:1],4,3/5,3/6,
{4}3^8[4:1]/7^4[4:1],,,2/6,
{8}1/8,1/8,2/7,2/7,,4/5,,4/5-8[8:1],
{8},1,1,,2v5[8:1]/8v5[8:1],,,,
{4}3v8[8:1]/5v8[8:1],,8,1/6-3[8:1],
{4}2<3[2:1],6,,,
{8}3,4,5,6,,4/5,,5/4-1[8:1],
{8},8,8,,1v4[8:1]/7v4[8:1],,,,
{4}4v1[8:1]/6v1[8:1],,1,8/3-6[8:1],
{4}7>6[2:1],3,,,
{8}6,5,4,3h[4:1],,5,6h[4:1],,
{2}5>1[4:1],4<8[4:1],
{2}5>1[4:1],4<8[4:1],
{8}1,1>8[8:3],,,,,,,
{4}7-2[8:1],3-6[8:1],8-5[8:1],4-1[8:1],
{4}7-4[8:1],3-8[8:1],6-1[8:1],2-5[8:1],
{8}7-3[8:1],,2-6[8:1],,8,8,2/7,,
{8}4/5,4/5,,5/7,,2/4,,1/8,
{8},2/7,2/7-3[8:1],,1b,,1/2,1-6[8:1]/2-5[8:1],
{8},,,8,8,,2/7,2/7-3[8:1],
{8},1,1h[4:1],,4,4<8[8:3],,3,
{8},1,1,,8,8^5[8:1],,3^8[8:1],
{8},6^3[8:1],,1,1,,2/7,,
{8}6,5,4,3h[4:1],,4,5,6^3[8:1],
{8},,,1,1,,7/3^6[8:1],,
{4}8,8<3[4:1],1h[2:1],,
{8}5,5,,1,2/7,,7/8,7-4[8:1]/8-3[8:1],
{8},,,1,1,,2/7,7/2-6[8:1],
{8},8,8h[4:1],,5,5>1[8:3],,6,
{8},8,8,,1,1^4[8:1],,6^1[8:1],
{8},3^6[8:1],,8,8,,2/7,,
{8}3,4,5,6h[4:1],,5,4,3/5-1[8:1],
{8},4,,1/2,1-6[8:1]/2-5[8:1],,,,
{8}6,5,4,3h[4:1],,4,5,6/4-8[8:1],
{8},5,,7/8,7-4[8:1]/8-3[8:1],,,,
{8}3,4,5,6h[4:1],,5,4,3/6,
{8},1/8,,6,5,4,3,,
{8}3/6,3/6,3/6,3/6,,4/6,,3/5,
{8},4/5,4^1[4:1]/5^8[4:1],,,,,,
{4}2b/7h[1:3],2,2,2,
{4}3,3,2,2,
{4}4,4,3,3,
{1}5>6[2:1],
{8}6,5/7,,4/5,,1/8,1/8,2/7,
{8},4/5,,3,2/4,,4/5,,
{8}2/7,2/7,2/7,2/7,,3/6<3[8:3],,4,
{8},,,,2/7,2/7,,,
{8}3,4,2,6,5,7,3,5,
{8}4,6<4[8:27],{4}1h[8:31],,,{1},,,
{16},,8,1,8,
E

Re:MASTER

(178.0){1},
{2}3^6[2:1],7,
{2}7p3[2:1],2,
{2}2^7[2:1],6,
{2}6q3[2:1],4,
{8}4h[4:1]/5h[4:1],,,3h[8:3]/6h[8:3],,,,2h[2:1]/7h[2:1],
{2},1-5[8:1]/8-4[8:1],
{4}2-5[8:1],7-3[8:1],1-5[8:1],6<3[4:1],
{8},,,1/8,1^4[8:1]/8^5[8:1],,,,
{4}2b/7b,3/4,1/7,5/6,
{4}8/2h[4:1],4h[4:1],5h[4:1],7h[4:1],
{4}8^3[8:1],6,1^6[8:1],3,
{2}8-3[8:1]*-5[8:1],1-4[8:1]*-6[8:1],
{8}3/7,3-8[8:1]/7-4[8:1],,,,,2/6,2-5[8:1]/6-1[8:1],
{2},8w4[8:1],
{8}2/6,2/6,2/6,2/6,,4/7,,3h[4:1]/5h[4:1],
{8},,3/5,,1/8,1b/8b,,,
{8}4/5,,3,4,2/5,,6,5,
{4}7/4qq1[4:3],7,6,6,
{4}5,5-7[8:1],2-5[8:1],8>6[8:3],
{8}3,,,1,1,,2/8,,
{4}3/7,6/4h[4:1],3h[4:1],2,
{4}3/5h[4:1],6h[4:1],7,1/8,
{4}4/3h[4:1],1,5/6h[4:1],8,
{8}3/4,3/4,,5/6,5/6,,1/8,1/8,
{8}2/7,,6,5,4/7,,3,4,
{4}2/5pp8[4:3],2,3,3,
{4}4,4-2[8:1],7-4[8:1],1<3[8:3],
{8}6,,,8,8,,1/7,,
{8}2h[4:1]/6h[4:1],,,6/2^5[8:1],,8,8,,
{8}3h[4:1]/7h[4:1],,,3/7^4[8:1],,1,1,,
{8}3,4,2/5,,6,5,4/7,,
{8}5,4,5,2/7,,1-5[8:1]/8-4[8:1],1/8,,
{4},7/2^5[8:1],8,2/7^4[8:1],
{4}1,7/2^5[8:1],6^1[8:1],2,
{8}4>7[2:1],,7,,,,,4/6,
{8},2/5,,3/7,,1w5[8:1],1,,
{4},3/7^4[8:1],1,6/2^5[8:1],
{4}8,3/7^4[8:1],3^8[8:1],6,
{8}5<2[2:1],,2,,,,,3/5,
{8},4/7,,2/6,,4/8,4/8,,
{8}5/2-5[8:1],,1,,3,4,2/5,,
{8}4/7-4[8:1],,8,,6,5,4/7,,
{8}3,4,2/5,,1/8,1/8,2/7,,
{8}5,5,3,3,7,7,1,1,
{8}7-4[8:1],7,2-6[8:1],2,8-3[8:1],8,1-5[8:1],1,
{8}7-3[8:1],7,2-5[8:1],2,8-4[8:1],8,1b,,
{8}2/6,6/2-4[8:1],,8-6[8:1],,1-5[8:1],,5,
{8},4b/8b,4b^1[8:1]/8b^5[8:1],,4/8,,3/7,3b/7b,
{8},1/5,,3,4,5-1[8:1],6,7,
{8},3/8,3/8,,1/2,1-5[8:1]/2-5[8:1],,1/2,
{8},4/6,4/6,,7/8,7-4[8:1]/8-4[8:1],,7/8,
{8},3/5,2/6,7/1h[4:1],,8,2/7,,
{8}6,5,4,3h[4:1],,4,5,6^3[8:1],
{8},,,4/5,4-1[8:1]/5-8[8:1],,,,
{8}2/7,6,2/5,3,4/7,6,2/5,5/2-5[8:1],
{8},2/7-4[8:1],,3/7,3,,1/8,1b/8b,
{8},4/5,,6,5,4-8[8:1],3,2,
{8},1/6,1/6,,7/8,7-5[8:1]/8-4[8:1],,7/8,
{8},3/6,3/6,,1/2,1-5[8:1]/2-4[8:1],,1/2,
{8},3/6<3[8:3],4,5,,,1,,
{8}7,6,5,4h[4:1],,5,6,7^4[8:1],
{8},,,5/6,6/5-1[8:1],,8,,
{8}2,3,4,5h[4:1],,4,3,2^5[8:1],
{8},,,3/4,3/4-8[8:1],,1,,
{8}3,4,5,6h[4:1],,5,4,3^6[8:1],
{8},,,7,8,1,2,3,
{8}4/5,4/5,4/5,4-8[8:1]/5-1[8:1],,,,2/7,
{8},4/5,3/6,2/7,1^4[8:1]/8^5[8:1],,1/8,,
{4}2b/7b,5/6,2/8,3/4,
{4}1/7^4[4:1],4^1[4:1],1^6[4:1],6,
{4}3h[4:1],1h[4:1],8h[4:1],6h[4:1],
{2}4w8[8:1],5w1[8:1],
{8}3/7,3-8[8:1]/7-4[8:1],,3/7,,,2/6,2-5[8:1]/6-1[8:1],
{8},2/6,,,4^1[8:1]/8^5[8:1],,4/8,,
{8}3/7,3/7,3/7,3/7,,2/5,,4h[4:1]/6h[4:1],
{8},,4/6,,1/8,1b/8b,,,
{8}3,4,1,6,5,8,3/7,3/7,
{8},1/5,{4}5b/1h[8:31],,,{1},,,
{8},{983}6,,,,,,,,,,,,,,,,,,,,,,,,,,,,,,,,,,,,,,,,,{625}5,,,,,,,,,,,,,,,,,,,,,,,,,,{983}4,,,,,,,,,,,,,,,,,,,,,,,,,,,,,,,,,,,,,,,,,3,
E

名前:
コメント:

タグ:

+ タグ編集
  • タグ:
最終更新:2026年10月04日 09:40