アットウィキロゴ

宛城、炎上!!

アーティスト Cranky feat.おもしろ三国志

BPM BASIC ADVANCED EXPERT MASTER Re:MASTER
175 5 8+ 12 13+ -

EXPERT MASTER Re:MASTER
譜面制作者 サファ太 小鳥遊さん -

BASIC

(175.0){1},,,,,,,,
{2}4,4/5,
{2}4,4/5,
{2}5,4/5,
{2}5,4/5,
{2}4,3/5,
{2}4,3/5,
{2}5,4/6,
{2}5,4/6,
{1}4x/5x,,
{4},Ch[8:9],,,{1},
{1}1x/8x,
{1}1x/8x,
{1}2x/7x,
{1}2x/7x,
{1}3x/6x,
{1}3x/6x,
{1}4x/5x,
{1}4b/5b,
{4}4,4,4,,
{4}3,3,3,,
{4}2,2,2,,
{4}1,1,1,,
{4}8,8,8,,
{4}7,7,7,,
{4}6,6,6,,
{4}5,5,5,,
{4}4,4,5,5,
{1}4x/5x,
{1}C1f,,
{4}1,1,1,,
{4}2,2,2,,
{4}3,3,3,,
{4}4,4,4x/5x,,
{4}5,5,5,,
{4}6,6,6,,
{4}7,7,7,,
{1}1b/8b,
{4}8,8,8,,
{4}7,7,7,,
{4}6,6,6,,
{4}5,5,4x/5x,,
{4}4,4,4,,
{4}3,3,3,,
{4}2,2,2,,
{1}1b/8b,
{1}2-6[4:3],,
{1}7-3[4:3],,
{1}1-5[4:3],
{8},,,,,,,8hx[8:11],{1},,
{1}B1/B2,
{1}B7/B8,
{1}B1/B2,
{1}Ch[2:1],
{1}B1/B2,
{1}B7/B8,
{1}Chf[8:7],,
{4}1,1,1,,
{4}2,2,2,,
{4}3,3,3,,
{4}4,4,4/5,,
{4}5,5,5,,
{4}6,6,6,,
{4}7,7,7,,
{2}1x/8x,1x/8x,
{1}1-5[4:3],,
{1}8-4[4:3],,
{1}2-5[4:3],,
{1}7-4[4:3],,
{2}4,4,
{2}4,4,
{2}5,5,
{2}5,5,
{4}4,4,4,,
{4}4,4,4,,
{4}5,5,5,,
{4}5,5,5,,
{1}4h[1:1]/5h[1:1],,
{1}3h[1:1]/6h[1:1],,
{1}2h[1:1]/7h[1:1],,
{8},,,,,C1f,,,{1},
(260.0){4},,1,1,
{4}1,,2,2,
{4}2,,3,3,
{4}3,,4,4,
{4}4,,5,5,
{4}5,,6,6,
{2}6,7hx[1:1]/8hx[1:1],{1},
{4},,8,8,
{4}8,,7,7,
{4}7,,6,6,
{4}6,,5,5,
{4}5,,4,4,
{4}4,,3,3,
{2}3,1x/2x,
{2}7x/8x,1x/2x,{1},
{8},1x,,1x,,1x,,1x,
{8},1x,,1x,,1x,,,
{8},8x,,8x,,8x,,8x,
{8},8x,,8x,,8x,,,
{8},Chf[8:27],,,{1},,,,
E

ADVANCED

(175.0){1}Ch[1:3],,,,
{1}B6/B7,
{1}B2/B3,
{1}B5/B6,
{1}B3/B4,
{2}6h[1:1],5,
{1}5,
{2}3h[1:1],4,
{1}4,
{2}5h[1:1],4,
{1}4,
{1}4h[1:1]/5h[1:1],,
{1}3hx[8:27]/6hx[8:27],,,,
{1}5x-1[4:3],,
{1}1-5[4:3],,
{1}5-1[4:3],,
{1}1-5[4:3],
{2},4x/6x,
{1}3-8[4:3],
{2},7,
{1}7-3[4:3],
{2},2,
{1}2-6[4:3],
{2},7,
{1}7^4[4:3],
{2},3,
{2}3/4,5/6,
{1}4b/5b,
{1}Chf[8:3],
{4},2hx[4:1]/7hx[4:1],,2x/7x,
{4}3,3,3/4,3/4,
{4}6,6,5/6,5/6,
{4}3,3/4,6,5/6,
{4}4/5,4/5,3/6,,
{4}2,2,1/2,1/2,
{4}7,7,7/8,7/8,
{4}1x,2x/8x,3x/7x,4x/6x,
{4}5b,,,4x/5x,
{4}3,3,2/4,2/4,
{4}1,1,2/8,2/8,
{4}7,7,6/8,6/8,
{4}5,4/6,3b/7b,,
{4}6,6,5/7,5/7,
{4}8,8,1/7,1/7,
{4}2/6,2/6,3/7,3/7,
{1}4hx[2:1]/5hx[2:1],
{2}2h[2:1],3h[2:1],
{2}4,4/5,
{2}7h[2:1],6h[2:1],
{2}5,4/7,
{2}6h[2:1],7h[2:1],
{2}8,1/8,
{1}2-5[4:3]/7-4[4:3],,
{4}3x/4x,5x/6x,3x/4x,5x/6x,
{4}3x/4x,5x/6x,3x/4x,3/4,
{4}5x/6x,3x/4x,5x/6x,3x/4x,
{2}4h[4:1]/5h[4:1],3b/6b,
{4}7x/8x,1x/2x,7x/8x,1x/2x,
{4}7x/8x,1x/2x,7x/8x,7/8,
{4}5x/6x,3x/4x,4b/5b,2b/7b,{1},
{8}3,3,3,,3/4,,3/4,,
{8}5,5,5,,4/5,,4/5,,
{8}6,6,6,,5/6,,5/6,,
{8}7,7,7,,2/8,,,,
{8}3,3,3,,3/4,,4/5,,
{8}6,6,6,,5/6,,4/5,,
{8}3,3,3,,2/4,,2/4,,
{8}1x,1x,1x,,8x,8x,{4}8x<1[1:2],{1},,,
{1}2h[2:1]/8h[2:1],
{1}1s5[4:7],,,
{1}4h[2:1]/5h[2:1],
{2}B3/B5,B4/B6,
{4}E4,E3,E2,,
{2}B4/B6,B3/B5,
{4}E6,E7,E8,,
{1}Ch[1:1],,
{2}B1/B7,B2/B8,
{4}E2,C1,E6,,
{1}7x-3[2:1],
{1}2x-5[2:1],
{1}7x-3[2:1],
{1}2x-5[2:1],
{2}6hx[2:1],5hx[2:1],
{4}4hx[2:1],,5x,4x/5x,{1},,
(260.0){4}3x/6x,,4,3,
{4}2,1,8,7,
{4}6,5,3/4,3/4,
{4}2/5,2/5,1/6,1/6,
{4}1x/6x,,5/6,5/6,
{4}4/7,4/7,3/8,3/8,
{4}1/2,2/1s5[1:1],,,{1},
{4}4x/6x,,5,6,
{4}7,8,1,2,
{4}3,4,5/6,5/6,
{4}4/7,4/7,3/8,3/8,
{4}3/8,,3/4,3/4,
{4}2/5,2/5,1/6,1/6,
{4}7/8,7/8,1x/2x,,
{2}7x/8x,3x/6x,
{8},,4x,4x,5x,,,,
{8},{989}2x/3x,,,,,,,,,,,,,,,,,,,,,,,,,,,,,,,,,,,,,,,,,,,,,,,,,,,,,,,,,,,,,,,,,,,,,,,,,,,,,,,,,,,,,,,,,,,,,,,,,,,,,,,,,,,,,,,,,,,,,,,,,,,,,,,,,,,,,,,,,,,,,,,,,,,,,,,,,,,,,,,,,,,,,,,,,,,,,,,,,,,,,,,,,,,,,,,,,,,,,,,,,,,,,,{619}2x/3x,,,,,,,,,,,,,,,,,,,,,,,,,,,,,,,,,,,,,,,,,,,,,,,,,,,,,,,,,,,,,,,,,,,,,,,,,,,,,,,,,,,,,,,,,,,,,,,,,,,,,,,,,,,,,,,,,,,,,,,,,,,,,,,,,{989}2x/3x,,,,,,,,,,,,,,,,,,,,,,,,,,,,,,,,,,,,,,,,,,,,,,,,,,,,,,,,,,,,,,,,,,,,,,,,,,,,,,,,,,,,,,,,,,,,,,,,,,,,,,,,,,,,,,,,,,,,,,,,,,,,,,,,,,,,,,,,,,,,,,,,,,,,,,,,,,,,,,,,,,,,,,,,,,,,,,,,,,,,,,,,,,,,,,,,,,,,,,,,,,,,,,2x/3x,,,,,,,,,,,,,,,,,,,,,,,,,,,,,,,,,,,,,,,,,,,,,,,,,,,,,,,,,,,,,,,,,,,,,,,,,,,,,,,,,,,,,,,,,,,,,,,,,,,,,,,,,,,,,,,,,,,,,,,,,,,,,,,,,,,,,,,,,,,,,,,,,,,,,,,,,,,,,,,,,,,,,,,,,,,,,,,,,,,,,,,,,,,,,,,,,,,,,,,,,,,,,,{983}2x/3x,,,,,,,,,,,,,,,,,,,,,,,,,,,,,,,,,,,,,,,,,
{6},{989}2x/3x,,,,,,,,,,,,,,,,,,,,,,,,,,,,,,,,,,,,,,,,,,,,,,,,,,,,,,,,,,,,,,,,,,,,,,,,,,,,,,,,,,,,,,,,,,,,,,,,,,,,,,,,,,,,,,,,,,,,,,,,,,,,,,,,,,,,,,,,,,,,,,,,,,,,,,,,,,,,,,,,,,,,,,,,,,,,,,,,,,,,,,,,,,,,,,,,,,,,,,,,,,,,,,2x/3x,,,,,,,,,,,,,,,,,,,,,,,,,,,,,,,,,,,,,,,,,,,,,,,,,,,,,,,,,,,,,,,,,,,,,,,,,,,,,,,,,,,,,,,,,,,,,,,,,,,,,,,,,,,,,,,,,,,,,,,,,,,,,,,,,,,,,,,,,,,,,,,,,,,,,,,,,,,,,,,,,,,,,,,,,,,,,,,,,,,,,,,,,,,,,,,,,,,,,,,,,,,,,,{48}2x/3x,,,,,,,,,,,,,,,,,,,,
{48},,,{989}6x/7x,,,,,,,,,,,,,,,,,,,,,,,,,,,,,,,,,,,,,,,,,,,,,,,,,,,,,,,,,,,,,,,,,,,,,,,,,,,,,,,,,,,,,,,,,,,,,,,,,,,,,,,,,,,,,,,,,,,,,,,,,,,,,,,,,,,,,,,,,,,,,,,,,,,,,,,,,,,,,,,,,,,,,,,,,,,,,,,,,,,,,,,,,,,,,,,,,,,,,,,,,,,,,,{619}6x/7x,,,,,,,,,,,,,,,,,,,,,,,,,,,,,,,,,,,,,,,,,,,,,,,,,,,,,,,,,,,,,,,,,,,,,,,,,,,,,,,,,,,,,,,,,,,,,,,,,,,,,,,,,,,,,,,,,,,,,,,,,,,,,,,,,{989}6x/7x,,,,,,,,,,,,,,,,,,,,,,,,,,,,,,,,,,,,,,,,,,,,,,,,,,,,,,,,,,,,,,,,,,,,,,,,,,,,,,,,,,,,,,,,,,,,,,,,,,,,,,,,,,,,,,,,,,,,,,,,,,,,,,,,,,,,,,,,,,,,,,,,,,,,,,,,,,,,,,,,,,,,,,,,,,,,,,,,,,,,,,,,,,,,,,,,,,,,,,,,,,,,,,6x/7x,,,,,,,,,,,,,,,,,,,,,,,,,,,,,,,,,,,,,,,,,,,,,,,,,,,,,,,,,,,,,,,,,,,,,,,,,,,,,,,,,,,,,,,,,,,,,,,,,,,,,,,,,,,,,,,,,,,,,,,,,,,,,,,,,,,,,,,,,,,,,,,,,,,,,,,,,,,,,,,,,,,,,,,,,,,,,,,,,,,,,,,,,,,,,,,,,,,,,,,,,,,,,,{643}6x/7x,,,,,,,,,,,,,,,,,,,,,,,,,,,,,,,,,,,,,,,,,,,,,,,,,,,,,,,,,,,,,,,,,,,
{643},,,,,,,,,,,,,,,,,,,,,,,,,,,,,,,,,,,,,,,,,,,,,,,,,,,,,,,,,,,,,,,,,,,{989}6x/7x,,,,,,,,,,,,,,,,,,,,,,,,,,,,,,,,,,,,,,,,,,,,,,,,,,,,,,,,,,,,,,,,,,,,,,,,,,,,,,,,,,,,,,,,,,,,,,,,,,,,,,,,,,,,,,,,,,,,,,,,,,,,,,,,,,,,,,,,,,,,,,,,,,,,,,,,,,,,,,,,,,,,,,,,,,,,,,,,,,,,,,,,,,,,,,,,,,,,,,,,,,,,,,{16}7x/6x>7[16:31],,,,,,,,,,,{1},,
{2},{1}B2/B6/Chf[1:1],,
E

EXPERT

(175.0){1}Ch[1:3],,,,
{1}3h[1:1],
{1}4h[1:1],
{1}5h[1:1],
{1}6h[1:1],
{4}5,5,5h[8:3]/6h[8:3],,
{8},6,6,,5/7,,,,
{4}4,3,3h[8:3]/4h[8:3],,
{8},3,3,,2/4,,,,
{4}4,5,4h[8:3]/6h[8:3],,
{8},5,5,,4/6,,,,
{4}6,7,2h[8:3]/8h[8:3],,
{8},8,8,,1/7h[2:1],,,,
{1}8z4[1:1],,
{4},Chf[8:9],,,
{8},,,B2/B7,,,,,
{8}8b/1h[1:1],,,,,,5,5,
{8}5h[4:3],,,,,,4,4x,
{8}4x/6h[1:1],,,,,,5,5,
{8}5h[4:3],,,,,,6x,6x,
{8}5x/7h[1:1],,,,,,8,8,
{8}8h[4:3],,,,,,7,7x,
{1}6h[4:3]/1x-5[2:1],
{16}6,,,,6,,,,5/6,,,,4b,5b,4b,5b,
{8}4b,,3h[2:3],,,4,4,,
{8},,2,,,4,4,,
{8}6h[4:7],,5,,,7,7,,
{8},,5,,,1,1,,
{8}2h[4:7],,4,,,1,1,,
{8},,3,,,8,8,,
{8}3,3,5,5,4,4,6,6,
{8}3,3,7,7,2,2,8,8,
{16}1,8,1,8,1,8,1,8,1,8,1,8,1,8,1,,
{1}2b/7b,
{8}4h[8:1]/5h[8:1],,,C1f/B2/B3/B6/B7,,,,,
{16},,,,1x/8x,,,2x/7x,,,3x/6x,,3b/6b,,,,
{8}3/4,,1/2,,3/4,,2/5,6,
{8}5/6,,7/8,,5/6,,4/7,3,
{8}3/4,,1/2,,3/4,,2/5,6,
{4}5/6,2/4,6/7,3b/8b,
{8}5/6,,7/8,,5/6,,4/7,3,
{8}3/4,,1/2,,3/4,,1/6,7,
{4}5/7,1/2,3/4,6/8,
{4}4b/7b>4[8:3],,,1x,
{8}7h[8:1]/8h[8:1],,5h[8:1]/6h[8:1],,7h[8:1]/8h[8:1],,1/6,2,
{8}1h[8:1]/2h[8:1],,3h[8:1]/4h[8:1],,1h[8:1]/2h[8:1],,3/8,7,
{8}7h[8:1]/8h[8:1],,2h[8:1]/3h[8:1],,5h[8:1]/6h[8:1],,2/4,1,
{8}1h[8:1]/7h[8:1],,2h[8:1]/8h[8:1],,1b/7b,2b/6b,3b/5b,,
{8}5h[8:1]/7h[8:1],,2h[8:1]/4h[8:1],,4h[8:1]/5h[8:1],,4/5,3,
{8}2h[8:1]/7h[8:1],,1h[8:1]/3h[8:1],,6h[8:1]/8h[8:1],,1/2,3/8,
{8}4h[8:1]/7h[8:1],,2h[8:1]/5h[8:1],,4/6,7,8-4[4:1],,
{4}1h[4:3],,,7b,
{4}6^3[4:1],,2,2,
{4}3^6[4:1],,7,7,
{12}2h[2:1]/7h[2:1],,,,,,,,,1x,,8x,
{641},,,,,,,,,,,,,,,,,,,,{8}1x,8x,{629}1x,,,,,,,,,,,,,,,,,,,,,,,,,,,,,,,,,,,,,,,,,,,,,,,,,,,,,,,,,,,{8}8x,,,3x/6x,,
{4}2^7[4:1],,6,6,
{4}7^2[4:1],,3,3,
{1}4qq1[4:3]/5pp8[4:3],
{4},,,3b/6b,
{4}4b-1[8:1],5b-8[8:1],4b-1[8:1],5b-8[8:1],
{4}4b-1[8:1],5b-8[8:1],4b,2b/7b,
{4}4b-8[8:1],5b-1[8:1],4b-8[8:1],7b,
{2}5b-1[8:1]/6b-8[8:1],3b-1[8:1]/4b-8[8:1],
{4}6b-8[8:1],5b-1[8:1],6b-8[8:1],3b-1[8:1],
{4}4b-8[8:1],3b-1[8:1],7b,5b^8[8:1],
{4}4b^1[8:1],5b^8[8:1],4bw8[8:1],C1f,
{4},,,2b/7b,
{8}3,3,4,2,6,6,5,7,
{8}2,2,4,3,7,7,5,6,
{8}2,2,1,3,6,5,7h[4:1],,
{4}1,2/4,4/5,2/7,
{8}6,6,5,7,3,3,4,2,
{8}7,7,6,8,2,2,3,1,
{8}8,7,6,5,4,3,2,1,
{8}7x/8x,1x/6x,2b/5b,,1x/2x,3x/8x,4b/7b,,
{1}Ch[2:3],
{4},,E8,E1,
{2}E2,B5/B6,
{4}B2/B3,,E8,E7,
{2}B5/E6,C1,
{2}B2/E2,B6/E6,
{1}3h[4:3]/5h[4:7],
{1}4h[4:3],
{4}4b/5b,5,5,5,
{4}4,4,4,4,
{4}6,6,5,5,
{4}4,4,3,3,
{4}3b/4b,3,3/4,3,
{4}2/3,3,3/4,4/5,
{4}5/6,6,5/6,6,
{4}6/7,6,5/6,4/5^8[4:3],
{4}4b,4,4,4^1[4:3],
{4}8x,8,8,8^5[4:3],
{4}1b,1,1,1^4[4:3],
{4}5x,5,5,5-8[4:1],
{4}3b,4-1[4:1],7x,5-1[4:1],
{4}2x,3,4x/8x,1hx[1867:2392]/5hx[1867:2392],{1},,
(260.0){4}1b/8b,,2b/4b,7/8,
{4}5/6,3/8,5/7,1/2,
{4}3/4,1/6,3b/4b,6/7,
{4}1/2,6/7,3/4,2/7,
{8}8,8,1,,3b/6b,,7/8,,
{4}4/5,1/2,6/8,3/4,
{8}2,2,1,,8/3h[4:1],,4h[4:1],,
{4}5h[4:1],6h[4:1],7b,1b/8b,
{4}3b/6b,,2b/4b,6/8,
{4}1/3,5/7,3/4,7/8,
{4}2/3,5/6,1b/3b,6/7,
{4}2/4,7/8,1b/3b,5/6,
{8}3,3,4,,2b/5b,,6/7,,
{4}3b/8b,2/4,6b/7b,2b/3b,
{4}6b/7b,2b/3b,1b-5[8:1],,
{2}8b-4[8:1],2b/6b,
{16},,,,1x,8x,1x,8x,1x,8x,1x,,,,,,
{16},,{989}3x/4x,,,,,,,,,,,,,,,,,,,,,,,,,,,,,,,,,,,,,,,,,,,,,,,,,,,,,,,,,,,,,,,,,,,,,,,,,,,,,,,,,,,,,,,,,,,,,,,,,,,,,,,,,,,,,,,,,,,,,,,,,,,,,,,,,,,,,,,,,,,,,,,,,,,,,,,,,,,,,,,,,,,,,,,,,,,,,,,,,,,,,,,,,,,,,,,,,,,,,,,,,,,,,,{619}3x/4x,,,,,,,,,,,,,,,,,,,,,,,,,,,,,,,,,,,,,,,,,,,,,,,,,,,,,,,,,,,,,,,,,,,,,,,,,,,,,,,,,,,,,,,,,,,,,,,,,,,,,,,,,,,,,,,,,,,,,,,,,,,,,,,,,{989}2x/5x,,,,,,,,,,,,,,,,,,,,,,,,,,,,,,,,,,,,,,,,,,,,,,,,,,,,,,,,,,,,,,,,,,,,,,,,,,,,,,,,,,,,,,,,,,,,,,,,,,,,,,,,,,,,,,,,,,,,,,,,,,,,,,,,,,,,,,,,,,,,,,,,,,,,,,,,,,,,,,,,,,,,,,,,,,,,,,,,,,,,,,,,,,,,,,,,,,,,,,,,,,,,,,1x/6x,,,,,,,,,,,,,,,,,,,,,,,,,,,,,,,,,,,,,,,,,,,,,,,,,,,,,,,,,,,,,,,,,,,,,,,,,,,,,,,,,,,,,,,,,,,,,,,,,,,,,,,,,,,,,,,,,,,,,,,,,,,,,,,,,,,,,,,,,,,,,,,,,,,,,,,,,,,,,,,,,,,,,,,,,,,,,,,,,,,,,,,,,,,,,,,,,,,,,,,,,,,,,,{983}7x/8x,,,,,,,,,,,,,,,,,,,,,,,,,,,,,,,,,,,,,,,,,
{6},{989}1x/2x,,,,,,,,,,,,,,,,,,,,,,,,,,,,,,,,,,,,,,,,,,,,,,,,,,,,,,,,,,,,,,,,,,,,,,,,,,,,,,,,,,,,,,,,,,,,,,,,,,,,,,,,,,,,,,,,,,,,,,,,,,,,,,,,,,,,,,,,,,,,,,,,,,,,,,,,,,,,,,,,,,,,,,,,,,,,,,,,,,,,,,,,,,,,,,,,,,,,,,,,,,,,,,3x/8x,,,,,,,,,,,,,,,,,,,,,,,,,,,,,,,,,,,,,,,,,,,,,,,,,,,,,,,,,,,,,,,,,,,,,,,,,,,,,,,,,,,,,,,,,,,,,,,,,,,,,,,,,,,,,,,,,,,,,,,,,,,,,,,,,,,,,,,,,,,,,,,,,,,,,,,,,,,,,,,,,,,,,,,,,,,,,,,,,,,,,,,,,,,,,,,,,,,,,,,,,,,,,,{48}4x/7x,,,,,,,,,,,,,,,,,,,,
{48},,,{605}7x/8x,,,,,,,,,,,,,,,,,,,,,,,,,,,,,,,,,,,,,,,,,,,,,,,,,,,,,,,,,,,,,,,,,,,,,,,,,,,,,,,,,,,,,,,,,,,,,,,,,,,,,,,,{886}7x/8x,,,,,,,,,,,,,,,,,,,,,,,,,,,,,,,,,,,,,,,,,,,,,,,,,,,,,,,,,,,,,,,,,,,,,,,,,,,,,,,,,,,,,,,,,,,,,,,,,,,,,,,,,,,,,,,,,,,,,,,,,,,,,,,,,,,,,,,,,,,,,,,{6}1x/6x,{627}2x/5x,,,,,,,,,,,,,,,,,,,,,,,,,,,,,,,,,,,,,,,,,,,,,,,,,,,,,,,,,,,,,,,,,,,,,,,,,,,,,,,,,,,,,,,,,,,,,,,,,,{844}3x/4x,,,,,,,,,,,,,,,,,,,,,,,,,,,,,,,,,,,,,,,,,,,,,,,,,,,,,,,,,,,,,,,,,,,,,,,,,,,,,,,,,,,,,,,,,,,,,,,,,,,,,,,,,,,,,,,,,,,,,,,,,,,,,,,,,,,,,,,,,,,,,,,,,{649}3x/4x,,,,,,,,,,,,,,,,,,,,,,,,,,,,,,,,,,,,,,,,,,,,,,,,,,,,,,,,,,,,,,,,,,,,,,,
{597},,,,,,,,,,,,,,,,,,,,,,,,,,,,{605}2x/5x,,,,,,,,,,,,,,,,,,,,,,,,,,,,,,,,,,,,,,,,,,,,,,,,,,,,,,,,,,,,,,,,,,,,,,,,,,,,,,,,,,,,,,,,,,,,,,,,,,,,,,,,{621}1x/6x,,,,,,,,,,,,,,,,,,,,,,,,,,,,,,,,,,,,,,,,,,,,,,,,,,,,,,,,,,,,,,,,,,,,,,,,,,,,,,,,,,,,,,,,,,,,,,,,,{8}7x/8x,,,1,8,
{8}1,8,1,8,1,8,1,8,
{16}1,,8,,1,,8,,2,3,4,5,6,7,8,1,
{16}2,3,4,5,6,7,8,1,2,3,4,5,6,7,8,1,
{16}2,3,4,5,6,7,8,1,{2}2b/C1f,{1},,
{2}4h[2:1]/5h[2:1],,
E

MASTER

(175.0){4}5hx[2:1]/4x>5[2:7],,,7,
{1}7p6[2:1],
{4}4h[2:1],,,3,
{1}2q3[2:1],
{4}4h[2:1]/5x<4[2:7],,,1,
{1}1p8[2:1],
{4}5h[2:1],,,8,
{1}8q1[2:1],
{8}5x/4hx[2:1],,,,B2/B3,,,4/5,
{8},4/5h[8:3],,,B6/B7,,,,
{8}5/4h[2:1],,,,B2/B3,,,4/5,
{8},4/5,4/5h[4:1],,B6/B7,,,,
{8}4/3h[2:1],,,,B2/B3,,,4/5,
{8},5/6h[8:3],,,B6/B7,,,,
{8}4/3h[2:1],,,,B2/B3,,,4/5,
{16},,5/6,,5/6h[4:1],,,,B6/B7,,,,4,5,4,5,
{4}Ch[4:7],E1,E2,E8,
{4}E3,E7,E4,E6,
{4},5w1[2:1],,,
{16},,,,,,3x/7x,,,1x/5x,,,,,,,
{16}4b/8b,,,,6h[16:3],,,4h[16:3],,,5,,5,,,,
{16}3,,4,,3h[16:3],,,5h[16:3],,,4,,4,,,,
{16}5x/6x,,5,,7h[16:3],,,5h[16:3],,,6,,6,,,,
{16}4,,3,,2h[16:3],,,4h[16:3],,,3,,4,,5x,,
{16}4x/6x,,7,,7h[16:3],,,6h[16:3],,,5,,4,,3,,
{16}2,,1,,2h[16:3],,,3h[16:3],,,4,,5,,6x,,
{16}7x/8x,,8,,7h[16:3],,,6h[16:3],,,5,,4,,3,,
{4}2-6[8:1],8-4[8:1],1,2b/7b,
{16}3/6,,5,,4h[16:3],,,3h[16:3],,,2,,1,,8,,
{16}7,,6,,7/5h[16:3],,,4h[16:3],,,3,,2,,1,,
{16}2,,3,,4/5h[16:3],,,6h[16:3],,,7,,8,,1,,
{16}2,,3,,2/4h[16:3],,,5h[16:3],,,6,,4b/7b,,,,
{16}4/5,,6,5,6h[8:1],,3,4,3h[8:1],,6,5,6h[8:1],,3,4,
{16}3h[8:1],,7,5,7h[8:1],,2,4,2h[8:1],,7,5,7h[8:1],,2,4,
{8}2,2,1/2,2,2/3,2,2/5,2,
{8}2/7,7,7/8,7,6/7,7,4/7,7,
{16}1x,8,1,8,1,8,1,8,{641}1x,,,,,,,,,,,,,,,,,,,,{639}2,,,,,,,,,,,,,,,,,,,,3,,,,,,,,,,,,,,,,,,,,{641}4,,,,,,,,,,,,,,,,,,,,5,,,,,,,,,,,,,,,,,,,,{639}6,,,,,,,,,,,,,,,,,,,,7,,,,,,,,,,,,,,,,,,,,{641}8,,,,,,,,,,,,,,,,,,,,1x,,,,,,,,,,,,,,,,,,,,{639}2,,,,,,,,,,,,,,,,,,,,3,,,,,,,,,,,,,,,,,,,,{641}4,,,,,,,,,,,,,,,,,,,,5,,,,,,,,,,,,,,,,,,,,{639}6,,,,,,,,,,,,,,,,,,,,7,,,,,,,,,,,,,,,,,,,,{641}8,,,,,,,,,,,,,,,,,,,,
{1}1b/5hx[1:1],
{8}C1f,,,{641}B4/E4/B5/E6,,,,,,,,,,B3/B6,,,,,,,,,,{828}C1f,,,,,,,,,,,,,{641}B2/B7,,,,,,,,,,{16}E2/E8,,,,,,,,,
{16},,,,5/7,,,2/4,,,1/8,,2b/7b,,,,
{16}3x,4,3,4,3hx[8:1],,1,2,1x,2,1h[8:1],,3x,,4/5,,
{16}6x,5,6,5,6hx[8:1],,8,7,8x,7,8h[8:1],,6x,,4/5,,
{16}3x,4,3,4,3hx[8:1],,1,2,1x,2,1h[8:1],,3x,,4/5,,
{16}6x,5,6,5,6hx[8:1],,3,4,,6,5,,3x/5x,,4x/6x,,
{16}6x,5,6,5,6hx[8:1],,8,7,8x,7,8h[8:1],,6x,,4/5,,
{16}3x,4,3,4,3hx[8:1],,1,2,1x,2,1h[8:1],,3x,,4/5,,
{16}6x,5,6,5,6hx[8:1],,8,7,8x,7,8h[8:1],,6x,,4/5,,
{16}3x,4,3,4,3,,6,5,,3,4,,3b/6b,,,,
{16}7x-5[16:1],8,7,8,7x,,3-1[16:1],4,3x,4,3,,8x,,7/8,,
{16}6x-8[16:1],5,6,5,6x,,2-4[16:1],1,2x,1,2,,5x,,5/6,,
{16}7x-5[16:1],8,7,8,7x,,3-1[16:1],4,3x,4,3,,8x,,7/8,,
{16}6x,5,6,5,6x,,2,1,,7,8,,C1f/E3/E7,,,,
{16}2x-4[16:1],1,2,1,2x,,6-8[16:1],5,6x,5,6,,1x,,1/2,,
{16}3x-1[16:1],4,3,4,3x,,7-5[16:1],8,7x,8,7,,4x,,3/4,,
{16}2x-4[16:1],1,2,1,2x,,6-8[16:1],5,6x,5,6,,1x,,1/2,,
{16}3,4,3,4,3,,7,8,,2,1,,2b/7b,,,,
{8}5h[4:1],4,3,2h[4:1],3,4,2b/5b,,
{8}E8,E7,B4/E6,E2,E3,E4/B5,C1f,,
{8}7h[4:1],8,1,2h[4:1],1,8,7,6,
{4}5z1[4:1]/7s3[4:1],,,2b/6b,
{8}4h[4:1],5,6,7h[4:1],6,5,4b/7b,,
{8}E2,E3,E4/B5,E8,E7,B4/E6,C1f,,
{983}1x,,,,,,,,,,,,,,,,,,,,,,,,,,,,,,,,,,,,,,,,,{625}8x,,,,,,,,,,,,,,,,,,,,,,,,,,{983}1x,,,,,,,,,,,,,,,,,,,,,,,,,,,,,,,,,,,,,,,,,8x,,,,,,,,,,,,,,,,,,,,,,,,,,,,,,,,,,,,,,,,,{625}1x,,,,,,,,,,,,,,,,,,,,,,,,,,{983}8x,,,,,,,,,,,,,,,,,,,,,,,,,,,,,,,,,,,,,,,,,2x,,,,,,,,,,,,,,,,,,,,,,,,,,,,,,,,,,,,,,,,,{625}3x,,,,,,,,,,,,,,,,,,,,,,,,,,{983}4x,,,,,,,,,,,,,,,,,,,,,,,,,,,,,,,,,,,,,,,,,7x,,,,,,,,,,,,,,,,,,,,,,,,,,,,,,,,,,,,,,,,,{625}6x,,,,,,,,,,,,,,,,,,,,,,,,,,{983}5x,,,,,,,,,,,,,,,,,,,,,,,,,,,,,,,,,,,,,,,,,{4}Chf[4:1],B2/B7,
{16},,,,1x/8x,,3,4,,6,5,,2b/7b,,,,
{641}3x/8hx[8:1],,,,,,,,,,,,,,,,,,,,{639}E4,,,,,,,,,,,,,,,,,,,,B4,,,,,,,,,,,,,,,,,,,,{641}B5,,,,,,,,,,,,,,,,,,,,{8}E6,{641}3x/8hx[8:1],,,,,,,,,,,,,,,,,,,,{639}E4,,,,,,,,,,,,,,,,,,,,B4,,,,,,,,,,,,,,,,,,,,{641}B5,,,,,,,,,,,,,,,,,,,,{8}E6,{641}3x/8hx[8:1],,,,,,,,,,,,,,,,,,,,{639}E4,,,,,,,,,,,,,,,,,,,,B4,,,,,,,,,,,,,,,,,,,,{641}B5,,,,,,,,,,,,,,,,,,,,{8}E6,{641}3x/8hx[8:1],,,,,,,,,,,,,,,,,,,,{639}E4,,,,,,,,,,,,,,,,,,,,B4,,,,,,,,,,,,,,,,,,,,{641}B5,,,,,,,,,,,,,,,,,,,,{8}E6,
{641}3x/7hx[8:1],,,,,,,,,,,,,,,,,,,,{639}E4,,,,,,,,,,,,,,,,,,,,B4,,,,,,,,,,,,,,,,,,,,{641}B5,,,,,,,,,,,,,,,,,,,,{8}E6,{641}3x/8hx[8:1],,,,,,,,,,,,,,,,,,,,{639}E4,,,,,,,,,,,,,,,,,,,,B4,,,,,,,,,,,,,,,,,,,,{641}B5,,,,,,,,,,,,,,,,,,,,{8}E6,{641}3x/7hx[8:1],,,,,,,,,,,,,,,,,,,,{639}E4,,,,,,,,,,,,,,,,,,,,B4,,,,,,,,,,,,,,,,,,,,{641}B5,,,,,,,,,,,,,,,,,,,,{8}E6,3b/8b,,
{641}6x/1hx[8:1],,,,,,,,,,,,,,,,,,,,{639}E6,,,,,,,,,,,,,,,,,,,,B5,,,,,,,,,,,,,,,,,,,,{641}B4,,,,,,,,,,,,,,,,,,,,{8}E4,{641}6x/2hx[8:1],,,,,,,,,,,,,,,,,,,,{639}E6,,,,,,,,,,,,,,,,,,,,B5,,,,,,,,,,,,,,,,,,,,{641}B4,,,,,,,,,,,,,,,,,,,,{8}E4,{641}6x/1hx[8:1],,,,,,,,,,,,,,,,,,,,{639}E6,,,,,,,,,,,,,,,,,,,,B5,,,,,,,,,,,,,,,,,,,,{641}B4,,,,,,,,,,,,,,,,,,,,{8}E4,{641}6x/2hx[8:1],,,,,,,,,,,,,,,,,,,,{639}E6,,,,,,,,,,,,,,,,,,,,B5,,,,,,,,,,,,,,,,,,,,{641}B4,,,,,,,,,,,,,,,,,,,,{8}E4,
{16}1x/3x,,,,6x/8x,,,,4,5,4,,2b/7b,,,,
{641}6x/1hx[8:1],,,,,,,,,,,,,,,,,,,,{639}E6,,,,,,,,,,,,,,,,,,,,B5,,,,,,,,,,,,,,,,,,,,{641}B4,,,,,,,,,,,,,,,,,,,,{8}E4,{641}6x/1hx[8:1],,,,,,,,,,,,,,,,,,,,{639}E6,,,,,,,,,,,,,,,,,,,,B5,,,,,,,,,,,,,,,,,,,,{641}B4,,,,,,,,,,,,,,,,,,,,{8}E4,{641}6x/1hx[8:1],,,,,,,,,,,,,,,,,,,,{639}E6,,,,,,,,,,,,,,,,,,,,B5,,,,,,,,,,,,,,,,,,,,{641}B4,,,,,,,,,,,,,,,,,,,,{8}E4,{641}6x/1hx[8:1],,,,,,,,,,,,,,,,,,,,{639}E6,,,,,,,,,,,,,,,,,,,,B5,,,,,,,,,,,,,,,,,,,,{641}B4,,,,,,,,,,,,,,,,,,,,{8}E4,
{641}6x/2hx[8:1],,,,,,,,,,,,,,,,,,,,{639}E6,,,,,,,,,,,,,,,,,,,,B5,,,,,,,,,,,,,,,,,,,,{641}B4,,,,,,,,,,,,,,,,,,,,{8}E4,{641}6x/1hx[8:1],,,,,,,,,,,,,,,,,,,,{639}E6,,,,,,,,,,,,,,,,,,,,B5,,,,,,,,,,,,,,,,,,,,{641}B4,,,,,,,,,,,,,,,,,,,,{8}E4,{641}6x/2hx[8:1],,,,,,,,,,,,,,,,,,,,{639}E6,,,,,,,,,,,,,,,,,,,,B5,,,,,,,,,,,,,,,,,,,,{641}B4,,,,,,,,,,,,,,,,,,,,{8}E4,1b/6b,,
{641}3x/8hx[8:1],,,,,,,,,,,,,,,,,,,,{639}E4,,,,,,,,,,,,,,,,,,,,B4,,,,,,,,,,,,,,,,,,,,{641}B5,,,,,,,,,,,,,,,,,,,,{8}E6,{641}3x/8hx[8:1],,,,,,,,,,,,,,,,,,,,{639}E4,,,,,,,,,,,,,,,,,,,,B4,,,,,,,,,,,,,,,,,,,,{641}B5,,,,,,,,,,,,,,,,,,,,{16}E6,,7x,2x,7x,,3x/6x,,{641}B4/E4/B5/E6,,,,,,,,,,B3/B6,,,,,,,,,,{828}C1f,,,,,,,,,,,,,{641}B2/B7,,,,,,,,,,{16}E2/E8,
{4},,,2b/7b,
{16}7x,5,6,4,7x,5,6,4,7x,5,6,4,7x,5,6,4,
{16}7x,5,6,4,7x,5,6,4,7x,5,6,4,7x,5,6,4,
{16}6x,5,7,4,6x,5,7,4,6x,5,7,4,6x,5,7,4,
{16}6x,5,7,4,6x,5,7,4,6x,5,6,5,4b/7b,,,,
{16}2x,4,3,5,2x,4,3,5,2x,4,3,5,2x,4,3,5,
{16}3x,4,2,5,3x,4,2,5,3x,4,2,5,3x,4,2,5,
{16}3x,5,2,4,3x,5,2,4,3x,5,2,4,3x,5,2,4,
{8}3x/4x,3x/4x,2b/5b,,1x/8x,1x/8x,2b/7b,,
{1}4x/5x<4[4:13],
{4}B4/B5,,E1,C1,
{2}E5,B2/B3,
{2}B1/B8,B6/B7,
{2}5x/4x>5[4:11],B4/B5,
{2}B2/B3,B1/B8,
{1}B6/B7,
{1}Chf[1:1],
{4}E3/E7,B1,B8,B7,
{12}B6,,,B5,,,B4,,,B3,,C1,
{4}B2,B1,B8,B7,
{4}B6,B5,{12}E4,{995}E6,,,,,,,,,,,,,,,,,,,,,,,,,,,,,,,,,,,,,,,,,,,,,,,,,,,,,,,,,,,,,,,,,,,,,,,,,,,,,,,,,,,{12}E2,E8,,C1,
{4}B2,B1,B8,B7,
{12}B6,,,B5,,,B4,,,B3,,C1,
{4}B2,B1,B8,B7,
{4}B6,B5,{12}E4,{995}E7,,,,,,,,,,,,,,,,,,,,,,,,,,,,,,,,,,,,,,,,,,,,,,,,,,,,,,,,,,,,,,,,,,,,,,,,,,,,,,,,,,,{12}E2,E6,{995}E3,,,,,,,,,,,,,,,,,,,,,,,,,,,,,,,,,,,,,,,,,,,,,,,,,,,,,,,,,,,,,,,,,,,,,,,,,,,,,,,,,,,{12}E8,
{12}4x,{995}5,,,,,,,,,,,,,,,,,,,,,,,,,,,,,,,,,,,,,,,,,,,,,,,,,,,,,,,,,,,,,,,,,,,,,,,,,,,,,,,,,,,{12}4,6,{995}5,,,,,,,,,,,,,,,,,,,,,,,,,,,,,,,,,,,,,,,,,,,,,,,,,,,,,,,,,,,,,,,,,,,,,,,,,,,,,,,,,,,{12}6,3,{995}4,,,,,,,,,,,,,,,,,,,,,,,,,,,,,,,,,,,,,,,,,,,,,,,,,,,,,,,,,,,,,,,,,,,,,,,,,,,,,,,,,,,{12}3,5,{995}4,,,,,,,,,,,,,,,,,,,,,,,,,,,,,,,,,,,,,,,,,,,,,,,,,,,,,,,,,,,,,,,,,,,,,,,,,,,,,,,,,,,{12}5,
{12}3x,{995}4,,,,,,,,,,,,,,,,,,,,,,,,,,,,,,,,,,,,,,,,,,,,,,,,,,,,,,,,,,,,,,,,,,,,,,,,,,,,,,,,,,,{12}3,6,{995}5,,,,,,,,,,,,,,,,,,,,,,,,,,,,,,,,,,,,,,,,,,,,,,,,,,,,,,,,,,,,,,,,,,,,,,,,,,,,,,,,,,,{12}6,4,{995}5,,,,,,,,,,,,,,,,,,,,,,,,,,,,,,,,,,,,,,,,,,,,,,,,,,,,,,,,,,,,,,,,,,,,,,,,,,,,,,,,,,,{12}4,6,{995}5,,,,,,,,,,,,,,,,,,,,,,,,,,,,,,,,,,,,,,,,,,,,,,,,,,,,,,,,,,,,,,,,,,,,,,,,,,,,,,,,,,,{12}6,
{12}3x,{995}5,,,,,,,,,,,,,,,,,,,,,,,,,,,,,,,,,,,,,,,,,,,,,,,,,,,,,,,,,,,,,,,,,,,,,,,,,,,,,,,,,,,{12}4,6,{995}5,,,,,,,,,,,,,,,,,,,,,,,,,,,,,,,,,,,,,,,,,,,,,,,,,,,,,,,,,,,,,,,,,,,,,,,,,,,,,,,,,,,{12}6,4,{995}6,,,,,,,,,,,,,,,,,,,,,,,,,,,,,,,,,,,,,,,,,,,,,,,,,,,,,,,,,,,,,,,,,,,,,,,,,,,,,,,,,,,{12}3,5,{995}3,,,,,,,,,,,,,,,,,,,,,,,,,,,,,,,,,,,,,,,,,,,,,,,,,,,,,,,,,,,,,,,,,,,,,,,,,,,,,,,,,,,{12}4,
{12}3x,{995}5,,,,,,,,,,,,,,,,,,,,,,,,,,,,,,,,,,,,,,,,,,,,,,,,,,,,,,,,,,,,,,,,,,,,,,,,,,,,,,,,,,,{12}3,6,{995}4,,,,,,,,,,,,,,,,,,,,,,,,,,,,,,,,,,,,,,,,,,,,,,,,,,,,,,,,,,,,,,,,,,,,,,,,,,,,,,,,,,,{12}6,5,{995}6,,,,,,,,,,,,,,,,,,,,,,,,,,,,,,,,,,,,,,,,,,,,,,,,,,,,,,,,,,,,,,,,,,,,,,,,,,,,,,,,,,,{12}4,5,{995}3,,,,,,,,,,,,,,,,,,,,,,,,,,,,,,,,,,,,,,,,,,,,,,,,,,,,,,,,,,,,,,,,,,,,,,,,,,,,,,,,,,,{48}4,,,,
{16}3x/E8,B7,B6,E6,E4,B3,B2,E2,1x/E5,B5,B6,E7,E1,B1,B2,E3,
{16}3x/E1,B8,B7,E7,E5,B4,B3,E3,1x/E8,B7,B6,E6,5x/E2,B2,B3,E4,{1},,
(260.0){16}1x,8x,1x,8x,1x,8x,1x,,7x/2x-6[8:1],,,,2x/8x-4[8:1],,,,
{4}8x/1x-6[8:1],1x/5x-1[8:1],5x/3x-7[8:1],3x/6x-1[8:1],
{8}2x/6x,,2x/8x,2x/8x,3b/7b-4[8:1],,7x/1x-5[8:1],,
{8}1x/5x,,4x/6x,4x/6x,3b/7b,,1x/8x,,
{16}2x/5x,,3x,4x,3x,,5x,,4x/6x-8[8:1],,,,6x/3x-1[8:1],,,,
{4}3x/7x-3[8:1],7x/2x-6[8:1],2x/8x-4[8:1],1x/8x,
{8}2x/6x,2x/6x,2x/6x,2x/6x,1b/5b,,6h[4:1],,
{4}8h[4:1],1h[4:1],3h[4:1],5,
{4}C1f/E3/E7,,2x/7x-3[8:1],7x/1x-5[8:1],
{4}1x/8x-3[8:1],8x/4x-8[8:1],4x/6x-2[8:1],6x/3x-8[8:1],
{8}3x/7x,,1x/7x,1x/7x,6b/2b-5[8:1],,2x/8x-4[8:1],,
{8}4x/8x,,3x/5x,3x/5x,2b/6b,,1x/8x,,
{16}4x/7x,,6x,5x,6x,,4x,,5x/3x-1[8:1],,,,3x/6x-8[8:1],,,,
{4}6x/2x-6[8:1],2x/7x-3[8:1],7x/1x-5[8:1],1x/8x,
{8}3x/7x,3x/7x,3x/7x,3x/7x,4b/8b,,,,
{2}2b/3b,6b/7b,
{16},,,,1x,8x,1x,8x,1x,8x,1x,8x,1x,8x,1x,,
{16},,{641}6x,,,,,,,,,,{685}B6,,,,,,,,,,,,,,,,,,,,,,,,,,,,,,,,,,,,,,,,,,,,,,,,,,,,,,,,,,,,,,,,,,,,,,,,,,,,,,,,,,,,,,,,,,,,,,,,,,,,,,,,,,,,,,,,,,,,,,,,,,,,,,,,,,,,{828}2x,,,,,,,,,,,,,{685}B2,,,,,,,,,,,,,,,,,,,,,,,,,,,,,,,,,,,,,,,,,,,,,,,,,,,,,,,,,,,,,,,,,,,,,,,,,,,,,,,,,,,,,,,,,,,,,,,,,,,,,,,,,,,,,,,,,,,,,,,,,,,,,,,,,,,,{641}7x,,,,,,,,,,{685}B7,,,,,,,,,,,,,,,,,,,,,,,,,,,,,,,,,,,,,,,,,,,,,,,,,,,,,,,,,,,,,,,,,,,,,,,,,,,,,,,,,,,,,,,,,,,,,,,,,,,,,,,,,,,,,,,,,,,,,,,,,,,,,,,,,,,,{641}3x,,,,,,,,,,{685}B3,,,,,,,,,,,,,,,,,,,,,,,,,,,,,,,,,,,,,,,,,,,,,,,,,,,,,,,,,,,,,,,,,,,,,,,,,,,,,,,,,,,,,,,,,,,,,,,,,,,,,,,,,,,,,,,,,,,,,,,,,,,,,,,,,,,,{828}5x,,,,,,,,,,,,,{500}B5,,,,,,,,,,,,,
{6},{641}1x,,,,,,,,,,{685}B1,,,,,,,,,,,,,,,,,,,,,,,,,,,,,,,,,,,,,,,,,,,,,,,,,,,,,,,,,,,,,,,,,,,,,,,,,,,,,,,,,,,,,,,,,,,,,,,,,,,,,,,,,,,,,,,,,,,,,,,,,,,,,,,,,,,,{641}8x,,,,,,,,,,{685}B8,,,,,,,,,,,,,,,,,,,,,,,,,,,,,,,,,,,,,,,,,,,,,,,,,,,,,,,,,,,,,,,,,,,,,,,,,,,,,,,,,,,,,,,,,,,,,,,,,,,,,,,,,,,,,,,,,,,,,,,,,,,,,,,,,,,,{828}4x,,,,,,,,,,,,,{1000}B4,,,,,,,,,,,,,,,,,,,,,,,,,,,,,,,,,,,,,,,,,,,,,,,,,,,,,,,,,,,,,,,,,,,,,,,,,,,,,,,,,,,,,,,,,,,,,,,,,,,,,,,,,,,,,,,,,,,,,,,,,,,,,,,,,,,,,,,,,,,,,,,,,,,,,,,,,,,,,,,,,,,,,,,,,,,,,,,,,,,,,,,,,,,,,,,,,,,,,,,,,,,,,,,,,,,,,,,,,,,,,,,,,,,,,,,,,,,,,,,,,,,,,,,,,,,,,,,,,,,,,,,,,,,,,,,,,,,,,,,,,,,,,,,,,,,,,,,,,,,,,,,,,,,,,,,,,,,,,,,,,,,,,,,,,,,,,,,,,,,,,,,,,,,,,,,,,,,,,,,,,,,,,,,,,,,,,,,,,,,,,,,,,,,,,,,,,,,,,,,,,
{16},{641}6x,,,,,,,,,,{828}E6,,,,,,,,,,,,,{633}B5,,,,,,,,,,,,,,,,,,,,,,,,,,,,,,,,,,,,,,,,,,,,,,,,,,,,,,,,,,,,,,,,,,,,,,,,,,,,,,,,,,,,,,,,,{641}1x,,,,,,,,,,E1,,,,,,,,,,{553}B8,,,,,,,,,,,,,,,,,,,,,,,,,,,,,,,,,,,,,,,,,,,,,,,,,,,,,,,,,,,,,,,,,,,,,,,,{765}7x,,,,,,,,,,,,,,{641}E7,,,,,,,,,,{625}B6,,,,,,,,,,,,,,,,,,,,,,,,,,,,,,,,,,,,,,,,,,,,,,,,,,,,,,,,,,,,,,,,,,,,,,,,,,,,,,,,,,,{641}2x,,,,,,,,,,{828}E2,,,,,,,,,,,,,{8}B1,{641}7x,,,,,,,,,,E8,,,,,,,,,,{633}B8,,,,,,,,,,,,,,,,,,,,,,,,,,,,,,,,,,,,,,,,,,,,,,,,,,,,,,,,,,,,,,,,,,,,,,,,,,,,,,,,,,,,,,,,,{641}3x,,,,,,,,,,{828}E3,,,,,,,,,,,,,{653}B2,,,,,,,,,,,,,,,,,,,,,,,,,,,,,,,,,,,,,,,,,,,,,,,,,,,
{597},,,,,,,,,,,,,,,,,,,,,,,,,,,,{641}6x,,,,,,,,,,E6,,,,,,,,,,{860}B5,,,,,,,,,,,,,,,,,,,,,,,,,,,,,,,,,,,,,,,,,,,,,,,,,,,,,,,,,,,,,,,,,,,,,,,,,,,,,,,,,,,,,,,,,,,,,,,,,,,,,,,,,,,,,,,,,,,,,,,,,{641}3x,,,,,,,,,,E4,,,,,,,,,,{8}B4,{641}8x,,,,,,,,,,E1,,,,,,,,,,{637}B1,,,,,,,,,,,,,,,,,,,,,,,,,,,,,,,,,,,,,,,,,,,,,,,,,,,,,,,,,,,,,,,,,,,,,,,,,,,,,,,,,,,,,,,,,,,,,,,,,,,,,,,,,,,,,,,,,,,,,,,,,,,,,,,,,,,,,,,,,,,,,,,,,,,,,,,,,,,,,,,,,,,,,,,,,,,,,,,,,,,,,,,,,,,,,,,,,,,,,,,,,,,,,,,,,,,,,,,,,,,{16}4x,5x,4x,5x,
{16}4x,5x,4x,5x,4x,5x,4x,5x,4x,5x,4x,5x,4x,5x,4x,5x,
{16}4x,5x,4x,5x,4x,5x,4x,5x,4hx[1250:39],5hx[1250:39],4hx[1250:39],5hx[1250:39],4hx[1250:39],5hx[1250:39],4hx[1250:39],5hx[1250:39],
{16}4hx[1250:39],5hx[1250:39],4hx[1250:39],5hx[1250:39],4hx[1250:39],5hx[1250:39],4hx[1250:39],5hx[1250:39],{983}4hx[625:13],,,,,,,,,,,,,,,,,,,,,,,,,,,,,,,,,,,,,,,,,{625}3hx[625:13],,,,,,,,,,,,,,,,,,,,,,,,,,{983}2hx[625:13],,,,,,,,,,,,,,,,,,,,,,,,,,,,,,,,,,,,,,,,,1hx[625:13],,,,,,,,,,,,,,,,,,,,,,,,,,,,,,,,,,,,,,,,,{625}8hx[625:13],,,,,,,,,,,,,,,,,,,,,,,,,,{983}7hx[625:13],,,,,,,,,,,,,,,,,,,,,,,,,,,,,,,,,,,,,,,,,6hx[625:13],,,,,,,,,,,,,,,,,,,,,,,,,,,,,,,,,,,,,,,,,{625}5hx[625:13],,,,,,,,,,,,,,,,,,,,,,,,,,{983}4hx[625:13],,,,,,,,,,,,,,,,,,,,,,,,,,,,,,,,,,,,,,,,,3hx[625:13],,,,,,,,,,,,,,,,,,,,,,,,,,,,,,,,,,,,,,,,,{625}2hx[625:13],,,,,,,,,,,,,,,,,,,,,,,,,,{983}1hx[625:13],,,,,,,,,,,,,,,,,,,,,,,,,,,,,,,,,,,,,,,,,
{983}8hx[625:13],,,,,,,,,,,,,,,,,,,,,,,,,,,,,,,,,,,,,,,,,{625}7hx[625:13],,,,,,,,,,,,,,,,,,,,,,,,,,{983}6hx[625:13],,,,,,,,,,,,,,,,,,,,,,,,,,,,,,,,,,,,,,,,,5hx[625:13],,,,,,,,,,,,,,,,,,,,,,,,,,,,,,,,,,,,,,,,,{625}4hx[625:13],,,,,,,,,,,,,,,,,,,,,,,,,,{983}3hx[625:13],,,,,,,,,,,,,,,,,,,,,,,,,,,,,,,,,,,,,,,,,2hx[625:13],,,,,,,,,,,,,,,,,,,,,,,,,,,,,,,,,,,,,,,,,{625}1hx[625:13],,,,,,,,,,,,,,,,,,,,,,,,,,{983}8hx[625:13],,,,,,,,,,,,,,,,,,,,,,,,,,,,,,,,,,,,,,,,,7hx[625:13],,,,,,,,,,,,,,,,,,,,,,,,,,,,,,,,,,,,,,,,,{625}6hx[625:13],,,,,,,,,,,,,,,,,,,,,,,,,,{983}5hx[625:13],,,,,,,,,,,,,,,,,,,,,,,,,,,,,,,,,,,,,,,,,{2}4b/C1f,{1},,
{2}4h[2:1]/5h[2:1],,
E

Re:MASTER


名前:
コメント:

タグ:

+ タグ編集
  • タグ:
最終更新:2022年09月19日 17:34