| アーティスト |
曲:kz(livetune)/歌:オンゲキシューターズ |
BASIC
(135.0){1},,,,,,,,,
{2}8x,8,
{2}1,1,
{2}2,2,
{1}3h[2:1],
{2}3,3,
{2}4,4,
{2}5,5,
{1}4x/5x,
{2}6,6,
{1}6,
{2}7,7,
{1}7,
{2}8,8,
{1}8,
{2}1,1,
{2}8,8b,
{2}1,1,
{1}1,
{2}2,2,
{1}2,
{2}3,3,
{1}3,
{2}4,4,
{1}4b/5b,
{1}B3,
{1}B2,
{1}B1,
{1}B8,
{1}B7,
{1}B6,
{1}Chf[1:1],,
{4}8,8,8,,
{4}7,7,7,,
{4}6,6,6,,
{4}5,5,5,,
{4}4,4,4,,
{4}3,3,3,,
{1}2h[2:1],
{2}1/8,1/8,
{1}1-4[4:3],,
{2}6,6,
{1}6,
{2}5,5,
{1}5,
{2}4,4,
{1}4,
{1}3h[1:1],,
{2}2,2,
{2}2,2,
{2}1,1,
{2}1,1,
{2}8x,8,
{2}8x,8,
{1}7h[1:1],,
{1}7-3[4:3],,
{1}2-6[4:3],,
{2}7,7,
{2}8,8,
{2}1,1,
{2}1b/8b,1hx[4:3]/8hx[4:3],{1},
{4}1,1,1,,
{4}2,2,2,,
{4}3,3,3,,
{4}4,4,4,,
{4}5,5,5,,
{1}4h[2:1]/5h[2:1],
{2}3/6,2/7,
{1}1-4[4:3]/8-5[4:3],,
{1}3x/6x,
E
ADVANCED
(135.0){1},
{1}6hx[1:1],
{1}5h[1:1],
{1}4h[1:1],
{2}3,3x/4x,
{1}3h[1:1],
{1}4h[1:1],
{1}5h[1:1],
{2}6,5x/7x,
{4}6,7,8,1/2,
{4}3,2,1,7/8,
{4}7,7,8,8,
{4}1/8,1/8,2x/7x,,
{4}3,2,1,7/8,
{4}6,7,8,1/2,
{4}2,2,1,1,
{4}1/8,1/8,2x/7x,,
{4}6h[2:1],,5,4,
{4}3h[2:1],,4,4,
{4}5h[2:1],,4,5,
{4}6,6,5x/6x,,
{2}6h[2:1],5,
{2}3h[2:1],4,
{4}6h[2:1],,5,4,
{4}4/5,3/6,2x/7x,,
{4}3h[2:1],,4,5,
{4}6h[2:1],,5,5,
{4}4h[2:1],,5,4,
{4}3,3,3x/4x,,
{2}3h[2:1],4,
{2}6h[2:1],5,
{4}3,3,2,2,
{4}1/8,2/7,3x/6x,,
{2}B3,B5,
{1}B7,
{2}B6,B4,
{1}B2,
{2}B3,B4/B5,
{2}B3/B6,B2/B7,
{1}Chf[8:7],,
{4}2x,1x/2x,8,1/2,
{4}3,3/4,2x/5x,,
{4}7,7/8,1,7/8,
{4}6,5/6,4x/7x,,
{4}3h[2:1],4,5,4/6,
{4}7h[4:1],8,1b/7b,,
{4}7,7,8,8,
{4}1,1,1/8,1/8,
{1}2hx[2:3]/7hx[1:1],,
{1}2^5[8:3],
{1}6v3[8:3],
{1}2-6[8:3],
{4}7,7,1x/8x,,
{1}7^4[8:3],
{1}3v6[8:3],
{1}7-3[8:3],
{4}2,2,1x/8x,,
{1}7-5[8:3]/8-4[8:3],
{1}1-5[8:3]/2-4[8:3],
{1}2-5[8:3]/7-4[8:3],
{4}3,3,4x/5x,,
{1}3-1[8:3]/4-8[8:3],
{1}5-1[8:3]/6-8[8:3],
{1}4qq1[8:9]/5pp8[8:9],,
{2}B3,B5,
{1}B4,
{2}B6,B4,
{1}B5,
{2}B3,B5,
{2}B4,B6,
{2}B4/B5,B3/B6,
{1}Chf[2:1],
{4},1/2,8,7/8,
{4}6,5/6,4x/7x,,
{4}6,7/8,1,1/2,
{4}3,3/4,2x/5x,,
{4}6h[2:1],5,4,3/4,
{4}2h[4:1],1,3b/8b,,
{4}2,3,4,5,
{4}6,7,8,1x/8x,
{1}2hx[2:3]/7hx[1:2],,,
E
EXPERT
(135.0){1},
{1}2>6[2:1],
{4}7h[4:3],,,5,
{1}7<3[2:1],
{4}2h[4:3],,,4,
{4}2,3/5,,3/5,
{4},4/6,,4/6,
{1}4^1[8:3]/5^8[8:3],
{1}Chf[2:1],
{4}1,2/8,3,3/4,
{4}5,4/6,7,7/8,
{4}2,1/2,7,7/8,
{16}2h[4:1]/7h[4:1],,,,,,,,4x/5x,,,4x/5x,,,3x/6x,,
{4},1b/8b,7,5/6,
{4}4,3/5,6,4/7,
{16}3x/4x,,,3x/4x,,,4x/5x,,5x/6x,,,5x/6x,,,4x^1[8:3]/5x^8[8:3],,
{4},,,2b/7b,
{4}3h[4:3],4,,4,
{4}B2/B5,B1/B6,E1/E7,,
{4}6h[4:3],5,,5,
{4}B4/B7,B3/B8,E1/E3,B1/B2,
{4},E1,,B7/B8,
{8},,C1,,,,1x/8xqq4[16:9],1x/8x,
{8},,,,,,2/7,7/2>7[8:3],
{4},,,1b/8b,
{4}2,2/4,2,2/4,
{4}2,1/2<6[8:3],,,
{4}7,5/7,7,5/7,
{8}7,,7/8,,1/8,,2,2h[2:1],
{8},,4,4h[8:3],,,5,5h[2:1],
{8},,7,7h[8:3],,,8,,
{8}1/8,,2/7,,3/6,,4/5<4[4:3],4/5,{1},
{1}8/1pp1[8:3],
{8}7h[4:1]/8h[4:1],,,7/8,,7/8,,5/6qq8[16:7],{1},
{8}1h[4:1]/2h[4:1],,,1/2,,1/2,,3/4,
{4}3/4,2,1,8,
{8}7,,6,,5,,4>5[16:11],4x,{1},
{16},,1x/8x,,,1x/8x,,,5x/6x,,,3x/4x,,,4x/5x,,
{8}2b/7b,,1/8,1,7,7,3h[4:1],,
{8}4,4,1,1h[4:1],,2p6[16:3],,,
{8},,5,5,3,3,8h[4:1],,
{8}1,1,5,5h[4:1],,6-1[16:3],,,
{8},,2/8,,6,6,5/7,,
{16}2h[16:3],,,3h[16:3],,,4x,,5h[16:3],,,6h[16:3],,,7x>6[8:5],,
{1}7x,
{4}2b/7b-3[2:1],,,1s5[2:3],{1},,
{1}5h[8:7]/7h[4:5],
{8}5,,,5x/7x,,4x/5x,,2h[8:11]/4h[1:1],{1},
{8}4,,,2x/4x,,4x/5x,,6/3h[8:5],
{2},4h[2:1],
{2}5h[2:1],6h[2:1],
{2}8h[2:1],1h[2:1],
{4}3x,4x/5x,6x,2x/7x,
{4}3,3/5,3,3/4,
{4}3,3/5,3,4/5,
{4}6,4/6,6,5/6,
{4}6,4/6,7,1/8,
{8}2h[4:1],1,1,,2h[4:1],4,4,,
{8}7h[4:1],8,8,,7h[4:1],5,{4}5s1[8:7],{1},
{16},,3x/6x,,,3x/6x,,,1b,,,8b,,,1b,,
{2},B2,
{2}B3,B4,
{2}B5,B6,
{2}B7,B8,
{2}Ch[1:3],E1,
{2}E8,E2,
{2}B8,B1,
{16},,,,,,,,7x/8x,,,1x/2x,,,3h[8:1]/6h[8:1],,
{8},,1b/8b,,2,2,6h[4:1],,
{8}5,5,8,8h[4:1],,7q3[16:3],,,
{8},,4,4,6,6,1h[4:1],,
{8}8,8,4,4h[4:1],,3-8[16:3],,,
{8},,1/7,,3,3,2/4,,
{16}7h[16:3],,,6h[16:3],,,5x,,4h[16:3],,,3h[16:3],,,2x<3[8:5],,
{1}2x,
{4}2b/7b-3[2:1],,,1s5[2:3],{1},,
{1}3b/6b,
E
MASTER
(135.0){1},
{1}4xqq2[4:1]*pp6[4:1],
{4}5h[4:3],,6,7,
{1}8/5qq3[4:1]*pp7[4:1],
{4}4h[4:3],,3,2,
{1}1/4qq2[4:1]*pp6[4:1],
{2}C1/B7/B8,B1/C1/B2,
{1}E3/E7/Ch[4:3],
{4}1h[2:1]/8h[2:1],,,3/6,
{1}1hx[4:3]/4x>5[2:1],
{8}1/8,,2/7,,6,3,4/5,,
{8}5/6,,4/3h[2:1],,2,2,2,,
{16}3/4,,,,4/5,,,,B7/E8/B8,,,B1/E2/B2,,,4/5,,
{8}4/5-1[8:1],,5x/6x,,2,3,4,5,
{16}6/7,,,,2/3,,,,5h[16:3],,,6h[16:3],,,7,,
{16}2b/7b,,,3/6,,,4/5,,1x/5x,,,3x/7x,,,1bpp4[8:3]/5bpp8[8:3],,
{4},,,2/7,
{8}4,4,5,5,6/3h[4:3],,4,4,
{8},2,2,,1/5h[4:1],2,3,4,
{8}5,5,4,4,3/6h[4:3],,5,5,
{8},7,7,,3/6,,3/4,4/3h[2:1],
{8},,B2,B3,,,5/6,5/6h[2:1],
{8},,B7,B6,,,4/5,2b/7b,
{8},1,1^4[4:1],,4^7[4:1],,7^2[4:1],,
{8},,,8z4[4:1],8,,,,
{8}1x,2,3,4,4/5h[4:3],,8,8,
{8},4,4qq2[4:1]*pp6[4:1],,,,,,
{8}8,7,6,5,5/4h[1:1],,1,1,
{8},5,6,7,8,,1/2,1/2h[2:1],
{8},,C1,E5,,,7/8,8/7h[2:1],
{8},,C1,E5,,,3/4,2/5h[8:3],
{8},4,4,,3/6,,4qq1[4:3]/5pp8[4:3],4/5,{1},
{4}4/5h[4:3],B7/E8,E1/B1/B8,B2/E2,
{8}6V48[4:1],,3,2,1,,5,4,
{4}3-1[4:1],1-6[4:1],6-3[4:1],3,
{8}8,,1,1,2/7,,4,5,
{8}6/2h[8:7],,4,4,5,5,6,6-8[8:1],
{8},3-8[8:1],,5-8[8:1],,1>7[1:1],1,Chf[1:1],{1},
{16},,8,,,3/6,,,C1,,,,,,,,
{8}8b/4b^2[8:1],,6^8[8:1],6,3^1[8:1],3,5h[1:1],,
{8}B7/B8,,B1/B2,,4,4,4-1[8:1],,
{8}8^6[8:1],,1^3[8:1],1,7^5[8:1],7,4h[1:1],,
{8}B1/B2,,B7/B8,,5,5,5-8[8:1],,
{8}3h[4:3],,8,7,6,5,4,3,
{16}2h[16:3],,,3h[16:3],,,4,,7h[16:3],,,6h[16:3],,,5,,
{4}4^1[4:1]/5^8[4:1],,,5/4^1[8:1],
{4}5^8[8:1],4-1[8:1],5h[1:2],,
{4}E8,E2,E7,E3,
{4}B1/B8,C1,B4/B5,C1/B3/B6,
{4}2hx[1:1],5,4,3,
{8}1,,5,4h[4:1],,5,,2x/7hx[8:9],
{4},B7/B8,B5/B6,B3/B4,
{8}B1/B2,,5/6,4/7,,2/5,,7x^4[8:1],
{4},C1,1^4[8:1],C1,
{4}6-8[4:1],8-3[4:1],3-6[4:1],6,
{8}1,,2/7,2h[8:3]/7h[8:3],,,,,
{4}E5,E3/E7,E1/E5,C1/B3/B6,
{8}1x/8x,,3/5-7[8:1],2,1,,6/4-2[8:1],7,
{8}8,,3/5,3/5h[4:1],,4h[4:1],,5,
{2}5>1[8:1]*p1[8:1],4<8[8:1]*q8[8:1],
{8}5^2[8:1],,1,8,7,5/6,,,
{8}3/5h[4:1],2,1h[2:1],,E5,C1,E1,,
{8}4/7h[2:1],5,6-2[8:1],,,,1/8,7/2V41[4:3],
{4},Chf[8:5],,,
{16},,1/2,,,5/6,,,C1,,,,,,,,
{1}5hx[1:1]/4x-1[2:1],
{1}4^1[2:1]*^7[2:1],
{1}5h[1:1]/4-1[2:1],
{1}4pp4[2:1]*qq4[2:1],
{1}5h[1:1]/4-1[2:1],
{1}4qq3[2:1]*pp5[2:1],
{2}C1,5h[2:1]/4V61[4:1],
{16},,,,,,,,6/7,,,2/3,,,{32}2V48[8:1]/7V51[8:1],,,,,,,,,
,,Cf,,,,,,,,,{8}2/7,3/6,4/5h[1:1],,
{8}B1/B8,,B2/B3,,4,4,4-1[8:1],,
{8}8^6[8:1],,1^3[8:1],1,7^5[8:1],7,4h[1:1],,
{8}B2/B3,,B6/B7,,5,5,5-8[8:1],,
{8}3h[4:3],,8,7,6,5,4,3,
{16}2h[16:3],,,3h[16:3],,,4,,7h[16:3],,,6h[16:3],,,5,,
{4}4^1[4:1]/5^8[4:1],,,5/4^1[8:1],
{4}5^8[8:1],4-1[8:1],5h[1:2],,
{4}E8,E2,E7,E3,
{4}E6,E4,E5,C1/B3/B6,
{1}2/7,
E
Re:MASTER
(135){4},,,,5w1[4:3]/6,,,,,,,2/8,4w8[4:3]/3,,,,,,,7/1,6w2[4:3]/5,,,,,,,1/2,3w7[4:3]/4,,,,,,,1b,
{4}7h[2:1],E6/B5/A5,2h[2:1],E4/B4/A4,8h[2:1],E6/B6/A6,1h[2:1],E4/B3/A3,7h[2:1],E6/B5/A5,2h[2:1],E4/B4/A4,8w4[8:1],,{16}3/5,,,4/6,,,3/7,,{8}B6/B5f/B4,,2b/8b,,6,5,4,3h[4:1],,1,1,,{16}1/2,,,1/8,,,7/8,,7/8,,,5/7,,,4/5,,1/2,,,2/4,,,4/5,,{16},,6,5,,3,4,,4/5,,,,3/6,,,,
{4}2b/5b,B3/E4/D4,,B3/E3/D3,2/4,B3/E4/D4,,D6/E6/B5,4/7,B6/E6/D6,,D7/E7/B6,5/7,5/7,6w2[8:1],,4w8[8:1]b,,3w7[8:1],,5w1[8:1]b,,6,{8}4/7,4h[4:1]/7h[4:1],,,1/8,,2/5,,3/6,3h[8:5]/6,,,,,A1/D2/A2,,A8/D8/A7,,{4}4/7,B6/E6/D6,5,B8/E8/D8,5/7,B6/E6/D6,5,B4/E4/D4,2/5,B3/E4/D4,4,B1/E2/D2,2/4,2/4,3w7[8:1],,5w1[8:1]b,,6w2[8:1],,4w8[8:1]b,,3,{8}2/5,2/5,,4/7,4/7,,3/6,,Chf[4:3]/B2/B7,,{1},
{4}1/8,1/8,1/2,7/8h[4:5],,B5/E6/D6,B8/E8/D8,B6/E7/D7,,1/8,8/7,2/1h[4:5],,B4/E4/D4,B1/E2/D2,B3/E3/D3,,1/8,3/6,{8}4/5,4/5h[4:1],,8,,5/4h[4:1],,1,,1/8,,6,6,4/5,{16}3,4,3,,3/4,,2/5,,,,1/8,,,5/7,,,2/4,,,4/5,,,2/8,,
{8}3b/7b,,1w5[8:1]/5,1/5w1[8:1],,,,,2/8,2/8,3/7,4/6h[4:1],,5,8,,A7/E7/A6,,8w4[8:1]/4,8/4w8[8:1],,,,,7/1,7/1,6/2,5/3h[4:1],,4,1,,A8/D1/A1,,3,2,1,8,7,6,{16}6h[16:3],,,7h[16:3],,,8,,3h[16:3],,,2h[16:3],,,1w5[8:3],,{4}1,,,4/6,A2/E3/B2,A7/E7/B7,A8/D1/A1,4x/5x,1b/8bw4[4:5]b,,,,,,,3/5,
{8}1/2,,3/4,,5/6,,7/8,,1/2,,3/4,3/4,,2w6[8:1]/5,,2b,,,6/5,,4/3,,2/1,,8/7,,6/5,6/5,,7w3[8:1]/4,,7b,,,3/4,,5/6,,7/8,,1/2,,3/5,3/5,,6h[4:1],,8,8h[4:1],,1,1h[4:1],,2,2,,
4w8[8:1],,D5/A4f/D4,,5w1[8:1]b,,D5/A5f/D6,,2bx/8bx,,7,6,5,4,3,2,2h[4:1],,4,4h[4:1],,5,5,,{2}5x/6xw2[8:1],4x/3xw7[8:1],5x/6xw2[8:1],4x/3xw7[8:1],{8}5x/6x,,8b,,1/7,1/7,1/7,,5w1[8:1]b/6,,,,8x/2x,8x/2x,8x/2x,,{4}3h[4:3]/5,A6/D6/E6,A7/E7/B7,A8/D1/E1,{16},,5/7,,,2/4,,,{4}1h[16:3]/8h[8:3],,5xw1[4:3],,,,,,D1/A1/D2,2/8,4w8[4:3]/3,,,,,,D1/A8/D8,7/1,5/6w2[4:3],,,,,,A1/D2/A2,2/3,4/3w7[4:3],,,,,,{16}5/7,,,1/8,,,2/4,,
{8},,1bw5[8:1]/4b,1b/4bw8[8:1],,,,,2/8,2/8,3,4/7w3[8:1],4w8[8:1]/7,,,,1bx/7bx,,5w1[8:1]/8,5/8w4[8:1],,,,,1/7,1/7,6,2w6[8:1]/5,2/5w1[8:1],,,,
2bx/8bx,,3,2,1,8,7,6,{16}6h[16:3],,,7h[16:3],,,8,,3h[16:3],,,2h[16:3],,,1w5[8:3],,{4}1,,,4/6,A2/E3/B2,A7/E7/B7,A8/D1/A1,4x/5x,1b/8bh[4:3],,,,{16},,7,5,,2,4,,4/5,,,,8b/1bw5[2:3]*w5[2:3],E
- Re:MASTER譜面を追加しました。修正等ありましたらよろしくお願いします。 -- Sugar (2026-03-05 19:30:03)
最終更新:2026年03月29日 15:01