アットウィキロゴ

Jump!! Jump!! Jump!!

アーティスト 曲:宮崎誠/歌:オンゲキシューターズ

BPM BASIC ADVANCED EXPERT MASTER Re:MASTER
183 3 7 9 12 -

EXPERT MASTER Re:MASTER
譜面制作者 サファ太 ロシェ@ペンギン -

BASIC

(183.0){1},,,,,,,,,,,,,
{1}1,
{1}1,
{1}8,
{1}8x,
{1}7,
{1}7,
{1}6,
{1}6,
{1}5,
{1}5,
{1}4x/5x,
{1}4,
{1}4,
{1}3,
{1}3,
{1}2,
{1}2,
{1}1h[1:1],,
{2}2,2,
{1}2,
{2}3,3,
{1}3,
{2}4,4,
{1}4,
{2}5,5,
{1}4b/5b,
{1}B6,
{1}B7,
{1}B8,
{1}B1,
{1}B2,
{1}B3,
{1}B4/B5,
{1}B3/B6,
{1}B2/B7,
{1}B1/B8,
{1}Chf[1:1],,
{4}1,1,1,,
{4}2,2,2,,
{4}3,3,3,,
{4}4,4,4,,
{1}5h[2:1],
{1}4h[2:1],
{2}4/5,4/5,
{4}4x,5x,4x,,
{4}5,5,5,,
{4}6,6,6,,
{4}7,7,7,,
{4}8,8,8,,
{1}1h[2:1],
{1}1x/8x,
{1}8h[2:1],
{1}1x/8x,
{2}1,1,
{2}8,8,
{1}1h[1:1]/8h[1:1],
{2},1/8,
{1}1-5[4:3],,
{1}8-4[4:3],,
{1}2-5[4:3],,
{1}7-4[4:3],,
{1}3h[1:1],,
{1}3/4,
{1}3/4,
{1}5/6,
{1}5/6,
{2}7,7,
{2}8,8,
{1}1h[2:1]/8h[2:1],
{4}1x,8x,1b,,
{4}1,1,1,,
{4}2,2,2,,
{4}3,3,3,,
{4}4,4,4,,
{1}5h[2:1],
{1}4x/6x,
{1}4h[2:1],
{1}3x/5x,
{2}4/5,4/5,
{2}3/6,3/6,
{2}2/7,2/7,
{2}1/8,1/8,
{8}1hx[8:31]/8hx[8:31],,,,,,,{1},,,,
E

ADVANCED

(183.0){1},
{1}3hx[1:1],
{1}4h[1:1],
{1}5h[1:1],
{2}6,6,
{1}6h[1:1],
{1}5h[1:1],
{1}4h[1:1],
{2}3,2,
{1}1pp4[4:11]/8qq5[4:11],,,,
{2}3h[2:1],4h[2:1],
{2}5h[2:1],6h[2:1],
{2}7h[2:1],8h[2:1],
{4}1,1,2b/7b,,
{4}2,1,7/8,,
{4}7,8,1/2,,
{4}3,2,1,8,
{4}7,5/6,4x/7x,,
{4}7,8,1/2,,
{4}2,1,8,7,
{4}8,1x/8x,2b/7b,,
{2}3h[2:1],4,
{2}6h[2:1],5,
{4}4h[2:1],,5,6,
{4}7,6,5x/6x,,
{2}6h[2:1],5,
{2}3h[2:1],4,
{4}5h[2:1],,4,3,
{4}2,3,3x/4x,,
{4}3,4,5/6,,
{4}6,5,3/4,,
{4}2,1,8,7,
{4}6,5,4x/5x,,
{4}6,5,3/4,,
{4}3,4,5/6,,
{4}7,7,8,8,
{4}1,1/8,2x/7x,,
{1}2>6[8:7],
{4},,7x,7x,
{1}7<3[8:7],
{4},,2x,2x,
{1}1-4[4:3],
{4},5x,4b/5b,,
{4}6,6,7,7,
{4}8,8,1,1,
{4}2,2,3,3,
{4}4/5,4/5,3/6,2/7,
{2}1x/8x,1x/8x,
{1}2b/7b,
{4}2,2,1/8,1/8,
{4}7,7,1/8,1/8,
{4}2,3,4,4/5,
{4}6,5/6,4x/7x,,
{4}6h[2:1],,5,4,
{4}3h[2:1],,4,5,
{4}5x,5x,4hx[4:1]/5hx[4:1],,
{4}4x/5x,3x/6x,2b/7b,,
{4}7,7,1/8,1/8,
{4}2,2,1/8,1/8,
{4}7,6,5,4/5,
{4}3,3/4,2x/5x,,
{4}2,2,1x,1x,
{1}1hx[2:1]/8hx[2:1],
{4}8,8,1x,1x,
{1}2hx[1:1]/7hx[1:1],
{4},,6,6,
{4}5,5,4,4,
{1}4-1[8:5]/5-8[8:5],
{4},,1/8,1/8,
{2}2x/7x,B3,
{2}B5,B4,
{2}B6,B7,
{1}C1,
{2}B6,B4,
{2}B2,B8,
{2}B6,B4/B5,
{2}B3/B6,B2/B7,
{1}Ch[1:1],,
{1}4hx[2:1]/6hx[2:1],
{1}3hx[2:1]/5hx[2:1],
{1}4hx[1:1]/5hx[2:1],
{2},3x/6x,
{4}6h[2:1],,5,4,
{4}3h[2:1],,4,5,
{4}5x,5x,4hx[4:1]/5hx[4:1],,
{4}4x/5x,3x/6x,2b/7b,,
{4}7,8,1/2,1/2,
{4}3,3,2/4,2/4,
{4}3,4,5,6,
{4}5/6,5/6,4x/7x,4hx[4:1]/7hx[4:1],
{4},,8x,8x,
{1}1hx[2:1]/8hx[2:1],
{4}1,1,8x,8x,
{1}2hx[1:1]/7hx[1:1],
{4},,2,2,
{4}1,1,8,8,
{1}1^4[8:5]/8^5[8:5],
{4},,4x/5x,3x/6x,
{1}2x>8[4:11]/7x<1[4:11],,,
{8},,,,1x/8x,1x/8x,1x/8x,2b/7b,
E

EXPERT

(183.0){1},
{2}B6,B5,
{2}B4,B3,
{2}E6/B6,B3/E4,
{2}B7/E8,B2/E2,
{4}C1,,3,2,
{4}1,8,7,6,
{1}3h[1:1]/6h[1:1],
{4},,3/6,5/4pp1[2:3],{1},,
{2}6,6,
{4}6,6^3[4:1],,,
{2}2x/4x,5x/7x,
{2}1x/2x,7x/8x,
{2}2x/4x,5x/7x,
{4}3hx[4:1]/6hx[4:1],,3x/6x,1b/8b,
{4}2,3/4,6h[4:1],5,
{4}7,5/6,3h[4:1],4,
{8}4/6,,5,5x,,4x/6x,,3x/5x,
{8},4,4,5x,,2x/7x,,,
{4}3/4,2,5/6,7,
{8}4x/5x,4x^1[8:3]/5x^8[8:3],,,,,,,
{8}2hx[8:3]/7hx[8:3],,,,,4x/5x,4x/5x,,
{4}6/3h[4:5],6,5,5,
{4}4,4,5,4,
{4}3/5,3,4/6,6p4[4:3],{1},
{4}3h[2:1],4,4,4/5,
{4}6h[2:1],5,5,4/3q5[4:3],{1},
{4}3h[4:1]/6h[4:1],,3/6,4/5,
{4}3h[1:1],4,5,6,
{4}7h[4:3],5,4,3,
{4}2,2/4,7,7/5>1[8:5],
{4},,,8,
{4}6x,4/5,3,4/5,
{4}7,5/6,2,3x-8[4:1]/4x-7[4:1],
{4},,1/6,2/5,
{8}3h[4:1]/4h[4:1],,,,2x/7x,2x/7x,,,
{4}4/5h[2:1],,E5,C1,
{4}6h[2:1],,5x,4x/7x,
{4}5/4h[2:1],,E5,C1,
{4}3h[2:1],,4x,2x/5x,
{4}6h[2:1],,B5,C1,
{2}2h[4:1]/7h[4:1],C1f,
{4}2hx[4:1],3h[4:1],4,4/5,
{4}7h[4:1],6h[4:1],5,4/5,
{4}7/2h[4:1],3h[4:1],4h[4:1],5s1[4:3],{1},
{2}B2/B3/E4,B6/E6/B7,
{4}B1/C1f/B8,,,1x/8x,
{8}2b/7b,,6x,5x/6x,,3x,3x/4x,,
{4}2/5,1/8,5/6,2/7,
{4}5/3h[4:1],8,4/6h[4:1],1,
{8}2x/8x,,4x/7x,4x/7x,,2x/5x,2x/5x,,
{4}4,2/6,5,3/7h[4:1],
{4}5h[4:1],4h[4:1],3,2/5,
{8}3hx[2:1]/6hx[2:1],,,,,,,2x/7x,
{4},4x/5x,C1f/B2/B7,,
{8}1x/8x,,2x,1x/2x,,7x,7x/8x,,
{4}1/6,4/5,1/2,3/8,
{4}4/6h[4:1],1,5/3h[4:1],8,
{8}1/7,,2x/5x,2x/5x,,4x/7x,4x/7x,,
{4}2/6h[2:1],2,4,5/6,
{1}C1f,
{4}7/3h[2:1],7,5,3/4,
{1}C1f,
{4}4/5h[2:1],,E5,C1,
{4}E1,E2/E8,E3/E7,4xqq1[1:1]/5xpp8[1:1],{1},
{4},,2x/7x,6h[4:7]/5xqq1[2:3],{1},,
{2}2x/4x,5x/7x,
{2}1x/3x,6x/8x,
{4}2/4,2,4/5,5,
{4}2/4,2,4/6,6,
{4}E4/B4,B6/E7,E2/B2,,
{4}B7/E8,B2/B3,B5/E6,,
{1}Ch[1:1],
{4},,2x/7x,2x/7x,
{1}5h[2:1]/6^8[8:3],
{1}4h[2:1]/3^1[8:3],
{1}4^1[8:3]/5^8[8:3],
{2}1h[4:1]/8h[4:1],2h[4:1]/7h[4:1],
{4}3/6,5/2h[4:1],1,1/8,
{4}2/7,1/6h[4:1],5,3/6,
{8}4hx[2:1]/5hx[2:1],,,,,,,1x/8x,
{4},3x/6x,C1f/B2/B7,,
{8}1x/8x,,6x,5x/7x,,3x,2x/4x,,
{4}5/6,3/8,3/4,1/6,
{4}5/6h[4:1],1,4/3h[4:1],8,
{8}4/6,,3x/8x,3x/8x,,1x/6x,1x/6x,,
{4}7/2h[2:1],7,5,3/4,
{1}B1/C1f/B6,
{4}2/7h[2:1],2,4,5/6,
{1}C1f/B3/B8,
{4}4/6h[4:1],1,5/3h[4:1],8,
{4}3/5h[4:1],8,6/4h[4:1],1pp5[1:1]*qq5[1:1],{1},
{4},,1/7,5/3>6[1:3],
{1}Ch[1:3],,,
{8},,,,1/8,1/8,1/8,2b/7b,
E

MASTER

(183.0){1},
{1}5h[4:3]/4-2[2:1],
{1}5h[4:3]/4-1[2:1],
{1}5h[4:3]/4-8[2:1],
{1}5h[4:3]/4-1[2:1],
{4}6h[1:2],,B5,B6,
{4}B7,B8,B1,B2,
{1}4w8[4:3],
{4},,3/5,4/6,
{1}2pp1[4:5]/7qq8[4:5],,
{2}6,6,
{4}4/6,5/3<7[4:1],,,
{2}2hx[4:1]/8hx[4:1],3h[4:1]/7h[4:1],
{4}4h[4:1]/6h[4:1],,5,3/8,
{2}2/4-6[8:1],2/4-7[8:1],
{4}2/4,5/7,3/6,1b/8b,
{8}2/5,,3/4,4/3h[2:1],,1<5[8:3],,,
{4},2h[4:1],1h[4:1],8,
{8}4/7,,5/6,5/6h[2:1],,8>4[8:3],,,
{8},,7,7/5-2[8:1]*-8[8:1],,,,,
{4}3-1[8:1],7-5[8:1],2-8[8:1],6-4[8:1],
{8}3,3,,1p4[8:1]/8^5[8:1],,,,,
{8}1/3,,5,6/8,,2x/7x,1b/8b,,
{4}5x/3hx[4:11],5,5,5,
{4}4,4,4,4,
{4}2,1,8,7,
{2}C1/B7/B8,B1/C1/B2,
{4}4x/6hx[4:11],4,4,4,
{4}5,5,5,5,
{4}7,8,1,2,
{4}C1/B2/B7,,4/5,4/5,
{4}2h[4:1],4,6h[4:1],4,
{4}3h[4:1],5,7h[4:1],5,
{4}2h[4:1],4h[4:1],5h[4:1],7h[4:1],
{8}8,,1/8,1^4[8:1]/8^5[8:1],,,,,
{8}3h[8:3],,4,4,,2/5,2/5,,
{8}6h[8:3],,5,5,,4/7,7/4q1[4:1]*<8[4:1],,
{8},,,2,3,,4/5,,
{8}2/7,,,6,7,1b/8b,,,
{8}8x/6hx[4:5],,7,,5,5,,7,
{4}7,7,B4/B5,2x/7x,
{8}1x/3hx[4:5],,2,,4,4,,2,
{8},4,4,,2x/7x,,B4/B5,,
{8}8x/6hx[4:5],,7,,7,,5,5,
{8},7,7,,2x/7x,2x/7x,,,
{4}5h[4:1],6h[4:1],7,1/8,
{4}4h[4:1],3h[4:1],2,1/8,
{2}5h[4:1]/4-8[8:1],4h[4:1]/5-1[8:1],
{8}2/7,,4,5,3,6,2,7,
{2}1-3[8:1]/8-4[8:1],1-5[8:1]/8-6[8:1],
{8}2x/7x,2xV41[4:1]/7xV58[4:1],,,,,2b/7b,,
{8}5/3-8[8:1],,6,6-1[8:1],,3,3>6[4:1],,
{8}5h[8:3],,,4,3,2,1/8-4[8:1],,
{4}1-3[8:1],7-5[8:1],4-1[8:1]*-7[8:1],,
{8}5/8,,5/6,5q4[4:1]/6<3[4:1],,,,,
{4}5h[2:1],7,4h[2:1],2,
{4}6h[4:1],8h[4:1],1h[4:1],3,
{8}C1/B6/B7,,,,C1/B2/B3,,,1/7-5[8:1],
{16},,4,,4w8[8:1],,,,4x,C1f,,,,,,,
{8}1x/8x,,7,6/8,,2,1/3V14[4:1]*pp4[4:1],,
{8},,,2,1,8,7,,
{4}3/6-1[8:1],5,3/6-1[8:1],5,
{8}3/6-1[8:1],,4,4,,4/5,4^1[4:1]/5^8[4:1],,
{8},,,,2/7,2V48[4:1]/7V51[4:1],,,
{16},C1f,,,,,,,,,,,,,,,
{8}2x/4x,,5x/7x,,2/7,2V48[4:1]/7V51[4:1],2/7,,
{16},C1f,,,,,,,,,,,,,,,
{4}3h[4:1],5h[4:1],7h[4:1],1h[4:1],
{4}2-4[8:1],1-5[8:1],8-6[8:1],1>8[4:3],{1},
{4}4/8,,2x/5x,4x/7x,
{2}1hx[2:3]/5x-2[8:1],5x-8[8:1],
{4}5x-7[8:1],,5,6,
{2}B3/B4/B5/B6,C1/B2/B7,
{8}1/8,,2x/7x,,3,6,4/5,,
{2}6h[1:1],B7/B8,
{2}3h[1:1],B1/B2,
{4}5h[4:1],6h[4:1],7h[1:1],,
{4}B4,C1,B8,,
{1}C1f/B2/B3/B6/B7,
{4}2V41[4:1]/7V58[4:1],,,2b/7b,
{8}5-8[8:1],,4,4^1[8:1],,5,5^8[8:1],,
{8},,,4/5,4/5,3/6,2/7,,
{8}8x/1hx[4:3],,6,6,5,5,4,,
{8}2/7,,3/4,3>6[4:1]/4p5[4:1],,,,,
{4}4hx[2:1],2,5h[2:1],7,
{4}3h[4:1],1h[4:1],8h[4:1],6,
{8}C1/B2/B3,,,,C1/B6/B7,,,8/2-4[8:1],
{8},5,5w1[8:1],,{983}5x,,,,,,,,,,,,,,,,,,,,,,,,,,,,,,,,,,,,,,,,,{995}C1f,,,,,,,,,,,,,,,,,,,,,,,,,,,,,,,,,,,,,,,,,,,,,,,,,,,,,,,,,,,,,,,,,,,,,,,,,,,,,,,,,,,,,,,,,,,,,,,,,,,,,,,,,,,,,,,,,,,,,,,,,,,,,,,,,,,,,,,,,,,,,,,,,,,,,,,,,,,,,,,,,,,,,,,,,,,,,,,,,,,,,,,,,,,,,,,,,,,,,,,,,,,,,,,,,,,,,,,,,,,,,,,,,,,,,,,,,,,,,,,,,,,,,,,,,,,,,,,,,,,,,,,,,,,,,,,,,,,,,,,,,,,,,,,,,,,,,,,,,,,,,,,,,,,,,,,,,,,,,,,,,,,,,,,,,,,,,,,,,,,,,,,,,,,,,,,,,,,,,,,,,,,,,,,,,,,,,,,,,,,,,,,,,,,,,,,,,,,,,,,,,,,,,,,,,,,,,,,,,,,,,,,,,,,,,,,,,,,,,,,,,,,,,,,,,,,,,,,,
{8}1x/8x,,7,6/8,,2,1/3V14[4:1]*pp4[4:1],,
{8},,,2,1,8,7,,
{4}6/3-8[8:1],4,6/3-8[8:1],4,
{8}6/3-8[8:1],,5,5,,4/5,4^1[4:1]/5^8[4:1],,
{8},,,,3/7,3V51[4:1]/7V51[4:1],,,
{16},C1f,,,,,,,,,,,,,,,
{8}2x/4x,,5x/7x,,2/6,2V48[4:1]/6V48[4:1],2/6,,
{16},C1f,,,,,,,,,,,,,,,
{4}6h[2:1],C1,3h[2:1],C1,
{4}8-2[8:1],4-6[8:1],7-3[8:1],5qq1[4:3],
{1}8h[4:3],
{4}7/2V48[4:1],,5x-1[8:1],4x-8[8:1],
{16}5<4[4:11],C1f,,,,,,,,,,,,,,,{1},,
{8},,,,2/7,2/7,2/7,2b/7b,
E

Re:MASTER


名前:
コメント:

タグ:

+ タグ編集
  • タグ:
最終更新:2026年01月08日 10:41