アットウィキロゴ

タテマエと本心の大乱闘

アーティスト 曲:鯨井国家/歌:藍原 椿(CV:橋本 ちなみ)

BPM BASIC ADVANCED EXPERT MASTER Re:MASTER
180 5 7+ 10 12+ -

EXPERT MASTER Re:MASTER
譜面制作者 はっぴー ロシェ@ペンギン -

BASIC

(180.0){1},
{2}4,4,
{1}4,
{2}5,5,
{1}5,
{2}4,4,
{1}4/5,
{2}5,5,
{1}4h[2:1]/5h[2:1],
{2}4,4,
{2}3,3,
{2}2,2,
{1}1h[2:1]/8h[2:1],
{2}8,8,
{2}7,7,
{2}6,6,
{1}4h[2:1]/5h[2:1],
{4}5,5,5,,
{4}6,6,6,,
{4}7,7,7,,
{1}1h[2:1]/8h[2:1],
{4}1,1,1,,
{4}2,2,2,,
{1}3b,
{4}5x,4x,5x,,
{1}B4,
{1}B3,
{1}B2,
{1}B1,
{1}B8,
{1}B7,
{1}B6,
{1}B5,
{1}B3/B4,
{1}B5/B6,
{1}Chf[1:1],,
{4}8,8,8,,
{4}7,7,7x/8x,,
{4}6,6,5x/6x,,
{4}4,5,4,,
{4}4,4,4,,
{4}3,3,3x/4x,,
{4}2,2,1x/2x,,
{4}1/8,1/8,1b/8b,,
{4}1,1,1,,
{4}2,2,1x/2x,,
{4}3,3,3x/4x,,
{4}5,4,5,,
{1}4h[2:1],
{1}5h[2:1],
{2}3x/4x,5x/6x,
{4}3/4,3/4,3b/4b,,
{1}2-6[4:3],,
{1}8hx[2:1],
{1}1hx[2:1],
{1}8-4[4:3],,
{1}1hx[2:1],
{1}8hx[2:1],
{1}1x/8x,
{1}2x/7x,
{1}3x/6x,
{1}4b/5b,
{1}B5,
{1}B4/B6,
{1}B3/B5,
{1}B4,
{1}B5/B6,
{1}B3/B4,
{1}Chf[1:1],,
{4}1,1,2,2,
{4}3x/4x,3x/4x,3x/4x,,
{4}5x/6x,5x/6x,5x/6x,,
{4}4,5,4,,
{1}5h[2:1]/6h[2:1],
{1}3h[2:1]/4h[2:1],
{2}5x/6x,5x/6x,
{2}3x/4x,3x/4x,
{4}5x,5x,4x,4x,
{4}4x/5x,4x/5x,3b/6b,,
{2}4,4,
{2}5,5,
{4}6,6,6,,
{4}7,7,7/8,,
{2}6,6,
{2}5,5,
{4}4,4,4,,
{4}3,3,2,2,
{1}1b/8b,
E

ADVANCED

(180.0){1},
{4}3,3,3,,
{4}5,5,5,,
{4}4,4,4,,
{4}6,6,5/6,,
{4}7,7,7,,
{4}1,1,1,,
{2}7/8,1/2,
{4}8x,1x,1x/8x,,
{2}3h[2:1],4,
{2}6h[2:1],5,
{2}3h[2:1],4,
{4}2,2,1,1x,
{2}7h[2:1],8,
{2}2h[2:1],1,
{2}8h[2:1],1h[2:1],
{4}8,8,1/8,,
{2}7h[2:1],8,
{2}2h[2:1],1,
{1}3h[2:1]/4h[2:1],
{4}5,5,6,6x,
{2}7h[2:1],5,
{2}2h[2:1],4,
{1}3h[2:1]/6h[2:1],
{4}4/5,4/5,3x/6x,,
{2}E3,E4,
{2}E5,E6,
{2}E7,E8,
{1}Ch[2:1],
{2}B2/E2,B6/B7,
{2}B4/E4,C1,
{2}B7/E8,B2/B3,
{1}Ch[2:1],
{4}E7,B6,B5,,
{4}E4,B3,B2,,
{2}E1,E2/E8,
{1}C1f/B3/B6,
{4}1,2,3,4,
{4}5/6,5/6,4x/7x,,
{4}3/4,3/4,2x/5x,,
{4}5,4,3/6,,
{4}8,7,6,5,
{4}3/4,3/4,2x/5x,,
{4}5/6,5/6,4x/7x,,
{2}1h[4:1]/8h[4:1],2b/7b,
{4}3,2,1/2,1/2,
{4}7/8,7/8,1x/6x,,
{4}1/2,1/2,3x/8x,,
{2}4h[4:1]/5h[4:1],3x/6x,
{4}3,3/4,6,5/6,
{4}3,3/4,2x/5x,,
{2}4x/7x,2x/5x,
{2}1h[4:1]/8h[4:1],2b/7b,
{4}3h[2:1],4,5,,
{4}6h[2:1],5,4,,
{2}2x/4x,5x/7x,
{4}3,3,2/4,,
{4}2h[2:1],1,8,,
{4}7h[2:1],8,1,,
{2}2x/4x,5x/7x,
{4}4,5,3x/6x,,
{2}E3,B1/E2,
{2}E7,B8/E8,
{4}E6,E5,E4,,
{1}C1/B3/B6,
{1}2-5[2:1],
{1}6-1[2:1],
{1}2^5[2:1],
{4}6,6,6,,
{1}8-4[2:1],
{1}3-7[2:1],
{2}8h[2:1],1h[2:1],
{4}8,1/8,2b/7b,,
{4}3,2/4,6,5/7,
{4}7/8,1/6,2x/5x,,
{4}1/2,3/8,4x/7x,,
{4}4/5,3/6,2x/7x,,
{4}2,1/2,7,7/8,
{4}2,1/2,3x/8x,,
{2}1x/6x,3x/8x,
{2}2x/5x,4x/7x,
{2}5hx[4:1]/6hx[4:1],3hx[4:1]/4hx[4:1],
{4}4x/5x,3x/6x,2b/7b,,
{4}2,3,4,5,
{4}4,3,2/5,,
{4}7,6,5,4,
{4}5,6,4x/7x,,
{4}3h[4:1],4,2/5,,
{4}6h[4:1],5,4/7,,
{4}2h[4:1],1,3/8,,
{4}2x/7x,2x/7x,3x/6x,4x/5x,
{1}2b/7b,
E

EXPERT

(180.0){4}C1f,,1/8,3/6,
{16}5/7,,,,2/4,,,,8h[16:3],,,6h[16:3],,,5,,
{8},1,1,,2/8,,5/6,,
{16}2/4,,,,5/7,,,,1h[16:3],,,3h[16:3],,,4,,
{8},8,8,1,1,,3/6,,
{16}2/4,,,,5/7,,,,1h[16:3],,,3h[16:3],,,4,,
{8},8,8,,1/7,,3/4,,
{16}5/7,,,,2/4,,,,8h[16:3],,,6h[16:3],,,5,,
{4}5,3/4,1/2,7/8,
{4}6h[2:7],5,5,5,
{4}5,3,7,1,
{4}1,1,1,1,
{4}7,3,4,E5,
{4}3h[2:7],4,4,4,
{4}4,6,2,8,
{4}8,8,8,8,
{4}2,6,6,4/5,
{16}3/5,,,,4/6,,,,2h[16:3],,,3h[16:3],,,4,,
{8},8,8,1,2,,3/5,,
{16}4/6,,,,3/5,,,,7h[16:3],,,6h[16:3],,,5,,
{8},1,1,8,7,,E5,,
{16}4/6,,,,3/5,,,,7h[16:3],,,6h[16:3],,,5,,
{8},1,1,8,7,,4/6,,
{8}5/2h[8:7],,,,,,,C1f,
{2},3/6,
{2}5^8[4:1],1^4[4:1],
{4}5,6,5/7h[4:1],5,
{2}4^1[4:1],8^5[4:1],
{4}4,3,2/4,1,
{4}8h[2:1],6,1h[2:1],3,
{4}7h[2:1],5,2h[2:1],4,
{4}5h[2:1],6,4h[2:1],3,
{4}5,3/6,2/7,,
{4}1h[4:1],2h[4:1],3h[4:1],4h[4:1],
{4}5h[4:1],6h[4:1],7h[4:1],8h[4:1],
{8}1,1,1/8,,3/6,,4/5,,
{4}2x/7x,,,3/6,
{4}7/8,4/5,1/2,4/5,
{4}7/8,5/6,4/7,3/4,
{8}1/2,,3/4,,2/5,,6,6,
{4}5,1/8,2b/6b,,
{4}3/7h[4:1],5,6/2h[4:1],4,
{4}1/2,3/4,2/5,5/6,
{4}7/8,5/6,4/7,2/5,
{16}1x/8x,,,1x/8x,,,2x/7x,,2x/7x,,,,,,,,
{4}1/2,4/5,7/8,4/5,
{4}1/2,3/4,2/5,5/6,
{8}7/8,,5/6,,4/7,,3,3,
{4}4,1/8,3b/7b,,
{4}5/6h[4:1],2,4/3h[4:1],7,
{8}7/8,,5/6,,4/7,,8,8,
{8}1-5[4:1],,,7,7-3[4:1],,,2,
{8}2-6[4:1],,,8x,8x,,,2,
{8}2,8,,1h[4:1],,4,4,,
{8}7h[4:1],,5,5,,4,4/5,,
{8}6-1[4:1],,,3,3-8[4:1],,,6,
{8}6-1[4:1],,,3,3h[4:1],,4,4,
{8}1,1,,8h[4:1],,5,5,,
{8}2h[4:1],,4,4,,5,4/5,,
{8}3-8[4:1],,,6,6-1[4:1],,,3,
{4}3,3/4,5/6,7/8,
{4}8h[4:1],7h[4:1],6h[4:1],5h[4:1],
{4}4h[4:1],3h[4:1],2h[4:1],1h[4:1],
{8}8,8,1/8,,3/6,,4/5,,
{4}2b/7b,,,4/5,
{4}B6,B5,B4,B3,
{4}E7,E6,E4,E3,
{4}B6/B7,B5,B4,B2/B3,
{4}E7/E8,E6,E4,E2/E3,
{4}B6/B7,B5,B4,B2/B3,
{4}E7,E6,E4,E3,
{4}B5/B6,B3/B4,C1,E5,
{4}1x/8x,3x/6x,4x/5x,2b/7b,
{2}1-5[8:1]/2-4[8:1],7-5[8:1]/8-4[8:1],
{4}3/4,5/6,4/8,2/5,
{4}5/6,3/4,1/5,4^1[4:1]/5^8[4:1],
{2},1b/8b,
{4}7h[4:1],5h[4:1],6h[4:1],4h[4:1],
{8}8h[4:1],,2h[4:1],,6,,8,8,
{16}1x,,,1x,,,1x,,8x,,,8x,,,8x,,
{16}1/7,,,1/7,,,1/7,,2/8,,,2/8,,,2/8,,
{16}7/8,,,1/6,,,2/5,,1/2,,,3/8,,,4/7,,
{16}1/8,,,3/6,,,4b/5b,,4b/5b,,,,,,,,
{16}2/4,,,,5/7,,,,4h[16:3],,,2h[16:3],,,1,,
{8},8,8,,1/7,,3/4,,
{16}5/7,,,,2/4,,,,5h[16:3],,,7h[16:3],,,8,,
{8},1,1,8,8,,3/6,,
{16}5/7,,,,2/4,,,,5h[16:3],,,7h[16:3],,,8,,
{8},1,1,,2/8,,5/6,,
{16}2/4,,,,5/7,,,,4h[16:3],,,2h[16:3],,,1,,
{4}1,7/8,5/6,3/4,
{1}1b/5b,
E

MASTER

(180.0){4}4xz8[4:1]/5xs1[4:1],,,2/7,
{16}3/4,,,,4/5,,,,5/6h[16:3],,,7h[16:3],,,8^5[8:1],,
{16},,3,,1,,,,2/5,,3,4,3,,,,
{16}4/5,,,,5/6,,,,6/7h[16:3],,,8h[16:3],,,1<5[4:1],,
{8},4,3,2,4x/1x-5[8:1],,1x/8x,,
{16}5/6,,,,4/5,,,,4/3h[16:3],,,2h[16:3],,,1^4[8:1],,
{16},,6,,8,,,,4/7,,6,5,6,,,,
{16}4/5,,,,3/4,,,,3/2h[16:3],,,1h[16:3],,,4,,
{4}5x/7x-3[8:1],7x/1x-5[8:1],1x/8x,2x/7x,
{16}6/4h[4:1],,,,3,,,,4,,,5,,,6^3[4:1],,
{8},3,2,1,1/8,,1/5,,
{16}3/4,,,,4/5,,,,5/6,,,5q4[16:5]/6<3[16:5],,,,,
{4},,5/6,C1,
{16}6/4h[4:1],,,,3,,,,4,,,5,,,6h[4:1],,
{8},4,5,4,3^1[8:1]/6^4[8:1],,,,
{2}2p6[8:1]*q6[8:1],7p3[8:1]*q3[8:1],
{4}2-6[8:1],8-4[8:1],5,3/6,
{16}3/5h[4:1],,,,6,,,,5,,,4,,,3V15[8:3],,
{8},8,8,7,6,,2/4,,
{16}5/6,,,,4/5,,,,3/4,,,3h[16:9]/4qq7[16:5],,,,,
{4},,1/5,C1,
{16}3/5h[4:1],,,,6,,,,5,,,4,,,3h[8:3],,
{8},5,5,,3-7[8:1]/4-6[8:1],,,,
{8}1h[2:1]/5h[2:1],,,,,,4/5,2b/7b,
{16},,3,4,2,,6,5,7,,1/8,,2x/7x,,,,
{4}2-7[8:1],6-3[8:1],2-7[8:1],6,
{16}5-1[8:1]/8-4[8:1],,,,,,,,2,1,2,,4x/7x,,,,
{4}6-1[8:1],2-5[8:1],7-4[8:1],3-8[8:1],
{16}5-2[8:1]*-8[8:1],,,,,,,,1,8,1,,2x/7x,,,,
{8}3/4,2,3/4,5,3/4,2,3/4,6,
{8}4/5,3,4/5,6,4/5,3,4/5,7,
{8}5/6,4,5/6,7,5/6,4,5/6,7,
{16}4/5,,3,,4/5,,6,,4,5,4,,1x/6x,,,,
{4}4/3h[2:1],2,1-4[8:1]*^4[8:1],,
{4}5/6h[2:1],7,8-5[8:1]*^5[8:1],,
{8}1,1,8z4[4:1],8,2,,3,,
{16}B3/E3/B6/E7,,,,,,,,4,5,4,,2x/7x,,,,
{16}6/3h[16:3],,,1,3,,4/5,,3/6h[16:3],,,8,6,,4/5,,
{8}3xv5[8:1]/7xv5[8:1],,3xv1[8:1]/7xv1[8:1],,C1,,8,7,
{8}2xv4[8:1]/6xv4[8:1],,2xv8[8:1]/6xv8[8:1],,C1,,1,2,
{16}3/7,,6,5,,3,4,,3-8[8:1]/6-1[8:1],,,,,,,,
{16}6/3h[16:3],,,1,3,,4/5,,3/6h[16:3],,,8,6,,4/5,,
{8}3xv5[8:1]/7xv5[8:1],,3xv1[8:1]/7xv1[8:1],,C1,,8,7,
{4}2xv4[8:1]/6xv4[8:1],2xv8[8:1]/6xv8[8:1],C1,1/8,
{16}2/7,,6,5,,3,4,,1b/5b,,,,5,,4,,
{16}6/3h[16:3],,,1,3,,4/5,,3/6h[16:3],,,8,6,,4/5,,
{8}3xv5[8:1]/7xv5[8:1],,3xv2[8:1]/7xv8[8:1],,C1,,1,8,
{8}2xv4[8:1]/6xv4[8:1],,2xv1[8:1]/6xv7[8:1],,C1,,8,1,
{16}2/7,,6,5,,3,4,,3-8[8:1]/6-1[8:1],,,,,,,,
{8}5h[4:1]/6h[4:1],,,5/6,4/7-3[4:1],,3-8[4:1],,
{8}8<4[4:1],,4z8[4:1],,8,,3,2,
{16}1b/7b-4[16:1],,,1,,,1,,8b/2b-5[16:1],,,8,,,8,,
{16}1b/7b-4[16:1],,,1,,,1,,2b/8b,,,,7,,6,,
{8}4x/5x,3,2,1/5V37[4:1],,2,2,,
{8}8/4V62[4:1],,7,7,,5,4,3,
{16}8/2-5[16:1],,,7,,,6,,7/5-2[16:1],,,8,,,1,,
{16}8/2-5[16:1],,,7,,,6,,4/5,,2b/7b,,2b/7b,,,,
{8}3x/4x,5,6,7/4V62[4:1],,8,8,,
{8}2/5V37[4:1],,1,1,,4,5,6,
{16}1/7-4[16:1],,,2,,,3,,2/4-7[16:1],,,1,,,8,,
{4}7x-5[8:1],7x/8x-4[8:1],8x/1x-3[8:1],1x/2x,
{4}4/3h[2:1],2,1-4[8:1]*^4[8:1],,
{4}5/6h[2:1],7,8-5[8:1]*^5[8:1],,
{8}1,1,8z4[4:1],8,2,,3,,
{8}B3/E3/B6/E7,,,,,4/5,6/3h[1:2],,
{4}C1,C1,C1,C1,
{4}C1,C1,C1,C1,
{4}3/4,2/3,1/2,1/8,
{4}2v3[4:1]/7v6[4:1],,,3/6h[1:2],
{4}C1,C1,C1,C1,
{4}C1,C1,C1,C1,
{4}5/6,6/7,7^5[8:1]/8p4[8:1],,
{4}2x-4[8:1],2x/1x-5[8:1],1x/8xw4[8:1],8b,
{16}6x/3hx[16:3],,,1,3,,4/5,,3/6h[16:3],,,8,6,,4/5,,
{8}3xv4[8:1]/7xv6[8:1],,3xv2[8:1]/7xv8[8:1],,C1,,1,8,
{8}2xv3[8:1]/6xv5[8:1],,2xv1[8:1]/6xv7[8:1],,C1,,8,1,
{16}2/7,,6,5,,3,4,,3-8[8:1]/6-1[8:1],,,,,,,,
{8}5h[4:1]/6h[4:1],,,5/6,4/7-3[4:1],,3-8[4:1],,
{8}8<4[4:1],,4z8[4:1],,8,,3,2,
{16}1b/7b-4[16:1],,,2,,,3,,8b/2b-5[16:1],,,7,,,6,,
{16}1b/7b-4[16:1],,,2,,,3,,8b/2b-5[16:1],,,7,,,6,,
{16}7b-3[16:1]/8b-4[16:1],,,7/8,,,,,1b-5[16:1]/2b-6[16:1],,,1/2,,,,,
{16}1b/8b,,,5/7,,,2/4,,1b/8b,,,,,,,,
{16}2/4,,,,1/2pp6[8:3],,,,7,,,8,,,1,,
{16},,5/7,,5/7,,,,2/5,,3,4,3,,,,
{16}4/5,,,,5/6,,,,6/7h[16:3],,,8h[16:3],,,1-5[8:1],,
{8},4,3,2,1x-5[8:1]/6x-8[8:1],,1x/6x,,
{16}5/7,,,,8/7qq3[8:3],,,,2,,,1,,,8,,
{16},,2/4,,2/4,,,,4/7,,6,5,6,,,,
{16}4/5,,,,3/4,,,,3/2h[16:3],,,1h[16:3],,,8,,
{4}8x/7x-3[8:1],7x/1x-5[8:1],1x/8-3[8:1],4x/8x,
{1}2b/8b,
E

Re:MASTER


名前:
コメント:

タグ:

+ タグ編集
  • タグ:
最終更新:2026年03月29日 13:11