アットウィキロゴ

Pretender

アーティスト Official髭男dism

BPM BASIC ADVANCED EXPERT MASTER Re:MASTER
92 2 5 8 12 -

EXPERT MASTER Re:MASTER
譜面制作者 -

BASIC

(92.0){1},,,,
{2}1,1,
{1}1,
{2}8,8,
{1}8,
{1}1h[1:1],
{2},1,
{1}2h[1:1],
{2},2,
{2}3,3,
{2}4,4x/5x,
{1}5h[2:1],
{2}5,5,
{1}6h[2:1],
{2}6,6,
{2}7,7,
{2}8,1x/8x,
{1}8-4[4:3],,
{2}3,3/4,
{2}6,5/6,
{4}4,4,4,,
{4}5,5,4b/5b,,
{4}3,3,3/4,,
{4}6,6,5/6,,
{2}B3/B4,B1/B2,
{2}B7/B8,B5/B6,
{1}Chf[2:3],,
{4}8,8,8,,
{4}7,7,7/8,,
{4}6,6,5,5,
{4}4,4,4b/5b,,
{1}3h[2:1],
{1}2h[2:1],
{1}1-5[4:3],
{2},1x/8x,
{4}1,1,1,,
{4}2,2,1/2,,
{4}3,3,4,4,
{4}5,5,4b/5b,,
{1}6h[2:1],
{1}7h[2:1],
{4}8,8,8,,
{4}1,1,1x/8x,,
{1}1-4[4:3],,
{1}8-5[4:3],,
{4}4,4,4,,
{4}3,3,3,,
{1}2h[2:1],
{4}1,1,1x/8x,,
{1}8-4[4:3],,
E

ADVANCED

(92.0){2}6h[2:1],5,
{2}3h[2:1],4,
{2}6h[2:1],5,
{2}4h[2:1],5,
{4}3,3,3/4,,
{4}6,6,5/6,,
{4}7,7,7/8,,
{4}1,1,2x/7x,,
{1}Ch[2:3],,
{2}B1/B8,B2/B7,
{2}B3/B6,B4/B5,
{2}B3/E4,B6/E6,
{4}C1,,1x/8x,1x/8x,
{2}2h[2:1],3h[2:1],
{4}4,,4/5,4/5,
{2}6h[2:1],7h[2:1],
{2}8,1/8,
{2}7h[2:1],6h[2:1],
{4}5,,4,4^1[2:1],{1},
{2}1h[4:1]/8h[4:1],2x/7x,
{4}1,1,2/8,,
{4}8,8,1/7,,
{4}6,6,5,5,
{4}4,4,4/5,,
{4}3,3,2/4,,
{4}6,6,5/7,,
{4}6,5,4,3,
{4}2,1/8,2x/7x,,
{2}3h[4:1]/4h[4:1],5h[4:1]/6h[4:1],
{4}4h[4:1]/5h[4:1],,4/5,3b/6b,
{8}2,2,1/2,,7,7,7/8,,
{4}5/6,3/4,2/5,,
{4}3/4,5/6,4/7,,
{4}1/8,2/7,3x/6x,,
{1}4^1[2:1],
{1}8^5[2:1],
{4}3,3/4,6,5/6,
{4}7,7/8,1/8,2b/7b,
{8}3,3,3/4,,6,6,5/6,,
{4}7/8,1/2,3/8,,
{4}1/2,7/8,1/6,,
{4}4/5,3/6,2x/7x,,
{1}8-5[2:1],
{1}4-1[2:1],
{4}8,7,5/6,5/6,
{4}4h[4:1]/5h[4:1],,4x/5x,3xV14[1:1]/6xV85[1:1],{1},
{2},3x/6x,
{4}3h[4:1],4,6h[4:1],5,
{4}3h[4:1],4,2/5,,
{4}2h[4:1],1,7h[4:1],8,
{4}2h[4:1],1,3/8,,
{4}2,1,8,1/8,
{8}2hx[8:7]/7hx[8:7],,,,,,,,
E

EXPERT

(92.0){1}6h[1:1],
{1}4h[1:1],
{1}5h[1:1],
{4}3h[2:1],,5,4x/5x,
{8}6,6,7/5h[4:1],,6,6,4/6,,
{8}3,3,2/4h[4:1],,3,3,3/5,,
{8}6,6,7/5h[4:1],,6,6,4/6,,
{8}3,3,2/4,,1,1,2b/7b,,
{4}5/6h[1:1],,,E5,
{4}3h[1:1],,,E5,
{4}6h[1:1],,,C1,
{4}2h[1:1],,,C1,
{4}7h[1:1],,,C1,
{4}2h[2:1],,5,3x/6x,
{4}7^4[8:1],,3,2,
{4}4/2^5[8:1],,6,7,
{4}5/7^4[8:1],,3,2,
{4}5/1>5[4:1],,,6x,
{4}4/6^1[8:1],,2,3,
{4}5/3^8[8:1],,7,6,
{8}4/6^1[8:1],,,,2,,3x,3hx[8:3],
{4},5,4/5,3x/6x,
{8}2/4h[8:3],,,3,4/5,,6,7/5h[8:3],
{8},,7x,7,4/6,,3,2/4h[8:3],
{8},,2x,2,3/5,,6,7/5h[8:3],
{8},,8x,,1/8,1/8,2x/7x,,
{8}5/7,7/5h[4:1],,6,4/5,,3,2/4h[8:3],
{8},,1x,2,3/5,,6,7/5h[8:3],
{8},,8x,7,4/6,3,2/4,1,
{8}1,8,1/8,1/8,2x/7x,,4h[8:1]/5h[8:1],,
{4}3,3/4,6,5/6,
{8}4,4,5,5,3/6,,1b,,
{8}7/8,6,5/7,8,1/2,3,2/4,1,
{8}7/8,6,4/5,3,1/2,3b/8b,,8x,
{8}1/2,3,4/5,6,7/8,1b/6b,,1x,
{8}7/8,6,4/5,3,1/2,3b/8b,,2x/7x,
{8}2x/7x,,3/5,4,2,1,2/8,3/7h[4:1],
{16},,5,,4/6,,4,,3/5,,2/6,,1/7,,8,8h[16:3],
{16},,2,2h[16:3],,,4,4h[16:3],,,5,,5x/6x,,,,
{16}1x/8x,,7,7h[16:3],,,1,1,,,1/8,,2b/7b,,2b/7b,,
{8}1/2,3,2/4,1,7/8,6,5/7,8,
{8}1/2,3,4/5,6,7/8,1b/6b,,1x,
{8}7/8,6,4/5,3,1/2,3b/8b,,8x,
{8}1/2,3,4/5,6,7/8,1b/6b,,2x/7x,
{8}2x/7x,,4/6,5,7,8,1/7,6/2h[4:1],
{8},4,3/5,5,4/6,3/7,2/8,1,
{16}2/8,,7,7h[16:3],,,5,5h[16:3],,,4,,3/4,,5/2h[2:1],,
{8},,,8,1/8,1/8,2/7,2b/7b,
{4},1h[4:1],4^7[8:1],,
{4}1,2/8h[4:1],5^2[8:1],,
{8}8,8,7,6,3/5h[4:1],,1,2,
{4}3-6[8:1],7-2[8:1],4-1[8:1],8x,
{4}2/7,8h[4:1],5^2[8:1],,
{4}8,7/1h[4:1],4^7[8:1],,
{16}1,,1,,1/8,,2/7,,3/6,,,,4x,5x,4x,5x,
{8}3x/6x,,,2,3,4>6[8:9],5,5,{1},,
E

MASTER

(92.0){8}3h[16:15],,,,,,4,5,
{8}6h[16:15],,,,,,5,4,
{8}3h[16:15],,,,,,4,5,
{8}6h[8:7],,,,,,,4,
{16}3^6[8:1],,8,8,8,,7,,6,,4/5,,3,,3/5,,
{16}6^3[8:1],,1,1,1,,2,,3,,4/5,,6,,4/6,,
{16}3^6[8:1],,8,8,8,,7,,6,,4/5,,3,,3/5,,
{16}6^3[8:1],,1,1,1,,2,,3,,4/5,,6,6,4,5,
{1}C1f,
{2}8h[1:1],{641}B5,,,,,,,,,,{609}B4,,,,,,,,,,,,,,,,,,,,,,,,,,,,,,,,,,,,,,,,,,,,,,,,,,,,,,,,,,,,,,,,,,,,,,,,,,,,,,,,,,,,,,,,,,,,,,,,,,,,,,,,,,,,,,,,,,,,,,,,,,,,,,,,,,,,,,,,,,,,,,,,,,,,,,,,,,,,,,,,,,,,,,,,,,,,,,,,,,,,,,,,,,,,,,,,,,,,,,,,,,,,,,,,,,,,,,,,,,,,,,,,,,,,,,,,,,,,,,,,,,,,,,,,,,,,,,,,,,,,,,,,,,,,,,,,,,,,,,,,,,,,,,,,,,,,,,,
{1}1h[1:1],
{16}6h[4:3],,,,,,5,5,4h[4:1],,,,,,,,
{16}5<2[4:1],,4,,2V48[16:3],,,,,,,,,,,8h[8:1],
{16},1,1,,,,6,5,,3,4,,3/5,,2/6,,
{8}8,8,8h[4:3],5,5,3,4,2,
{16}1,,1h[8:7],,,4,4,,5,,6,,5,,7,,
{16}8,,8h[8:7],,,,5,5,,3,3,,4,,2,,
{16}3h[8:5],,,4,4,,5,5h[16:3],,,,,3/5,,,,
{8}6-4[8:1],6,2,2,3-5[8:1],3,6,6,
{8}7-4[8:1],7,3,3,2-5[8:1],2,6,7p3[4:1],
{8}1h[4:3],,,,,,5<4[2:1],4,
{4},,,4/5,
{16}4/8h[4:1],,,,5,,4/6,,2,2,4,,3/4,,5/1h[4:1],,
{16},,4,,5,,4/6,,7,7,5,,5/6,,4/8h[4:1],,
{16},,5,,4,,3/5,,2,2,4,,3/4,,1/5,,
{8}1/5,2/6,3/7<3[8:1],7/3>7[8:1],E1,C1f,,,
{16}5/1h[4:1],,,,4,,3/5,,7,7,5,,5/6,,4/8h[4:1],,
{16},,5,,4,,3/5,,2,2,4,,3/4,,2/6,,
{16}8b,8b,1b,,3/5,,4,4,6,6,5,5,7,,5/8,4,
{8}3/7pp3[4:1],3/7,3>5[4:1],,,,2,2,
{8}8,8,1,1,2/7,2/7,3/6,3/6,
{16}4/5,4,5,,4/5,,3,,2/6<2[8:1],,6/2<6[8:1],,4b,,4b,,
{16}3v8[8:1],,3,,6v1[8:1],,6,,2,,2,,8<2[4:1],,1,1,
{16}2>7[16:3],,,8,8qq5[4:1],,,2,2,,3,,1>7[4:1],,,7,
{16}7<2[16:3],,,1,1pp4[4:1],,,7,7,,6,,8<2[4:1],,,2,
{16}2>7[16:3],,,8,8V64[16:3],,,2,2,,3h[4:1],,,,4x,3x,
{8}6hx[8:1],,4,5,5/6,7,8,4/8,
{16}3,,7,,4/6,,3,,2,,1/8,,1/8,,2,2,
{16}2h[8:1],,4,4,4h[8:1],,5,5,5h[8:1],,7,7,7h[8:1],,2,2,
{16}2h[8:1],,5,5,5h[8:1],,4,6,7/3>7[8:1],,3/7>3[8:1],,5b,,5b,,
{16}6v1[8:1],,6,,3v8[8:1],,3,,7,,7,,1>7[4:1],,8,8,
{16}7<2[16:3],,,1,1pp4[4:1],,,7x,7x,,6x,,8<2[4:1],,,2,
{16}2>7[16:3],,,8,8qq5[4:1],,,2x,2x,,3x,,1>7[4:1],,,7,
{16}7<2[16:3],,,1,1s5[4:1],,,7,7,,6h[4:1],,,,5x,6x,
{8}3hx[8:1],,5,4,3/4,2,1,1/5,
{8}6,3,4/5,6,7,4/8,4/8<4[8:1],8,
{8}3,2,1>5[8:1],6,7,8,1/2,3h[8:3]/8h[8:3],
{8},,,7/8,1/6,2/5,3/4<2[8:5],4,
{4}3,4,5,6/5>7[8:5],
{4}6,5,4,3/4,
{8}4/1^4[8:1],1,6,7,5/8^5[8:1],8,3,2,
{16}4/1^4[8:1],,1,,6,,7,7,5,,7,,6/5>7[8:5],,5,,
{4}6,5,4,3/4<2[8:5],
{4}3,4,5,5/6,
{16}5/8^5[8:1],,8,,4,,3,,2/4,,1,,8,8,1,1,
{1}2h[1:2]/7h[1:2],,,
E

Re:MASTER


名前:
コメント:

タグ:

+ タグ編集
  • タグ:
最終更新:2022年09月24日 21:07