アットウィキロゴ

紅蓮華

アーティスト LiSA

BPM BASIC ADVANCED EXPERT MASTER Re:MASTER
135 3 6 9 11 13

EXPERT MASTER Re:MASTER
譜面制作者

BASIC

(135.0){1},,,,,
{1}4/5,
{1}4/5,
{1}4h[1:1],,
{1}5h[1:1],,
{2}4,4,
{1}4,
{2}3,3,
{1}3,
{2}2,2,
{1}2,
{2}1,1,
{1}1x/8x,
{2}8,8,
{1}8,
{2}7,7,
{1}7,
{2}6,6,
{1}6,
{2}5,5,
{1}4x/5x,
{1}B4,
{1}B3,
{1}B2,
{1}B1/B8,
{1}B2/B7,
{1}B3/B6,
{1}Chf[1:1],,
{4}1,1,1b,,
{4}2,2,2b,,
{4}3,3,4,4,
{2}4/5,4/5,
{1}5h[2:1],
{1}4h[2:1],
{1}5-8[4:3],
{2},1x/8x,
{4}8,8,8b,,
{4}7,7,7b,,
{4}6,6,5,5,
{2}4/5,3x/6x,
{4}2,2,2,,
{1}1b/8b,
{1}1-5[4:3],,
{1}8-4[4:3],,
{1}5,
{1}5,
{1}6,
{1}6,
{1}7,
{1}7,
{1}8,
{1}1/8,
{2}1,1,
{2}2,2,
{2}3,3,
{2}4,4,
{2}4/5,4/5,
{2}3/6,3/6,
{1}Chf[1:1],,
{4}8x,8x,8b,,
{4}7,7,7b,,
{4}6,6,5,5,
{2}4/5,4/5,
{1}3h[2:1]/4h[2:1],
{1}5h[2:1]/6h[2:1],
{1}4-1[4:3]/5-8[4:3],
{2},1x/8x,
{4}1,1,1b,,
{4}2,2,2b,,
{4}3,3,4,4,
{2}4/5,3x/6x,
{4}7,7,7,,
{1}1b/8b,
{4}8,8,8,8x,
{4}1,1,1,1x,
E

ADVANCED

(135.0){1},
{1}3hx[1:1],
{1}4h[1:1],
{1}5h[1:1],
{1}6,
{1}7h[2:1]/8h[2:1],
{1}1h[2:1]/2h[2:1],
{4}2,2,1/2,,
{4}7,7,7/8,,
{4}2,2,1/2,,
{4}7,7,1/7,,
{2}6h[2:1],5,
{2}3h[2:1],4,
{2}6h[2:1],5,
{4}3,3,2x/4x,,
{2}2h[2:1],1,
{2}7h[2:1],8,
{2}2h[2:1],1,
{4}8,1,2x/7x,,
{2}B3,B4,
{1}Ch[2:1],
{2}B6,B5,
{1}Ch[2:1],
{2}B3,B2,
{2}B1,B8,
{2}B7,B6,
{1}Ch[2:1],
{1}3hx[1:1],
{1}4h[1:1],
{1}5h[1:1],
{1}6,
{4}6,6,5/6,,
{4}3,3,3/4,,
{4}2x,2x,8x,8x,
{1}2x/7x,
{4}2b,2,1/2,1/2,
{4}7,7,7/8,7/8,
{4}6h[4:1],5,5,,
{4}3h[4:1],4,4,,
{1}5^8[2:1],
{1}1^4[2:1],
{1}5pp1[4:3],
{4},1x,8x,2x/7x,
{4}7,7/8,7,6/8,
{4}2,1/2,2,1/3,
{4}3h[4:1],4,4,,
{4}6h[4:1],5,5,,
{1}4-1[2:1]/5-8[2:1],
{1}2x/7x,
{1}Ch[1:3],,,,
{1}2>6[4:5],,
{1}7<3[4:5],,
{1}3<7[4:5],,
{1}8<4[4:5],,
{1}4-1[8:3],
{1}8-5[2:1],
{1}3-6[2:1],
{1}7-4[2:1],
{4}3,3,3/4,,
{4}6,6,5/6,,
{4}7x,7x,1x,1x,
{1}2x/7x,
{4}7,7b/8b,7,7/8,
{4}2,1/2,2,1/2,
{4}3h[4:1],4,4,,
{4}6h[4:1],5,5,,
{1}4^1[2:1],
{1}8^5[2:1],
{1}4qq8[4:3],
{4},8x,1x,2x/7x,
{4}2,1/2,2,1/3,
{4}7,7/8,7,6/8,
{4}6h[4:1],5,5,,
{4}3h[4:1],4,4,,
{1}4-1[2:1]/5-8[2:1],
{1}2x/7x,
{4}7,7,7/8,,
{4}2,2,1/8,2b/7b,
E

EXPERT

(135.0){1},
{1}5/4-8[2:1],
{1}4/5-1[2:1],
{1}4qq1[4:5]/5pp8[4:5],,
{1}6/2q6[2:1],
{1}3/7p3[2:1],
{16}2h[16:3],,,4h[16:3],,,5h[16:3],,,7,,,6/8,,,,
{16}7h[16:3],,,5h[16:3],,,4h[16:3],,,2,,,1/3,,,,
{16}2h[16:3],,,4h[16:3],,,5h[16:3],,,7,,,6/8,,,,
{16}7h[16:3],,,5h[16:3],,,4h[16:3],,,1,,,2b/7b,,,,
{8}3,,3/4,,3,4,3/5,,
{8}6,,5/6,,6,5,4/6,,
{8}3,,3/4,,3,4,3/5,,
{4}7-5[8:1],1-3[8:1],7,5/7,
{8}2,,1/2,,2,1,2/8,,
{8}7,,7/8,,7,8,1/7,,
{8}2,,1/2,,2,1,3/8,,
{16}1x/8x,,,1x/8x,,,2x/7x,,2x/7x,,,,,,,,
{2}2^5[4:1],8h[4:1],
{8}B6,,B8/E8,,B3,B2,E2,,
{2}7^4[4:1],1h[4:1],
{8}B2,,B4/E4,,B6,B7,E8,,
{2}2^5[4:1],8h[4:1],
{8}B2,B3,B4/E4,,B6,B7,B8/E8,,
{1}Ch[2:1],
{16}4x/5x,,,4x/5x,,,3x/6x,,3x/6x,,,,,,,,
{1}4/5-1[2:1],
{1}5/4-8[2:1],
{1}4qq1[4:5]/5pp8[4:5],,
{4}3/4,3/4,2/4,1/4,
{4}5/6,5/6,5/7,5/8,
{8}3x,3x,7x,7x,4x,4x,5x,5x,
{4}2x/7x,,,1b/8b,
{8}7/8,6,4/5,3,1/2,3/8,,8,
{8}1/2,3,4/5,6,7/8,1/6,,6,
{8}6,6h[4:1],,5,5h[4:1],,7,8,
{16}1/2,,,,3/4,,,,7x/8x,,,1x/6x,,,2x/5x,,
{8}2x/5x,,6,6,,2,2,1/3,
{8},,7,7,,3,3,2/4,
{16}1x/2x,,,1x/2x,,,7x/8x,,,7x/8x,,,1x,,8x,,
{4}2x/7x,4/6,3/5,2b/7b,
{8}1/2,3,4/5,6,7/8,1/6,,1,
{8}7/8,6,4/5,3,1/2,3/8,,4x,
{16}5hx[16:3],,,6hx[16:3],,,7x,,,,2,,2,,1/3,,
{16},,,,7/8,,,,1x/2x,,,3x/8x,,,4x/7x,,
{2}6h[4:1]/5-1[8:1],3h[4:1]/4-8[8:1],
{1}C1f/B2/B3/B6/B7,
{1}3h[2:3]/1<4[4:5],,
{1}6h[2:3]/8>5[4:5],,
{2}3h[1:2],B5,
{2}B7,B5,
{2}6h[1:2],B6,
{2}B4,B6,
{2}2h[1:2],B4,
{2}B1,B4,
{2}7h[2:3],B7,
{2}E2,C1f,
{4}2hx[4:7],B3,,C1,
{4},B6,,6x,
{4}7hx[4:7],B8,,C1,
{4},B5,,3x,
{4}3/4,3/4,2/4,1/4,
{4}5/6,5/6,5/7,5/8,
{8}3x,3x,7x,7x,4x,4x,5x,5x,
{1}2b/7b,
{8}3/4,,1b/8b,,5/6,7,1/8,,
{2}1x-4[8:1]/5x-8[8:1],4x-1[8:1]/8x-5[8:1],
{8}6x,6hx[4:1],,5x,5hx[4:1],,7,8,
{16}1/2,,,,3/4,,,,7x/8x,,,1x/6x,,,2x/5x,,
{8}2x/5x,,6,6,,2,2,1/3,
{8},,7,7,,3,3,2/4,
{16}1x/2x,,,1x/2x,,,7x/8x,,,7x/8x,,,1x,,8x,,
{4}2x/7x,3/5,4/6,2b/7b,
{8}3/4,2,1/8,7,5/6,4/7,,4,
{8}5/6,7,1/8,2,3/4,2/5,,2x,
{16}1hx[16:3],,,8hx[16:3],,,7x,,,,2,,2,,1/3,,
{16},,,,7/8,,,,1x/2x,,,3x/8x,,,4x/7x,,
{2}6h[4:1]/5p1[8:1],3h[4:1]/4q8[8:1],
{1}C1f/B3/B4/B7/B8,
{16}2h[16:3],,,4h[16:3],,,5h[16:3],,,7,,,6/8,,,,
{16}7h[16:3],,,5h[16:3],,,4h[16:3],,,1,,,2x/7x,,2x/7x,
E

MASTER

(135.0){1},
{1}7<3[2:1],
{1}2>6[2:1],
{1}8<3[8:5],
{4}1h[4:3],,,5,
{4}5-8[8:3],,,4,
{4}4-1[8:3],,,2b/7b,
{16}6/2h[16:3],,,4h[16:3],,,5h[16:3],,,7,,,5,6,5,,
{16}3/7h[16:3],,,5h[16:3],,,4h[16:3],,,2,,,4,3,4,,
{16}6/2h[16:3],,,4h[16:3],,,5h[16:3],,,7,,,5,6,5,,
{16}5x/7x,,,2x/4x,,,5x/6x,,,3x/4x,,,2b/6b,,,,
{8}5/7,,5/6,,4,3,3/4,,
{8}2/4,,3/4,,5,6,5/6,,
{8}5/7,,5/6,,4,3,2/4,,
{16}1h[4:1],,,,8,8,,1/7,,,3,,2/8,,,,
{8}3/4,,5/2-4[8:1],,5,6,5/7,,
{8}5/6,,4/7-5[8:1],,4,3,4/2<4[2:1],,
{4}5,,,2/6,
{16}4/6h[16:3],,,7h[16:3],,,8,,1b/8b,,,,2x/7x,,,,
{4}6^4[8:1],4,2^4[8:1],5,
{16}6,,6h[8:1],,8,,8h[8:1],,1,1,,2x/8x,,,,,
{4}3^5[8:1],5,7^5[8:1],4,
{16}3,,3h[8:1],,1,,1h[8:1],,8,8,,1x/7x,,,,,
{4}6^4[8:1],4,2^4[8:1],5,
{8}6,6,5/7,6,4/5,3/6,2x/7x,,
{1}1pp4[2:1]/8qq5[2:1],
{16}2/7,,6x,5x,,3x,4x,,1,8,1,,2b/7b,,,,
{1}B3/B6/Ch[4:11],
{1}B2/E2,
{4}1h[2:1],,,1^4[2:1],
{4},,,3x/6x,
{4}5h[8:1]/6h[8:1],5h[8:1]/7h[8:1],5h[8:1]/8h[8:1],5h[8:1]/8h[8:1],
{4}3h[8:1]/4h[8:1],2h[8:1]/4h[8:1],1h[8:1]/4h[8:1],1h[8:1]/4h[8:1],
{8}6,5/7,3,2/4,1,1/8,2x/7x,,
{4}C1f/B2/B3/B6/B7,,,3b/6b,
{16}8-4[8:1],,8,,2-5[8:1],,2,,7,,8x,8h[16:3],,,5,,
{16}4-8[8:1],,4,,6-1[8:1],,6,,3,,4x,4h[16:3],,,1,,
{16}8,,7,7,,,2/6,,3,,4/7,,6,,3/5,,
{16}1/7-4[8:1],,,,8,,,,2h[16:3],,,5-1[8:1],,,4,,
{8}4b,,,6/2-5[8:1],,5,6,7,
{8}7/5h[4:1],,8,8-5[8:1],,4,3,2,
{16}5/1h[16:3],,,4h[16:3],,,5h[16:3],,,8,,,2,1,2,,
{4}3x/8x,2-5[8:1]/6-1[8:1],2x/6x,3b/7b,
{16}1-5[8:1],,1,,7-4[8:1],,7,,2,,1x,1h[16:3],,,4,,
{16}5-1[8:1],,5,,3-8[8:1],,3,,6,,5x,5h[16:3],,,8,,
{16}1/7h[16:3],,,5h[16:3],,,4<8[4:1],,,,1,,2,,3,,
{16}3-6[8:1],,,,8,,,,8h[16:3],,,1,,,1/7,,
{8}2b/6b,,,2/7,2/7,3/6,3/6,4/5,
{1}C1f/B2/B3/B6/B7,
{1}6h[1:1]/3qq5[4:5],,
{1}3h[1:1]/6pp4[4:5],,
{2}5/3>6[8:9],5,
{2}5,4,
{2}3/5<3[4:5],4,
{2}4,5,
{2}7/2>7[8:9],8,
{2}8,1,
{2}2/8<2[4:5],1,
{2}1,8b,
{4}6h[1:1],E5,E6,B7,
{4}3h[1:1],E5,E4,B2,
{4}7h[1:1],E8,B6,E1,
{4}2h[4:3],E2,B3,E1,
{4}3,2h[8:1]/4h[8:1],1h[8:1]/4h[8:1],1h[8:1]/4h[8:1],
{4}5h[8:1]/6h[8:1],5h[8:1]/7h[8:1],5h[8:1]/8h[8:1],5h[8:1]/8h[8:1],
{8}3/4,2/5,1/6,7/8,1/8,2/7,2/7,,
{4}C1f/B2/B3/B6/B7,,,3x/6x,
{16}5/4h[4:1],,,,8b,,,,3/5,,1x,1x,,,6h[8:1],,
{16}5-1[8:1],,5,,7-4[8:1],,7,,1,,8x,8h[16:3],,,4,,
{16}5,,6,6,,,4/7,,6,,2/5,,3,,4/6,,
{16}8/2-5[8:1],,,,1,,,,7h[16:3],,,4-8[8:1],,,5,,
{8}5b,,,3/7-4[8:1],,4,3,2,
{8}2/4h[4:1],,1,1-4[8:1],,5,6,7,
{16}4/8h[16:3],,,5h[16:3],,,4h[16:3],,,1,,,7,8,7,,
{4}1x/6x,3-8[8:1]/7-4[8:1],3x/7x,2b/6b,
{16}8-4[8:1],,8,,2-5[8:1],,2,,8,,1x,1h[16:3],,,5,,
{16}4-8[8:1],,4,,6-1[8:1],,6,,4,,5x,5h[16:3],,,1,,
{16}8/2h[16:3],,,4h[16:3],,,5>1[4:1],,,,8,,7,,6,,
{16}6-3[8:1],,,,1h[4:1],,,,2h[16:3],,,4,,,4/8,,
{16}2b/6b,,,,,,1,8,1,8,1,8,1,,,,
{1}C1f/B2/B3/B6/B7,
{16}8/2h[16:3],,,4h[16:3],,,5h[16:3],,,7,,,2,1,2,,
{16}5x/7x,,,2x/4x,,,5x/6x,,,3x/4x,,,1b/8b,,2b/7b,
E

Re:MASTER

(135.0){1},
{16}2,,,3,,,4h[8:3],,,,,,,,,,
{16}3,,,4,,,5h[8:3],,,,,,,,,,
{16}7,,,6,,,5h[8:3],,,,,,,,,,
{16}6,,,5,,,4h[4:1],,,,5h[4:1],,,,,,
{16}5,,,6,,,7h[8:3],,,,,,{4}5<4[8:5],{1},
{16}3/5b,,,4/7,,,1/6,,,4h[16:3]/8z4[8:1],,,,,,,
{16}3,,,2/5,,,4/7,,,5h[16:3]/1s5[8:1],,,,,,,
{16}6,,,5/7,,,2/4,,,1^6[8:1]/8^3[8:1],,,1/8,,,,
{641}4,,,,,,,,,,{605}5,,,,,,,,,,,,,,,,,,,,,,,,,,,,,,,,,,,,,,,,,,,,,,,,,,,,,,,,,,,,,,,,,,,,,,,,,,,,,,,,,,,,,,,,,,,,,,,,,,,,,,,,{16}5,4h[8:1],,7,4,6,3,5,2,4b,,,,
{16}1h[16:3],,,2h[16:3],,,3h[4:1],,,,4,,3/5,,,,
{16}6,,5,,4/6,,3,4,,4,5,,5/7,,,,
{16}8h[16:3],,,7h[16:3],,,6h[4:1],,,,5,,4/6,,,,
{16}3,,4,,3/5,,6,5,,5,4,,2/4,,3/5,,
{16}4/6h[16:3],,,7h[16:3],,,8^5[8:1],,,,4>5[8:3],,4,,,8h[16:5],
{16},,,,,,4,5,3,6,2,7,1,,2/8,,
{8}3^6[4:1]/7p2[4:1],3/7,,,,1/8,2/7-2[12:1],,
{16}4h[16:3],,,1h[16:3],,,5,,4^1[8:1]/8^5[8:1],,,,,,,,
{16}5h[16:3],,,6h[16:3],,,7h[16:3],,,8^3[6259:652],,,6h[4:1],,,,
{16}5,,4,,3,,3/4,,3,4,,4,5,,5/6,,
{16}7/4h[16:3],,,3h[16:3],,,2q5[8:3],,,,6,,6h[4:1],,,,
{16},,4/7,,3/6,,2/5,,3,4,,4,5,,5/6,,
{16}7/4h[16:3],,,5h[16:3],,,6h[4:1],,,,7p4[8:3],,3,,3,,
{8},,E4,E3,E2,E1,E8,E7,
{16}E6,,,E1/E5/Ch[16:9],,,,,,,,,,,,,
{16}4/5,,3,4,,6,5,8,1-5[8:1],5,3,7,1b,,,,
{1}C1f/B3/B7,
{1}2h[1:1],
{1}4h[1:1],
{1}5h[1:1],
{4}7-1[8:1],7/3-5[8:1],3/6-2[8:1],6/3-7[8:1],
{4}3/6-4[8:1],6/2-8[8:1],2/5-1[8:1],4/5,
{8}2/8,4/5,1/7,4/5,1/2,4/5,7/8,4/5,
{625}1,,,,,,,,,,,,,{622}2,,,,,,,,,,,,,{625}3,,,,,,,,,,,,,4,,,,,,,,,,,,,{622}5,,,,,,,,,,,,,{625}6,,,,,,,,,,,,,7,,,,,,,,,,,,,{622}8,,,,,,,,,,,,,{625}1,,,,,,,,,,,,,2,,,,,,,,,,,,,{622}3,,,,,,,,,,,,,{625}4,,,,,,,,,,,,,5hx[2:1]/6hx[2:1],,,,,,,,,,,,,,,,,,,,,,,,,,,,,,,,,,,,,,,,,,,,,,,,,,,,,,,,,,,,,,,,,,,,,,,,,,,,,,,,,,,,,,,,,,,,,,,,,,,,,,,,,,,,,,,,,,,,,,,,,,,,,,,,,,,,,,,,,,,,,,,,,,,,,,,,,,,,,,,,,,,,,,,,,,,,,,,,,,,,,,,,,,,,,,,,,,,,,,,,,,,,,,,,,,,,,,,,,,,,,,,,,,,,,,,,,,,,,,,,,,,,,,,,,,,,,,,,,,,,,,,,,,,,,,,,,,,,,,,,,,,,,,,,,,,,,,,,,,,,,,,,,,,,,,,,,,,,,,,{673}B5,,,,,,,C1f,,,,,,,{617}B1,,,,,,,,,,,,,,,,,,,,,,,,,,,,,,,,,,,,,,,,,,,,,,,,,,,,,,,,,,,,,,,,,,,,,,,,,,,,,,,,,,,,,,,,,,,,,,,,,,,,,,,,,,,,,,,,,,,,,,,,,,,,,,,,,,,,,,,
{16}3-8[12:1],,7-4[12:1],,3,,7,,1-5[12:1],,8,8,,,6,,
{16}7-4[12:1],,3-8[12:1],,7,,3,,6^3[12:1],,2,2,,,1,,
{16}2,,3,3h[16:3],,,4,,2/5,,3/6,,4/7^4[12:1],,8,,
{8}1-5[12:1],2,8-4[12:1],7,2^5[12:1],1,6-1[12:1]*-2[12:1],7,
{16}6b,,,,3/8,,3,4,,6,5,,5/7,,2,1,
{16}2,,3/8,,1/6,,6,5,,3,4,,2/4,,7,8,
{16}1h[8:1]/6h[8:1],,,3h[8:1]/7h[8:1],,,2h[8:1]/5h[8:1],,,4h[8:1]/8z4[8:1],,,,,,,
{16}2/6,,4,5,1b,6,5,6,1b,5,4,5,1b,4,3,4,
{16}2-4[12:1],,5-1[12:1],,2,,5,,3^8[12:1],,7,7,,,6,5,
{16}6-8[12:1],,1-5[12:1],,6,,1,,7^4[12:1],,3,3,,,1,,
{16}2h[16:3],,,3h[16:3],,,4qq8[8:3],,,,5-7[8:1],,7,,5b/C1f,,
{16},,,,2/1-6[12:1],,,,1/7h[16:3],,,8h[16:3],,,4,,
{16}2b/6b-1[12:1],,,,5/6,,2,2,3,3,4,4,5,5,6,6,
{1}Ch[16:1],
{16}E5,,,E6,,,7h[1:1],,,,,,,,,,
{16}B2,,,E4,,,4h[1:1],,,,,,,,,,
{16}B7,,,E6,,,5h[1:1],,,,,,,,,,
{16}E5,,,E4,,,2h[4:1],,,,3,,4,,5,,
{2}4h[8:3]/6p4[4:5],3h[8:3],
{16}2h[8:3],,,,,,,,2h[16:3],,,3h[16:3],,,4,,
{2}5h[8:3]/2q5[4:5],6h[8:3],
{16}7h[8:3],,,,,,,,7h[16:3],,,6h[16:3],,,5,,
{2}4h[8:3]/7qq4[4:5],3h[8:3],
{16}2h[8:3],,,,,,,,2h[16:3],,,3h[16:3],,,4,,
{2}5h[8:3]/2qq5[4:5],6h[8:3],
{16}7h[8:3],,,,,,,,7h[16:3],,,6h[16:3],,,5,,
{16}7/4h[16:3],,,5V74[16:7],,,3-8[4:1],,3,,,,,,,,
{16}7/2h[16:3],,,1V72[16:7],,,3-6[4:1],,3,,,,,,,,
{16}3/8h[16:3],,,1V38[16:7],,,7-4[4:1],,7,,,,,,,,
{16}3/6h[16:3],,,5V36[16:7],,,7-2[4:1],,7,,,,,,,,
{4}B8/E8/3-8[8:1],3/B7/E7,B6/E6/1-4[8:1],1/B5/E5,
{4}B4/E4/6-1[8:1],6/B3/E3,B2/E2/8-5[8:1],8/B1/E1,
{8}2/4,3/4,5/7,5/6,3/4,1/2,7/8,5/6,
{625}1,,,,,,,,,,,,,{622}2,,,,,,,,,,,,,{625}3,,,,,,,,,,,,,4,,,,,,,,,,,,,{622}5,,,,,,,,,,,,,{625}6,,,,,,,,,,,,,7,,,,,,,,,,,,,{622}8,,,,,,,,,,,,,{625}1,,,,,,,,,,,,,2,,,,,,,,,,,,,{622}3,,,,,,,,,,,,,{625}4,,,,,,,,,,,,,{16}5h[8:1]/6h[8:1],,,2h[8:1]/4h[8:1],,,3h[8:1]/7h[8:1],,,1/5,,,
{16}4x-1[12:1]/8x-5[12:1],3x/7x,2x/6x,,4b/8b,,,,5/1h[16:3],,,2h[16:3],,,3,,
{16}3^6[8:1]/7^2[8:1],,2/6,,3/7,,,,4/8h[16:3],,,7h[16:3],,,6,,
{16}1h[8:1]/6h[8:1],,,3h[8:1]/8h[8:1],,,1/8,,3/6^3[8:1],,,,6/1-5[8:1],,,,
{4}1/7-4[8:1],7/2-6[8:1],2/5^8[8:1],5/1^4[8:1],
{16}1/6h[16:3],,,5h[16:3],,,7,,5-2[8:1]/7-4[8:1],,,,5/7,,,,
{16}5/3h[16:3],,,4h[16:3],,,2,,2-5[8:1]/4-7[8:1],,,,2/4>5[4:3],,,,
{1}Chf[4:3],
{4}1-3[8:1]/8-4[8:1],1b-5[8:1]/8b-6[8:1],1b-3[8:1]/8b-4[8:1],1b/8b,
{16}6^1[12:1],,2^5[12:1],,6,,2,,7-3[12:1],,2,2/7,,,2,1,
{16}2^5[12:1],,6^1[12:1],,2,,6,,4-8[12:1],,5,4/5,,,7,,
{16}7h[16:3],,,6h[16:3],,,5pp1[8:3],,,,4-2[8:1],,2,,4b/C1f,,
{16},,,,7/8-3[12:1],,,,8/2h[16:3],,,1h[16:3],,,5,,
{8}7b/3b-8[12:1],,3/4,7x^4[8:1],4x^1[8:1],1x^6[8:1],6x^3[8:1],3x,
{4}Ch[16:1],,,C1f,
{16}2h[8:1]/8h[8:1],,,1h[8:1]/6h[8:1],,,4h[8:1]/7h[8:1],,,5/1s5[8:1],,,,,,,
{16}7h[8:1],,,6h[8:1]/8h[8:1],,,1h[8:1]/3h[8:1],,,2-6[8:1],,,8b,,8b/C1f,,
E

名前:
コメント:

タグ:

+ タグ編集
  • タグ:
最終更新:2022年09月24日 21:12