BASIC
(181.0){1},,,,,
{1}4,
{1}4,
{1}5,
{1}5x,
{1}6,
{1}6,
{2}7,7,
{1}7,
{1}8,
{1}8,
{2}1,1,
{1}1b,
{1}2,
{1}2,
{2}3,3,
{1}3,
{1}4,
{2}4,4,
{1}4h[1:1]/5h[1:1],,
{1}5/6,
{1}5/6,
{1}5h[1:1]/6h[1:1],,
{1}3/4,
{1}3/4,
{1}3h[1:1]/4h[1:1],,
{1}B2,
{1}B1,
{1}B8,
{1}B7,
{1}B6,
{1}B5,
{1}B4,
{1}B3,
{1}Chf[1:2],,,,
{2}8x,8,
{4}7,7,7,,
{2}6,6,
{1}4x/5x,
{2}3,3,
{2}2,2,
{1}1h[1:1]/8h[1:1],,
{2}1x,1,
{4}2,2,2,,
{2}3,3,
{1}4x/5x,
{2}6,6,
{2}7,7,
{2}8,8,
{2}1/8,1b/8b,
{1}1-5[4:3],,
{1}8-4[4:3],,
{4}Chf[4:7],,,{1},,
E
ADVANCED
(181.0){1},
{1}1x>6[4:5],,
{1}7<3[4:5],,
{4}3,3,3x/4x,,
{4}6,6,5x/6x,,
{4}7,7,8,8,
{4}1,1,2x/7x,,
{2}3h[2:1],4,
{2}6h[2:1],5,
{2}3h[2:1],4,
{4}6,6,5/6,,
{2}7hx[2:1],8,
{2}2h[2:1],1,
{2}7h[2:1],8,
{4}1,1,2x/8x,,
{4}2,1,1,,
{4}7,8,8,,
{4}2,1,1,,
{4}8,8,1x/7x,,
{1}1^4[2:1],
{1}5^8[2:1],
{1}1pp5[4:5],,
{2}B6,B5,
{2}B4,B3,
{1}Ch[1:1],,
{2}B3,B4,
{2}B5,B6,
{1}Ch[1:1],,
{2}B7,B6,
{2}B5,B4,
{2}B3/B6,B2/B7,
{1}E2/E8,
{4}7,7,7/8,,
{4}2,2,1/2,,
{4}2,2,1,1,
{4}8,8,2x/7x,,
{1}1-4[4:5]/8-5[4:5],,
{2}3/6,2/7,
{4}1x/8x,1x/8x,1x/8x,1b/8b,
{4}2,2,1/2,1/2,
{4}7,7,6/8,,
{4}7,7,7/8,7/8,
{4}2,2,1/3,,
{4}3h[4:1],4,4,,
{4}6h[4:1],5,5,,
{4}3h[4:1],4,4,,
{4}5x,4x/5x,4x/5x,3b/6b,
{4}7,7,7/8,7/8,
{4}2,2,1/3,,
{4}2,2,1/2,1/2,
{4}7,7,6b/8b,,
{4}7h[4:1],8,8,,
{4}2h[4:1],1,1,,
{4}2x,2x,1x,1x,
{4}8x,8x,1x/8x,1x/8x,
{1}2h[1:1]/7h[1:1],,
{1}1pp4[4:7]/8qq5[4:7],,,
{8},,,,,,1x/8x,1x/8x,
E
EXPERT
(181.0){1},
{1}2>7[4:5],,
{1}1-4[4:3]/8-5[4:3],
{8},,,,2b/7b,2b/7b,,,
{8}4/5,,2,2h[4:1],,8,8,,
{4}5/6,1,3/4,8,
{8}4/5,,7,7h[4:1],,1,1,,
{4}4/5,3/6,2b/7b,,
{4}E2,B2,B3,B4,
{4}6,6,5/6,,
{4}E8,B7,B6,B5,
{4}3,3,3/4,,
{4}B4/B5,B3/B6,B2/B7,E2/E8,
{4}1/8,1/8,2/7,,
{4}3h[4:1],4,6h[4:1],5,
{1}Chf[2:1],
{8}7h[8:3],,,5,5h[8:3],,,4,
{8}4h[8:3],,,2,2,,1/8,,
{8}2h[8:3],,,4,4,,3/5<2[2:1],,
{4},,,1/8,
{4}2/4,3,5/7,6,
{4}2h[4:1],4,7h[4:1],5<4[4:3],{1},
{2}C1f,1h[2:1],
{1}3x<7[2:1],
{1}2x>6[2:1],
{1}4x>5[1:1]/5x<4[1:1],
{2},5h[2:1],
{1}7x<3[2:1],
{1}6x>2[2:1],
{1}1x>8[1:1]/8x<1[1:1],
{2},6h[2:1],
{1}8<4[2:1],
{1}8>4[2:1],
{2}B2/B3/E3,B6/B7/E7,
{1}B1/C1f/B4/B5/B8,
{4}3/4,2,5/6,7,
{4}2/4,1,5/7,8,
{4}4/5,3/6,2/7,1/8,
{2}2h[4:1]/4h[4:1],5h[4:1]/7h[4:1],
{1}3/6q3[2:1],
{8},,2hx[8:3],,,8hx[8:3],,,
{1}6x<3[4:3],
{4},1b/8b,4b/5b,2b/7b,
{8}4/5,,1/2,1-5[8:1]/2-4[8:1],,,,,
{8}5/6,,7/8,7-5[8:1]/8-4[8:1],,,,,
{8}3/4,,1/8,1/8,,5/6,,2/4,
{8}2/4,,1/8,1/8,,7/5>1[8:5],,8h[8:5],
{4},,,2h[4:1],
{8}4h[4:1],,5,5h[4:1],,7,7^2[4:1],,
{4},3^6[8:1],,8h[4:1],
{4}1,2b/7b,3b/5b,1b/7b,
{8}4/5,,7/8,7-5[8:1]/8-4[8:1],,,,,
{8}3/4,,1/2,1-5[8:1]/2-4[8:1],,,,,
{8}5/6,,1/8,1/8,,3/4,,5/7,
{16}5/7,,,,2/4,,,,1x/8x,,,2x/7x,,,3x/6x,,
{4}3h[4:1]/6h[4:1],,1/8,2/7,
{8}6h[4:1],,5,5h[4:1],,4,,3,
{8}3/4,,6,5/6,,3,2/4,,
{8}6,5/7,,4/5,3/6,,{4}1>8[2:3]/8<1[2:3],{1},,
{8}4/5,,7,7h[4:1],,1,1,,
{4}3/4,8,5/6,1,
{1}2h[2:3]/7h[2:3],
{8},,,,,,1b/8b,1b/8b,
E
MASTER
(181.0){1},
{8}5h[8:3],,4,4,,4,4h[8:3],,
{8}5,5,,6,6,,5x/7x,,
{8}6h[8:5],,5,5,,3,3h[8:3],,
{8}4,4,,1x/8x,2x/7x,2x/7x,,,
{8}2h[4:1],,4,4-7[8:1],,1,1h[4:1],,
{8}7,7h[8:3],,5,5-1[8:1],,8b,,
{8}7h[4:1],,8,8-3[8:1],,5,5-1[8:1],,
{8}4,4,,2/7,2b/7b,,,,
{4}3/5<2[1:1],4,4,4,
{4}4,4,4,3/5,
{4}6/4>7[1:1],5,5,5,
{4}5,5,5,4/6,
{4}7/1>6[1:1],8,8,8,
{4}8,8,8,1/8,
{4}2/7h[4:1],5h[4:1],4h[4:1],2,
{8}1h[4:1]/8h[4:1],,,1/8,2b/7b,,4/5,,
{4}6-3[8:1],1,2-7[8:1],6h[4:1],
{4}5-2[8:1],8-4[8:1],1x,2x/5x,
{4}3-6[8:1],8,7-2[8:1],4>6[2:1],
{4}1b,,,3x/7x,
{4}6-3[8:1],1,2-7[8:1],6h[4:1],
{4}5-2[8:1],8-4[8:1],1,6pp3[1:1],
{1}4h[1:1],
{2},3x/6hx[4:9],
{4}E6,E7,E8/B8,,
{4}1x,1x,2x,3x>6[8:7]*p6[8:7],{1},
{2},6x/3hx[1:2],
{4}E4,E3,B1/E2,,
{4}8x,8x,7x,6x<3[8:7]*q3[8:7],{1},
{2},4x/5hx[1:2],
{2}E5,B2/E3/B3,
{2}E1/B1/B8,B6/B7/E7,
{2}B1/B2/B3/E3/B4,B5/B6/B7/E7/B8,
{4}C1f/E3/E7,,,1x/8x,
{8}7/5h[4:1],,4,4,,3/5,,2h[4:1],
{8},4,,5/7,,6,5/6,,
{8}7/5h[4:1],,4,4,,2h[4:1],,8,
{4}8,5/6,1/7,3/4,
{8}2x/7x,,6,5/7,,3,2/4,,
{8}7,6/8,,2,1/3,,4/5,,
{1}C1f/B2/B3/B6/B7,
{4}4x/5x,1b/6b,3b/8b,2b/6b,
{8}8/3-7[8:1],,5,5-8[8:1],,4x,,7,
{8}7-3[8:1],,1,1-4[8:1],,8x,,6,
{8}6-2[8:1],,4,4,,2x/6x,,1,
{8}1-5[8:1],,7,7-3[8:1],,4>5[2:1],,C1f,
{4},,,2/6h[4:1],
{8}7h[4:1],,8x,8x-4[8:1],,1,1,,
{2}2-5[8:1]/6-1[8:1],3-8[8:1]/7-4[8:1],
{4}2/6,3b/8b,1b/6b,3b/7b,
{8}1/6-2[8:1],,4,4-1[8:1],,5x,,2,
{8}2-6[8:1],,8,8-5[8:1],,1x,,3,
{8}3-7[8:1],,5,5-8[8:1],,4x,,1,
{16}1h[4:1],,,,8,,,,2x/4x,,,5x/7x,,,1x/8x,,
{8}8b/1b>6[8:3],,,,,,,8x,
{8}8x-4[8:1],,1,1,,3x/7x,,2,
{8}2-5[8:1],,6,6-1[8:1],,3,3-8[8:1],,
{8}7,7-4[8:1],,1,1,,7/3>4[1:1],,
{1}C1f,
{4},,2/4,5/6<3[8:5],
{1}C1f,
{8}5/7,6,2/4,3,4/5,3/6,2/7,,
{1}C1f/B2/B3/B6/B7,
{8},,,,,,1b,1b,
E
Re:MASTER
最終更新:2026年01月07日 19:56