| アーティスト |
アイラ(CV:三森すずこ)シマ(CV:井口裕香)はな(CV:花澤香菜) |
BASIC
(180.0){1},,,,,,
{1}1x,
{1}1x,
{1}1x,
{1}1x,
{1}8x,
{1}8x,
{1}8x-4[4:3],,
{4},1x,,1,
{4},1,,,
{4},2,,2,
{4},2x,,,
{4},3,,3,
{4},3,,,
{4},4/5,,4/5,
{4},4x/5x,,,
{4},B6,,,
{4},B7,,,
{4},B8,,,
{4},B1,,,
{4},B2,,,
{4},B3,,,
{4},Chf[1:2],,,{1},,
{4},,,8x-4[4:3],{1},
{4},,,1x-5[4:3],{1},,
{4},8,,8,
{4},7,,7,
{4},6h[2:1],,,
{4},5x,5x,5b,
{4},4,,4,
{4},3,,3,
{4},2h[2:1],,,
{4},1,1,1b/8b,
{4},1,,1,
{4},2,,2,
{4},3h[2:1],,,
{4},4x,4x,4b,
{4},5,,5,
{4},6,,6,
{4},7h[2:1],,,
{4},8,8,1b/8b,
{4},7,,7,
{4},7/8,,,
{4},2,,2,
{4},1/2,,,
{4},8,,8,
{4},1,,1,
{4},8x-4[4:3],,,{1},
{4},1x-5[4:3],,,{1},
{4},8x,,8x,
{4},1x,,1x,
{4},2,,2,
{4},{1}2-6[4:3],,
E
ADVANCED
(180.0){1}6hx[1:1],
{1}5x,
{1}3h[1:1],
{1}4,
{1}5h[1:1],
{2}4,4x/5x,
{4}3,3,1/2,1/2,
{4}8,8,1/8,1/8,
{4}7,7,7/8,7/8,
{4}1,1,2b/7b,,
{4}7,7,7/8,7/8,
{4}1,1,1/8,1/8,
{4}2,2,1,1,
{4}8,8,2b/7b,,
{4}6x,6hx[2:1],,5,
{4}5,4h[2:1],,5,
{4}5,6h[2:1],,5,
{4}4,3,3,3x/4x,
{4},3h[2:1],,4,
{4}4,5h[2:1],,4,
{4}4,3,3,2,
{4}2,1,1,2b/7b,
{4},8-5[2:1],,,
{4},4,,4,
{4},4-1[2:1],,,
{4},8,,8,
{4},8^5[2:1],,,
{4},4,,4,
{4},4^1[2:1],,,
{4},8^5[2:1],,,
{4},4,3,2,
{4}1,2b/7b,,B7,
{4},C1,,B3,
{4},,,B2,
{4},C1,,B6,
{4},C1f,,,
{4},7,7,7/8,
{4}7/8,2,2,1/2,
{4}1/2,3,4,5,
{4}6,7,7/8,1b/6b,
{4},8,7,6,
{4}5/6,4,3,2,
{4}1/2,3,4,5,
{4}6,7,1/8,2b/7b,
{4},2,2,1/2,
{4}1/2,7,7,7/8,
{4}7/8,6,5,4,
{4}3,2,1/2,3b/8b,
{4},1,2,3,
{4}3/4,5,6,7,
{4}7/8,6,5,4,
{4}3,2,1/8,2b/7b,
{4},7h[2:1],,8,
{4}1,2h[2:1],,1,
{4}8,7,7/8,2,
{4}1/2,8,8,2b/7b,
{4},8,8,1,
{4}1,1x/8x,2x/7x,3b/6b,
{4},5,6,7,
{4}7/8,1,2,3,
{4}3/4,4,3,2,
{4}1/2,8,8,1x/7x,
{4},8,7,6,
{4}5/6,4,3,2,
{4}1/2,1,2,3,
{4}4,5,6,7,
{4}1/8,2b/7b,
E
EXPERT
(180.0){1}4hx[1:1],
{1}5h[1:1],
{1}3h[1:1],
{1}4h[1:1],
{1}5h[1:1],
{2}6h[2:1],3x,
{16}2hx[16:3],,,3hx[16:3],,,4x,,,,5x,,5x,,,,
{16}7hx[16:3],,,6hx[16:3],,,5x,,,,4x,,4x,,,,
{16}2h[16:3],,,3h[16:3],,,4,,,,5,,5,,,,
{16}2h[16:3],,,3h[16:3],,,4,,,,5,,5,,,,
{16}7h[16:3],,,6h[16:3],,,5,,,,4,,4,,,,
{16}2h[16:3],,,3h[16:3],,,4,,,,5,,5,,,,
{8}7,7,8,,2,2,{4}1<2[4:3],{1},
{4}1x,5/3h[4:3],5,4,
{4}5,5/2h[4:3],5,4,
{4}5,5/1h[4:3],5,4,
{8}5-1[4:1],,,,,2x,,2x,
{4},4/6h[4:3],4,5,
{4}4,4/7h[4:3],4,5,
{4}4,4/8h[4:3],4,5,
{1}4<2[8:5],
{4},C1f,,E1,
{4},E7,,5/6,
{4}5/6,C1f/B4/B7,,E1,
{4},E3,,3/4,
{4}3/4,C1f/B2/B5,,E1,
{4},E7,,5/6,
{8}5/6,,6,6h[2:1],,1x,,1x,
{8},,3,3h[2:1],,8x,,8x,
{4},6h[4:1],8h[4:1],1h[4:1],
{4}3h[4:1],6b,,7pp4[8:5],
{4},,,3,
{4},3/4,,2qq5[8:5],
{4},,,6,
{4},5/6,,C1f/B2/B3/E3/B6/E7/B7,
{4},1/8,3/5,1/8,
{4}4/6,1/8,2/4,1/8,
{4}5/7,8/1h[4:1],3h[4:1],5h[4:1],
{8}7x,7x,,1,8,1,2b/7b,,
{4},1/8,4/6,1/8,
{4}3/5,1/8,5/7,1/8,
{1}1/8<3[2:1],
{8}1x,1x,,8,1,8,2b/7b,,
{4},1/7,5/6,2/8,
{4}3/4,1/7,5/6,2/8,
{4}2/4,1/8h[4:1],6h[4:1],4h[4:1],
{8}2x,2x,,7,8,7,1b/6b,,
{4},2/8,3/4,1/7,
{4}5/6,2/8,3/4,1/7,
{1}7/1>6[2:1],
{8}8x,8x,,2,1,2,3b/8b,,
{4},2/4,3,5/4h[4:1],
{4}8b,5/7,6,4/5h[4:1],
{4}1b,2/4,3,5/4h[4:1],
{4}8b,5/7,6,4/5h[4:1],
{4}1b>7[2:1],,,8x,
{4}8-4[8:1],,1x,2b/6b,
{16},,,,3h[16:3],,,2h[16:3],,,1,,,,8,,
{16}1/8,,,,6h[16:3],,,7h[16:3],,,8,,,,1,,
{16}1/8,,,,3h[16:3],,,2h[16:3],,,1,,,,8,,
{16}1/8,,,,3h[16:3],,,2h[16:3],,,1,,,,8,,
{16}1/8,,,,6h[16:3],,,7h[16:3],,,8,,,,1,,
{16}1/8,,,,3h[16:3],,,2h[16:3],,,1,,,,8,,
{8}1/8,,7,7,7/8,,2,2,
{1}1/2<3[4:3],
{4},C1f/E2/E6,
E
MASTER
(180.0){4}4-1[2:3],,,8,
{8}8,,,7,,,6,,
{4}5-8[2:3],,,1,
{8}1,,,2,,,3,,
{4}4-1[2:3],,,8,
{8}8,,,7,,,6,,
{16}5/6h[16:3],,,7h[16:3],,,8h[4:1],,,,1,,2/7,,,,
{16}4/3h[16:3],,,2h[16:3],,,1h[4:1],,,,8,,2/7,,,,
{16}5/6h[16:3],,,7h[16:3],,,8h[4:1],,,,1,,2/7,,,,
{16}4/3h[16:3],,,2h[16:3],,,1h[4:1],,,,8-4[8:1],,7b,,6b,,
{16}5h[16:3],,,6h[16:3],,,7h[4:1],,,,8,,1/6,,,,
{16}5/4h[16:3],,,3h[16:3],,,2h[4:1],,,,1,,3/8,,,,
{8},5,4,6,3,4/5,,8,
{8}8>7[2:1],2,2h[4:3],,,,,,
{4}C1,2h[8:1],1h[8:1]/3h[8:1],7h[8:1],
{4}6h[8:1]/8h[8:1],3h[8:1],2h[8:1]/4h[8:1],6h[8:1],
{8}5h[8:1]/7h[8:1],,2pp4[4:1],2,8,8,7qq5[4:1],7,
{8}1,1h[2:1],,,,8xw4[8:1],,8x,
{4},1h[8:1]/2h[8:1],3h[8:1]/8h[8:1],7h[8:1]/8h[8:1],
{4}1h[8:1]/6h[8:1],3h[8:1]/4h[8:1],2h[8:1]/5h[8:1],5h[8:1]/6h[8:1],
{8}4h[8:1]/7h[8:1],,7-3[8:1],8,7,,2-6[8:1],1,
{4}2,4-8[4:1]/5-1[4:1],,,
{8}4x>5[2:1],5x,6x,,,,Ch[2:1],,
{8},,8,8w4[8:1],,,,,
{8}5x<4[2:1],4x,3x,,,,Ch[2:1],,
{8},,1,1w5[8:1],,,,,
{8}4x>5[2:1],5x,6x,,,,Ch[2:1],,
{8},,8,8w4[8:1],,,,,
{8}2/6,,3,4,3,5-1[8:1],,2,
{8},3,6,5,6,4-8[8:1],,7,
{8},6,4x/5x,3,4x/5x,7,4x/5x,2,
{8}4x/5x,8,2x/7x,,,,1s5[4:3],,
{4}E6,,E8,8z4[4:3],
{4}E4,,E2,2h[2:1],
{4}3,6h[2:1],5,4h[2:1],
{4},Chf[2:1],,,
{8},,1/8-4[8:1],,2,2,3/4^7[8:1],,
{8}2,2,8/1-5[8:1],,7,7,6/5^2[8:1],,
{8}7,7,1/8<4[4:1],,4>8[4:1],,8,,
{8}4,4,,1x/2x,3x/8x,4x/7x,7x/8x,1x/6x,
{8}2x/5x,,8/1-5[8:1],,7,7,6/5^2[8:1],,
{8}7,7,1/8-4[8:1],,2,2,3/4^7[8:1],,
{1}1pp4[2:1]*qq6[2:1],
{8}3x/7x,3x/7x,,7b/8b,1b/6b,2b/5b,3b/4b,,
{8}2/7,,4/5-1[8:1],,3,3,2/1^6[8:1],,
{8}3,3,5/4-8[8:1],,6,6,7/8^3[8:1],,
{8}6,6,4/5<1[4:1],,1>5[4:1],,5,,
{8}1,1,,3x/4x,2x/5x,1x/6x,5x/6x,4x/7x,
{8}3x/8x,,5/4-8[8:1],,6,6,7/8^3[8:1],,
{8}6,6,4/5-1[8:1],,3,3,2/1^6[8:1],,
{1}4p5[2:1]*>6[2:1],
{8}5/6,5-8[4:1]/6qq5[4:1],,,,,2b/6b,,
{4},3/4,4/5,5/6,
{4}E1/B4,5/6,4/5,3/4,
{4}E1/B5,3/4,3/5,4/7,
{4}E1/E5,5/6,4/6,2/5,
{4}E1/E5,8/2^5[2:1],B1,C1,
{4}B6,1/7^4[2:1],B8,C1,
{16}B3,,,,2/4h[16:3],,,5h[16:3],,,7-4[8:1],,,,1,,
{16}1,,,,7/5h[16:3],,,4h[16:3],,,2-5[8:1],,,,8,,
{16}8,,,,2/4h[16:3],,,5h[16:3],,,7-4[8:1],,,,1,,
{16}1,,,,7/5h[16:3],,,4h[16:3],,,3-8[8:1],,,,8-4[8:1],,
{16}7b,,6b,,5h[16:3],,,2h[16:3],,,8^5[8:1],,,,B4/E5,,
{16}B2/E3,,,,1h[16:3],,,6h[16:3],,,4^1[8:1],,,,E1/B8,,
{8}B6/E7,,,4,5,3,6,4/5,
{8},1,1<2[2:1],7,7h[4:3],,,,
{4},C1,
E
Re:MASTER
最終更新:2026年01月07日 20:21