アットウィキロゴ

quiet room

アーティスト 有機酸

BPM BASIC ADVANCED EXPERT MASTER Re:MASTER
93 2 6 8+ 12 -

EXPERT MASTER Re:MASTER
譜面制作者 シチミヘルツ はっぴー -

BASIC

(93.0){1},,
{2}1,1,
{2}2,2,
{2}3,3,
{2}4,4/5,
{1}6h[2:1],
{4}6,6,6,,
{2}7,8,
{2}1,1x/8x,
{1}2h[2:1],
{4}2,2,2,,
{2}3,4,
{2}5,4/5,
{2}5,5,
{4}6x,6x,6x,,
{2}4,4,
{4}3x,3x,3x,,
{2}5,6,
{4}7,7,7,,
{1}8h[2:1],
{4}1,1,1b/8b,,
{4}8,8,1/8,,
{4}7,7,7/8,,
{4}6,6,5,5,
{4}4/5,4/5,3x/6x,,
{4}4,4,4/5,,
{4}3,3,3/4,,
{4}2,2,1,1,
{4}1/8,1/8,2x/7x,,
{1}3h[2:1],
{2}B4,B5,
{2}B6,B7,
{2}B8,B1,
{2}B2,B3,
{2}B4/B5,B6,
{2}B4/B5,B3,
{2}B4/B5,B3/B6,
{1}Chf[16:7],
{8}8,,8,,7,7,7,,
{8}6,6,6,,5,5,5,,
{4}4,4,3,3,
{4}2,2,1x/2x,,
{8}1,,1,,2,2,2,,
{8}3,3,3,,4,4,4,,
{4}5,5,6,6,
{4}7,7,7x/8x,,
{1}1-5[4:3],
{2},8,
{1}8-4[4:3],
{2},1x/8x,
E

ADVANCED

(93.0){1},,
{4}7,7,7x/8x,,
{4}2,2,1x/2x,,
{4}7,8,1,1,
{4}8,1/8,2x/7x,,
{4}6h[2:1],,5,5/6,
{4}4h[2:1],,5,4/5,
{4}6h[2:1],,5,5,
{4}4,3,2x/4x,,
{4}3h[2:1],,4,3/4,
{4}5h[2:1],,4,4/5,
{4}3,2,1,1,
{4}8,1x/8x,2x/7x,,
{4}8^5[8:3],,,4,
{4}4^1[8:3],,,8,
{4}8-5[8:3],,,4,
{4}3,3,3x/4x,,
{1}2-6[8:3],
{1}7-3[8:3],
{4}2,2,1,1,
{4}1x/8x,2x/7x,3b/6b,,
{4}2,1/2,7,7x/8x,
{8}1,1,1,,2x/8x,,,,
{4}3h[4:1],4,5h[4:1],4,
{1}3v8[16:5]/5v8[16:5],
{4}7,7/8,2,1x/2x,
{8}8,8,8,,1x/7x,,,,
{4}6h[4:1],5,4h[4:1],5,
{4}6,7,8,1x/8x,
{1}2b/7b,
{2}E8,C1,
{1}E4,
{2}E2,C1,
{1}E6,
{2}E1,C1,
{2}E5,B4/B5,
{2}B3/B6,B2/B7,
{1}Ch[2:1],
{4}1/2,1/2,7/8,7x/8x,
{8}1,1,1,,2x/8x,,,,
{4}3h[4:1],4,6h[4:1],5,
{1}4v1[16:5]/6v1[16:5],
{4}7/8,7/8,1/2,1x/2x,
{8}8,8,8,,1x/7x,,,,
{4}6h[4:1],5,3h[4:1],4,
{4}2,1x/8x,2b/7b,,
{2},B2,
{2}C1,B6,
{2}B7,C1,
{2}B3,{16}Ch[16:7],,,,,,,,
E

EXPERT

(93.0){1},,
{8}3h[4:1],,4,5,6,,5x/6x,,
{8}6h[4:1],,5,4,3,,3x/4x,,
{4}2h[4:1],4h[4:1],5h[4:1],7x,
{8}1,1,1,,1x/8x,1x/8x,2b/7b,,
{4}E4,E3,E1/E2,,
{4}E6,E7,E1/E8,,
{4}E3,C1,E7,E1,
{4}C1,E5,C1/B3/B6,,
{4}6h[4:3],E6,B5,B4,
{4}2h[4:3],E4,B4,B5,
{4}7h[4:1],5h[4:1],4h[4:1],3x,
{4}E3,B4/B5,C1/B3/B6,,
{4}8qq8[8:3],,,1x,
{4}1pp1[8:3],,,8x,
{4}8^5[4:1],,,4x,
{4}4^1[4:1]/5^8[4:1],,,2x/7x,
{4}2-6[4:1],,,7,
{4}7-3[4:1],,,2,
{4}2h[2:1],4,6h[4:1],5<2[8:3],
{2},C1f,
{2}7-3[8:1],2-6[8:1],
{4}8-6[8:1],2-4[8:1],1-5[8:1],,
{2}2v5[8:1]/8v5[8:1],4v1[8:1]/6v1[8:1],
{8}2^5[8:1],,,,7x/8x,7x/8x,1x/6x,,
{2}2-6[8:1],7-3[8:1],
{4}1-3[8:1],7-5[8:1],8-4[8:1],,
{2}1-5[8:1]/2-4[8:1],7-5[8:1]/8-4[8:1],
{8}1/2,,3,4,4-1[8:1]/5-8[8:1],,,,
{4}2b/7b,,,4x/5x,
{8}6h[4:3],,5,,,5,5,,
{8}3h[4:3],,4,,,4,4,,
{8}7h[8:5],,5,,,5,5/6,,
{8}2h[8:5],,4,,,4,3/4,,
{4}6h[2:1],5,5h[2:1],4,
{4}4h[2:1],3,3h[4:1],1,
{4}2/8,1/7,3/6,4h[4:1]/5h[4:1],
{4},,,2x/7x,
{2}8/7^4[8:1],1/2^5[8:1],
{4}7-5[8:1],1-3[8:1],8-4[8:1],1x,
{2}2^5[8:1]/8^5[8:1],1v4[8:1]/7v4[8:1],
{8}1/2-6[8:1],,,,7x/8x,7x/8x,1x/6x,,
{2}1/2^5[8:1],8/7^4[8:1],
{4}2-4[8:1],8-6[8:1],1-5[8:1],8x,
{2}7^4[8:1]/8p4[8:1],1q5[8:1]/2^5[8:1],
{8}7/8,,6,5,4^1[8:1]/5^8[8:1],,,,
{4}2b/7b,,B2,C1,
{4}B5/B6,,B7,C1,
{4}B3/B4,B5/B6,B2/B7,,
{4}B4/B5,B3/B6,{16}Ch[16:7],,,,,,,,
E

MASTER

(93.0){1},
{4},,,4/5,
{4}2^7[4:1],{8}6,6,{12}5,{983}4,,,,,,,,,,,,,,,,,,,,,,,,,,,,,,,,,,,,,,,,,{8}5,4/6,,
{8}7^2[4:1],,3,3,{12}4,{983}5,,,,,,,,,,,,,,,,,,,,,,,,,,,,,,,,,,,,,,,,,{8}4,3/5,,
{8}2^7[4:1],,6,6,{12}5,{983}4,,,,,,,,,,,,,,,,,,,,,,,,,,,,,,,,,,,,,,,,,{8}5,4/6,,
{8}7^2[4:1],,3,3,{12}4,{983}5,,,,,,,,,,,,,,,,,,,,,,,,,,,,,,,,,,,,,,,,,{8}4,4/5,,
{8}7-3[8:1],3<7[8:1],2,2,1,1,{12}2,{983}5,,,,,,,,,,,,,,,,,,,,,,,,,,,,,,,,,,,,,,,,,{8}4,
{8}5^2[8:1],5,1-5[8:1],1,6,6,5/6,,
{8}2-6[8:1],6>2[8:1],7,7,8,8,{12}7,{983}4,,,,,,,,,,,,,,,,,,,,,,,,,,,,,,,,,,,,,,,,,{8}5,
{8}4^7[8:1],4,8-4[8:1],8,3,3,3/4,,
{8}7-3[8:1],3>7[8:1],4,4,5,{12}5,{983}3,,,,,,,,,,,,,,,,,,,,,,,,,,,,,,,,,,,,,,,,,{8}4,2,
{8}1^4[8:1],1,5-1[8:1],5,8,8,8^5[8:1],7,
{8}1pp6[8:3],2,5,,7,7,8p3[8:1],8,
{8}1q6[8:1],1,7,7,2/7,2/7,8b/1b>7[4:3],,
{8}E1,C1,E5,,E1,C1,E5,,
{8}3^1[8:1]/7^5[8:1],4/8,,,2/6,3/7,4/8<2[4:3],,
{8}E1,C1,E5,,E1,C1,E5,,
{989}6/3^6[8:1],,,,,,,,,,,,,,,,,,,,,,,,,,,,,,,,,,,,,,,,,,,,,,,,,,,,,,,,,,,,,,,,,,,,,,,,,,,,,,,,,,,,,,,,,,,,,,,,,,,,,,,,,,,,,,,,,,,,,,,,,,,,,,,,,,,,,,,,,,,,,,,,,,,,,,,,,,,,,,,,,,,,,,,,,,,,,,,,,,,,,,,,,,,,,,,,,,,,,,,,,,,,,,{983}8,,,,,,,,,,,,,,,,,,,,,,,,,,,,,,,,,,,,,,,,,{4}8,{989}3/6^3[8:1],,,,,,,,,,,,,,,,,,,,,,,,,,,,,,,,,,,,,,,,,,,,,,,,,,,,,,,,,,,,,,,,,,,,,,,,,,,,,,,,,,,,,,,,,,,,,,,,,,,,,,,,,,,,,,,,,,,,,,,,,,,,,,,,,,,,,,,,,,,,,,,,,,,,,,,,,,,,,,,,,,,,,,,,,,,,,,,,,,,,,,,,,,,,,,,,,,,,,,,,,,,,,,{983}1,,,,,,,,,,,,,,,,,,,,,,,,,,,,,,,,,,,,,,,,,{8}1>7[4:3],,
{8}E1,C1,E5,,E5,C1,E1,,
{8}3^1[8:1]/7^5[8:1],4/8,,,2/6,3/7,8<2[4:3],,
{8}E1,C1,E5,,E5,C1,E1,,
{8}5/7,6,2/4,3,4/5,,7/2^7[8:1],1b,
{8}6^3[8:1],5,2,2,1^4[8:1]*^6[8:1],2/8,,,
{8}3v1[8:1]/7v5[8:1],2/6,,,2v4[8:1]/6v8[8:1],3/7,,,
{8}8^5[8:1],5pp5[8:1],4,2,1^4[8:1],4qq4[8:1],5,7,
{8}8^5[8:1],5pp5[8:1],4,2,1h[4:1],,7^2[8:1],8,
{8}3^6[8:1],4,7,7,8^3[8:1]*^5[8:1],1/7,,,
{8}2v4[8:1]/6v8[8:1],3/7,,,3v1[8:1]/7v5[8:1],2/6,,,
{8}1^4[8:1],4qq4[8:1],5,7,8^5[8:1],5pp5[8:1],4,2,
{8}1^4[8:1],4qq4[8:1],5,7,8h[4:1],,1x,,
{4}B1/E2/B8/E8,C1/E3/E7,E4/E6,E5,
{24}6h[1253:261],,,5,,{983}5,,,,,,,,,,,,,,,,,,,,,,,,,,,,,,,,,,,,,,,,,{8}6,4/5,3h[1253:261],{12}4,{983}4,,,,,,,,,,,,,,,,,,,,,,,,,,,,,,,,,,,,,,,,,{8}3,4/5,
{8}6h[8:1],8h[8:1],1h[8:1],3h[8:1],6h[1253:261],{12}5,{983}5,,,,,,,,,,,,,,,,,,,,,,,,,,,,,,,,,,,,,,,,,{8}6,4/5,
{8}3h[1253:261],{12}4,{983}4,,,,,,,,,,,,,,,,,,,,,,,,,,,,,,,,,,,,,,,,,{8}3,4/5,6h[1253:261],{12}5,{983}5,,,,,,,,,,,,,,,,,,,,,,,,,,,,,,,,,,,,,,,,,{8}6,4/5,
{8}3h[8:1],1h[8:1],8h[8:1],6h[8:1],4h[1253:261],{12}5,{983}5,,,,,,,,,,,,,,,,,,,,,,,,,,,,,,,,,,,,,,,,,{4}4^7[4:1],
{4}4^1[4:1],4^7[4:1],4,1h[4:1],
{4}8^5[4:1],8^3[4:1],8^5[4:1],8,
{4}2h[4:1],4h[4:1],5h[4:1],7h[8:7],
{8}2,4,2h[8:3],,,,2/7^2[8:1],8,
{8}3^6[8:1],4,7,7,8^3[8:1]*^5[8:1],B1/C1/B7,,,
{8}2v4[8:1]/6v8[8:1],B3/B7,,,3v1[8:1]/7v5[8:1],B2/B6,,,
{8}1^4[8:1],4qq4[8:1],B5/E6,B7/E8,8^5[8:1],5pp5[8:1],B4/E4,B2/E2,
{8}1^4[8:1],4qq4[8:1],B5/E6,B7/E8,8h[4:1],,2^7[8:1],1,
{8}6^3[8:1],5,2,2,1^4[8:1]*^6[8:1],C1/B2/B8,,,
{8}3v1[8:1]/7v5[8:1],B2/B6,,,2v4[8:1]/6v8[8:1],B3/B7,,,
{8}8^5[8:1],5pp5[8:1],B4/E4,B2/E2,1^4[8:1],4qq4[8:1],B5/E6,B7/E8,
{8}8^5[8:1],5pp5[8:1],B4/E4,B2/E2,1h[4:1],,8,,
{8}3/6,,4/5,4/5,{983}6,,,,,,,,,,,,,,,,,,,,,,,,,,,,,,,,,,,,,,,,,{625}5,,,,,,,,,,,,,,,,,,,,,,,,,,{983}7,,,,,,,,,,,,,,,,,,,,,,,,,,,,,,,,,,,,,,,,,3,,,,,,,,,,,,,,,,,,,,,,,,,,,,,,,,,,,,,,,,,{625}4,,,,,,,,,,,,,,,,,,,,,,,,,,{983}2,,,,,,,,,,,,,,,,,,,,,,,,,,,,,,,,,,,,,,,,,6,,,,,,,,,,,,,,,,,,,,,,,,,,,,,,,,,,,,,,,,,{625}5,,,,,,,,,,,,,,,,,,,,,,,,,,{983}7,,,,,,,,,,,,,,,,,,,,,,,,,,,,,,,,,,,,,,,,,{8}4,
{8}4/3h[8:1],5,5/6h[8:1],4,{12}2,{983}2,,,,,,,,,,,,,,,,,,,,,,,,,,,,,,,,,,,,,,,,,{12}4,{983}4,,,,,,,,,,,,,,,,,,,,,,,,,,,,,,,,,,,,,,,,,{12}5,{983}5,,,,,,,,,,,,,,,,,,,,,,,,,,,,,,,,,,,,,,,,,{8}7,
{8}5/6h[8:1],4,4/3h[8:1],5,{983}6,,,,,,,,,,,,,,,,,,,,,,,,,,,,,,,,,,,,,,,,,{625}5,,,,,,,,,,,,,,,,,,,,,,,,,,{983}7,,,,,,,,,,,,,,,,,,,,,,,,,,,,,,,,,,,,,,,,,3,,,,,,,,,,,,,,,,,,,,,,,,,,,,,,,,,,,,,,,,,{625}4,,,,,,,,,,,,,,,,,,,,,,,,,,{983}2,,,,,,,,,,,,,,,,,,,,,,,,,,,,,,,,,,,,,,,,,6,,,,,,,,,,,,,,,,,,,,,,,,,,,,,,,,,,,,,,,,,{625}5,,,,,,,,,,,,,,,,,,,,,,,,,,{983}7,,,,,,,,,,,,,,,,,,,,,,,,,,,,,,,,,,,,,,,,,{8}4,
{8}4/3h[8:1],5,5/6h[8:1],4,{983}3,,,,,,,,,,,,,,,,,,,,,,,,,,,,,,,,,,,,,,,,,{625}4,,,,,,,,,,,,,,,,,,,,,,,,,,{983}2,,,,,,,,,,,,,,,,,,,,,,,,,,,,,,,,,,,,,,,,,6,,,,,,,,,,,,,,,,,,,,,,,,,,,,,,,,,,,,,,,,,{625}5,,,,,,,,,,,,,,,,,,,,,,,,,,{983}7,,,,,,,,,,,,,,,,,,,,,,,,,,,,,,,,,,,,,,,,,3,,,,,,,,,,,,,,,,,,,,,,,,,,,,,,,,,,,,,,,,,{625}5,,,,,,,,,,,,,,,,,,,,,,,,,,{983}4,,,,,,,,,,,,,,,,,,,,,,,,,,,,,,,,,,,,,,,,,6,,,,,,,,,,,,,,,,,,,,,,,,,,,,,,,,,,,,,,,,,{625}4,,,,,,,,,,,,,,,,,,,,,,,,,,5,
E

Re:MASTER


名前:
コメント:

タグ:

+ タグ編集
  • タグ:
最終更新:2022年09月24日 22:42