アットウィキロゴ

太陽系デスコ

アーティスト ナユタン星人

BPM BASIC ADVANCED EXPERT MASTER Re:MASTER
150 4 6 9+ 12 -

EXPERT MASTER Re:MASTER
譜面制作者 サファ太 はっぴー -

BASIC

(150.0){1},
{1}1hx[2:7],,,,
{2}1x,1x,
{2}1x,1x,
{2}1x,1x,
{1}1b,
{1}1hx[2:1],
{1}8h[2:1],
{1}1hx[2:1],
{1}8h[2:1],
{2}1,1,
{2}2,2,
{2}3,3,
{4}4,4,4,,
{2}5,5,
{2}6,6,
{2}7,7,
{2}8,1x/8x,
{2}7,7,
{2}6,6,
{2}5,5,
{4}4,5,4,,
{2}3,3,
{2}2,2,
{2}1,1,
{4}8,1,8,,
{1}B1/B8,
{1}B2/B7,
{1}Chf[1:1],,
{4}1,1,1,,
{4}2,2,2,,
{4}3,3,3,,
{4}4,5,4x,,
{4}5,5,5,,
{4}6,6,6,,
{4}7,7,7,,
{4}8,8,1,1b,
{1}8hx[2:1],
{4}8,8,7,,
{1}1hx[2:1],
{4}1,1,2,,
{1}8hx[2:1],
{4}8,8,1/8,,
{1}1hx[2:1],
{4}1,1,8,8,
{1}1hx[2:7],,,,
{1}B1/B8,
{1}B2/B7,
{1}Chf[8:7],,
{4}8,8,8,,
{4}7,7,7,,
{4}6,6,5,5,
{4}4,4,4x/5x,,
{4}4,4,4,,
{4}3,3,3,,
{4}2,2,1,1,
{4}8,8,1x/8x,,
{4}1,1,1,,
{4}2,2,2,,
{4}3,3,4,4,
{4}5,5,4x/5x,,
{4}5,5,5,,
{4}6,6,6,,
{4}7,7,8,8,
{4}1/8,,,1b,
{1}8hx[2:1],
{4}8,8,1/7,,
{1}1hx[2:1],
{4}1,1,2/8,,
{1}7hx[2:1]/8hx[2:1],
{4}1,8,1,,
{1}1hx[2:1]/2hx[2:1],
{4}8,8,1,1,
{1}8b,
{1}1-5[4:3],,
{1}8-4[4:3],,
{1}1b,
E

ADVANCED

(150.0){1},
{1}6hx[1:1],
{1}5h[1:1],
{1}4h[1:1],
{2}3,3,
{4}4,4,4,,
{4}5,5,5,,
{4}6,6,7,7,
{4}8,1x/8x,2x/7x,,
{4}2,2,1/2,,
{4}7,7,7x/8x,,
{4}2,2,1,1,
{4}1x/8x,1x/8x,2b/7b,,
{4}6h[2:1],,5,5,
{4}4h[2:1],,5,5,
{4}6h[2:1],,5,4,
{4}3,3,3x/4x,,
{4}3h[2:1],,4,4,
{4}5h[2:1],,4,4,
{4}3h[2:1],,4,5,
{4}6,6,5x/7x,,
{4}6,6,5/6,,
{4}3,3,3/4,,
{4}6,6,5,5,
{4}4,3,2x/4x,,
{4}3,3,3/4,,
{4}6,6,5/6,,
{4}3,3,2,2,
{4}1,1/8,2x/7x,,
{2}B7,C1,
{2}B3,E5,
{2}B4/B5,B3/B6,
{1}C1f,
{4}2,2,1/2,1/2,
{4}8,7,1x/6x,,
{4}6,5,4,3,
{4}4x/5x,3x/6x,2b/7b,,
{4}7,7,7/8,7/8,
{4}1,2,3x/8x,,
{4}3,4,5,6,
{4}4x/5x,3x/6x,2b/7b,,
{2}7hx[4:1]/8hx[4:1],7hx[4:1]/8hx[4:1],
{4}6,5,4,3,
{2}1hx[4:1]/2hx[4:1],1hx[4:1]/2hx[4:1],
{4}3,4,5,6,
{2}7hx[4:1]/8hx[4:1],7hx[4:1]/8hx[4:1],
{4}6,5,4,3,
{2}1hx[4:1]/2hx[4:1],1hx[4:1]/2hx[4:1],
{4}3,4,4x/5x,3x/6x,
{1}2hx[1:3]/7hx[1:2],,,
{2},2x/7x,
{1}6^3[2:1],
{1}2^7[2:1],
{4}6,6,4-1[2:1]/5-8[2:1],,
{2},2x/7x,
{4}2,1/2,2,1/2,
{4}7,7/8,1x/6x,,
{4}6,5,4,3,
{4}1x/2x,3x/8x,4b/7b,,
{4}7,7/8,7,7/8,
{4}2,1/2,3x/8x,,
{4}3,4,5,6,
{4}7x/8x,1x/6x,2b/5b,,
{4}2,1/2,7,7/8,
{4}6,5/6,4b/7b,,
{4}3,3/4,6,5/6,
{4}4/7,3/8,3b/8b,,
{4}7,7/8,2,1/2,
{4}3,3/4,2b/5b,,
{4}6,5/6,3,3/4,
{4}2,1x/8x,2b/7b,,
{2}7hx[4:1]/8hx[4:1],7hx[4:1]/8hx[4:1],
{4}6,5,4,3,
{2}1hx[4:1]/2hx[4:1],1hx[4:1]/2hx[4:1],
{4}3,4,5,6,
{2}7hx[4:1]/8hx[4:1],7hx[4:1]/8hx[4:1],
{4}6,5,4,3,
{2}1hx[4:1]/2hx[4:1],1hx[4:1]/2hx[4:1],
{4}3,4,5x/6x,4x/7x,
{1}3b/8b,
{2}B2,C1,
{2}B6,B7,
{2}C1,B3,
{2}B4/B5,E3/E7,
{4}Ch[4:9],{1},,,
E

EXPERT

(150.0){1},
{1}1b/6h[1:1],
{1}4h[1:2],
{1}5h[2:3],
{4},,,3/6,
{4}4/5,4,4/5,4,
{4}3/6,3,3/6,3,
{4}2/7,2,2/7,2,
{4}1h[4:1]/8h[4:1],,3/4,8b,
{4}3,2/4,6,5/7,
{4}3h[4:1],4h[4:1],5h[4:1],6,
{4}5/7,6,2/4,3,
{8}4h[4:1]/5h[4:1],,,,2,1/2,1/2,,
{4}3,4,6,5/6,
{4}3,3/4,5,4/5,
{4}6,5,3h[4:1],4,
{8}2,,2/4,,2h[4:1],1,1,,
{4}3,4,6,5/6,
{4}7,8/7h[2:1],1x,1x,
{4}7,5/7,3,4/2q5[8:5],
{4},,,8,
{4}7,5,3,2/4,
{4}2,4,5,4/6,
{4}7,5,4,3/5,
{4}2h[4:1],4-1[4:1]*q1[4:1],,,
{4}7,5,3,2/4,
{4}2,4,6,5/7,
{2}2-5[8:1],7-4[8:1],
{4}3h[4:1],4h[4:1],5h[4:1],6b,
{8}C1/B4/B8,,,,,7/8,7/8,,
{8}B1/C1/B5,,,,,1/2,1/2,,
{4}B6,B8/E8,B3,B1/E2,
{2}C1f,2x/7x,
{2}6h[4:1]/5-1[8:1],6h[4:1]/5-1[8:1],
{2}3h[4:1]/4-8[8:1],3h[4:1]/4-8[8:1],
{4}2h[4:1],4,7h[4:1],8,
{8}5/6,,3/4,,2,1/2,1/2,,
{4}8/3h[4:1],4,1/6h[4:1],5,
{4}4/5,2/4,4/5,5/7,
{2}1/8-4[8:1],1/2-5[8:1],
{4}6p3[8:3],,,1b,
{4}3/4,1/7,3/4,1/7,
{8}5/6h[4:1],,5,,7,7/8,7/8,,
{4}5/6,2/8,5/6,2/8,
{8}3,3,4,,2,1/2,1/2,,
{4}3/4,1/7,5/6,2/8,
{8}5/7h[4:1],,5,,7,7/8,7/8,,
{4}5/6,1/2,3/4,7/8,
{4}1x/6x,2x/5x,3x/4x,4x/5x,
{1}1hx[4:15]/6h[4:15],,,,
{4}E1,E8,E7,E6,
{4}E5,E4,E3,E2,
{8}E1,,C1,,E5,,3/6,3x/6x,
{8},4x/5x,4x/5x,,2x/7x,,,,
{2}3b-8[8:1]/4b-8[8:1],3-8[8:1]/4-8[8:1],
{2}5-1[8:1]/6-1[8:1],5-1[8:1]/6-1[8:1],
{4}2h[4:1],4,7h[4:1],8,
{8}5/6,,3/4,,2,1/2,1/2,,
{4}8/3h[4:1],4,5/6h[4:1],1,
{8}2/4,,7/8,,6,5,4/6,,
{2}4/3-8[8:1],4/5-1[8:1],
{4}2h[4:1],1,3x/8x,,
{2}4b-1[8:1]/6b-1[8:1],3x-8[8:1]/5x-8[8:1],
{8}5/7,,2/4,,1x/8x,1x/8x,1x/8x,2b/7b,
{8},8,8-4[8:1],,1,,2/5,,
{8}7/8,,5/6,,3,1/2,1/2,,
{2}5-1[8:1]/6^1[8:1],5-1[8:1]/6^1[8:1],
{2}3^8[8:1]/4-8[8:1],3^8[8:1]/4-8[8:1],
{4}5/6,1/8,3/4,1/8,
{4}4hx[4:1]/5hx[2:1],,,1b/5x,
{4}3/4,1/7,3-1[8:1]/4-7[8:1],,
{8}8,,5/6,,6,7/8,7/8,,
{4}5/6,2/8,5-2[8:1]/6-8[8:1],,
{8}6,6,5/7,,3,1/2,1/2,,
{2}3b-1[8:1]/4b-7[8:1],5x-2[8:1]/6x-8[8:1],
{8}1,,3/4,,6,7/8,7/8,,
{2}3x-1[8:1]/4x-7[8:1],5x-2[8:1]/6x-8[8:1],
{4}1h[4:1],2h[4:1],3h[4:1],4-8[2:1],
{4},,,4x/5x,
{4}1b/6x,3/8,1/6,3/8,
{4}2/5,4/7,2/5,4/7,
{4}1/6,3/8,1/6,3/8,
{8}5,5,4,4,4/5,,3/7,,
{1}1b/5b,
E

MASTER

(150.0){1},
{1}1b,,,
{16},,,,,,,,,,,,5,4,6,,
{4}5/6,5/7,5/8,1/5,
{4}3/4,2/4,1/4,4/8,
{4}5/6,5/7,5/8,1/5,
{4}3/4,2/4,4/1-5[8:1],1x,
{4}6-8[8:1],3-1[8:1],6-8[8:1],3-1[8:1],
{4}6-8[8:1],3-1[8:1],6-8[8:1],3-1[8:1],
{4}6-8[8:1],3-1[8:1],6,2/7,
{16}4/5,,3/6,,3/6,,5,4,6,,4/6,,2/7,,,,
{16}1/8,,6,5,7,,7,,5,,5,,4,,4,,
{8}2,2,2/4-7[8:1],,3-8[8:1],,7,,
{16}6,,3,4,2,,2,,4,,4,,5,,6,,
{8}6,5,6,7,8,1x/2x,1x/2x,,
{16}1/8,,6,5,7,,7h[4:1],,,,8,,1,,2h[4:1],,
{8},1,1-6[8:1],,2-5[8:1],,6,,
{16}6,,3,4,2,,2h[4:1],,,,1,,1h[4:1],,,,
{8}8h[4:1],,6,,3,1x/2x,1x/2x,,
{16}1/8,,6,5,7,,7h[4:1],,,,5,,4,,3h[4:1],,
{8},5,5-8[8:1],,1-5[8:1],,8,,
{16}6,,3,4,2,,2h[4:1],,,,4,,5,,6h[4:1],,
{8},5,6,7,8,1x/2x,1x/2x,,
{16}1/8,,6,5,7,,7h[4:1],,,,8,,1,,2h[4:1],,
{8},8,8-5[8:1],,4-8[8:1],,5,,
{16}6,,3,4,2,,2h[4:1],,,,1,,1h[4:1],,,,
{4}8h[4:1],6h[4:1],3,4/5,
{8}3h[2:1]/8h[2:1],,,,,7,7/8,,
{8}1h[2:1]/6h[2:1],,,,,2,1/2,,
{8}3/8,4,5,1/6,5,4,3/8,3x/8x,
{8},7/8,1/6,2/5,3/4,,8b,,
{8}6-2[8:1],,4-1[8:1],,8,,1,1^6[8:1],
{8},5,5-8[8:1],,4-1[8:1],,8,,
{16}2/7,,1,8,2^5[8:1],,2,,6^1[8:1],,6,,4,,3,,
{8}2q6[8:1]/6^1[8:1],,,,8b,E1/B1/E2,B1/E1/E2,,
{8}3-7[8:1],,5-8[8:1],,1,,8,8^3[8:1],
{8},4,4-1[8:1],,5-8[8:1],,1,,
{16}2/7,,8,1,7^4[8:1],,7,,3^8[8:1],,3,,5,,6,,
{4}3V14[4:1]/7V58[4:1],,,1b/8b,
{4}3-8[8:1],6-1[8:1],3-8[8:1],6-1[8:1],
{8}3,3,6,6,1,E1/B8/E8,E1/B8/E8,,
{4}6-1[8:1],3-8[8:1],6-1[8:1],3-8[8:1],
{8}6,6,3,3,8,B1/E1/E2,E1/B1/E2,,
{4}3-8[8:1],6-1[8:1],3-8[8:1],6-1[8:1],
{8}3,3,6,6,1,E1/B8/E8,E1/E8/B8,,
{4}6-1[8:1],3-8[8:1],6-1[8:1],3-8[8:1],
{4}7-4[8:1],2-6[8:1],8-4[8:1],1h[4:15],
{1}Ch[1:3],,,
{16},,,,,,,,,,,5,4,,3/5,,
{16}3/5,,,4,3,,3/5,,3/5,,,4,3,,3/5,,
{16}3/5,,,4,3,,3/5,,3/5,,,4,3,,3/5,,
{16}3/5,,,4,3,,3/5,,3/5,,,4,3,,2b/6b,,
{8},1/8,2/7,3/6,4/5,,1b,,
{8}3-7[8:1],3,5-8[8:1],5,1,1,8,8^3[8:1],
{8},4,4-1[8:1],,5-8[8:1],,1,,
{16}2/7,,8,1,7^4[8:1],,7,,3^8[8:1],,3,,5,,6,,
{8}3^6[8:1]/7^2[8:1],,,,8b,B1/E1/B2/E3,E1/B1/B2/E3,,
{8}6-2[8:1],6,4-1[8:1],4,8,,1,1^6[8:1],
{8},5,5-8[8:1],,4-1[8:1],,8,,
{16}2/7,,1,8,2^5[8:1],,2,,6^1[8:1],,6,,4,,3,,
{8}2pp1[4:1]/6pp5[4:1],,,,,,4/6,3,
{8}2-6[8:1],,2x/8<2[4:1],,2/8x,,1,1h[4:1],
{8},8,7-3[8:1],2-6[8:1],7x,2x,8b,C1f,
{16},,1,8,2^5[8:1],,2,,1^6[8:1],,1,,2^5[8:1],,2,,
{8}1^6[8:1],1,2h[4:1],,8,B2/E2/B7/E8,E2/B2/B7/E8,,
{8}8-5[8:1],,8x/1>7[4:1],,1x/7,,8,8,
{8},3,5-8[8:1],4-1[8:1],,,8,7,
{16}4/6,,3,4,2,,6,5,7,,2,1,3,,7,8,
{4}6h[4:3],,,1b,
{4}8/3-8[8:1],6-1[8:1],3-8[8:1],6-1[8:1],
{8}3,3,6,6,1,E1/B1/B7/E8/B8,B1/E1/B7/B8/E8,,
{4}6-1[8:1],3-8[8:1],6-1[8:1],3-8[8:1],
{8}6,6,3,3,8,B1/E1/B2/E2/B8,B1/E1/E2/B2/B8,,
{4}3-8[8:1],6-1[8:1],3-8[8:1],6-1[8:1],
{8}3,3,6,6,1,E1/B1/B7/B8/E8,E1/B1/B7/B8/E8,,
{8}6-1[8:1],,3-8[8:1],,6-1[8:1],,3,3,
{4}B4/E4/B5/E6,B1/E2/B8/E8,E3/E7,B2/B3/B6/B7,
{8}C1f/B4/E4/E8/B8,,,,,,1/8,4/5,
{4}3-6[8:1],2-7[8:1],3-6[8:1],2-7[8:1],
{8}3,,4/5,4/5,3/6,B1/E2/E8/B8,B1/E2/B8/E8,,
{4}6/3-6[8:1],2-7[8:1],3-6[8:1],8,
{8}1/6,3/8,1/6,3/8,1h[8:1]/6h[8:1],,3h[8:1]/8h[8:1],,
{1}1b/6b,
E

Re:MASTER


名前:
コメント:

タグ:

+ タグ編集
  • タグ:
最終更新:2022年09月24日 22:44