アットウィキロゴ

ハム太郎とっとこうた

アーティスト ハムちゃんず [covered by 光吉猛修]

BPM BASIC ADVANCED EXPERT MASTER Re:MASTER
140 1 5 8 12 12+

EXPERT MASTER Re:MASTER
譜面制作者 小鳥遊さん ぴちネコ はっぴー

BASIC

(140.0){1},,,, {1}4hx[1:1],, {1}5hx[1:1],, {1}4, {1}4, {1}5, {1}5, {2}4,4, {1}4, {2}5,5, {1}5, {2}4,4, {1}4hx[2:1], {2}5,5, {1}5hx[2:1], {2}4,4, {1}4b, {1}3-6[4:3],, {2}5,5, {1}5, {2}4,4, {1}4, {2}5,5, {1}5hx[2:1], {2}4,4, {1}4hx[2:1], {2}5,5, {1}5b, {1}6-3[4:3],, {1}B2, {1}B3, {1}B4, {1}B5, {1}B6, {1}B7, {1}B6, {1}B5, {1}B4, {1}B3, {1}Chf[1:1],,, {2}4,4, {1}4/5, {2}5,5, {1}4/5, {2}3/4,3/4, {1}3hx[2:1]/4hx[2:1], {2}5/6,5/6, {1}5hx[2:1]/6hx[2:1], {2}4,5, {1}4b, {1}3-6[4:3],, {2}4/5,4/5, {2}4/5,4/5, {1}3hx[1:1]/6hx[1:1],, E

ADVANCED

(140.0){1},,,, {1}6hx[1:1], {1}5h[1:1], {1}4h[1:1], {2}3x,3x, {2}2h[2:1],1, {2}8h[2:1],1, {2}2/8,1/7, {4}8x,8x,2b/7b,, {4}7,7,7/8,, {4}2,2,1/2,, {4}7,7,8,8, {4}1/8,1/8,2x/7x,, {1}1>7[4:5],, {1}8<2[4:5],, {4}2,2,1/2,, {4}7,7,7/8,, {4}8,7,6,5, {4}4/5,4/5,3x/6x,, {4}2,2,1/2,, {4}7,7,7/8,, {4}2,2,1,1, {4}1/8,1/8,2x/7x,, {1}8<2[4:5],, {1}1>7[4:5],, {4}7,7,7/8,, {4}2,2,1/2,, {4}8,8,1/8,1/8, {1}2x/7x, {2}B7,C1, {1}B3, {2}B2,C1, {1}B6, {2}B7,C1, {2}B3,B2, {2}C1,B6, {1}C1f, {1}1-6[2:1]/2-5[2:1], {1}7-4[2:1]/8-3[2:1], {4}2,2,1,1, {4}1x/8x,1x/8x,{2}2hx[2:1]/7hx[2:1],{1}, {4}7,7,7/8,7/8, {4}1,1,2/8,, {4}2,2,1,1, {4}7/8,7/8,1x/6x,, {1}2<4[4:5],, {1}3<1[4:5],, {4}2,2,1/2,1/2, {4}8,8,1/7,, {4}1/8,1/8,2/7,2/7, {1}3b/6b, {2}E5,B4/B5, {2}B3/B6,B2/B7, {1}Chf[1:1],, E

EXPERT

(140.0){1},,,, {2}6x/3hx[1:1],4, {4}6h[1:1],,5,4, {2}3h[1:1],4, {4}5h[2:1],,4,2/7, {4}3,2/4,6,5/7, {4}2,1/3,7,6/8, {2}1hx[4:1]/5hx[4:1],3hx[4:1]/7hx[4:1], {2}2hx[4:1]/6hx[4:1],4b/8b, {4}5h[4:1],4,2h[4:1],3q6[8:5],{1}, {4}4h[4:1],5,7h[4:1],6p3[8:5],{1}, {1}3xqq5[4:3]/6xpp4[4:3], {4},E7,C1,E3, {1}1xpp1[4:3]/8xqq8[4:3], {4},B4/B5,C1f/B2/B7,, {4}1h[4:1],3,8h[4:1],6p3[8:5],{1}, {4}E2,B3,E8,B6, {4}E5,E4/E6,C1f/B2/B7,, {4}1/2,3,4,5pp1[8:5],{1}, {4}7/8,6,5,4qq8[8:5],{1}, {1}3xqq5[4:3]/6xpp4[4:3], {4},E3,C1,E7, {1}1xpp1[4:3]/8xqq8[4:3], {4},B4/B5,C1f/E3/E7,, {4}1/2,3/4,5/6,7qq4[4:3]/8pp3[4:3],{1}, {8}2,2,1,,7,7,8,, {8}3,3,4,,6,6,5,, {4}4h[4:1],5h[4:1],4h[4:1],5h[4:1], {4}1h[4:1],8h[4:1],1h[4:1],8, {4}3,4/5,6,4/5, {4}2,4/5,7,4-1[8:3]/5-8[8:3],{1}, {4}1h[2:1]/8h[2:1],,,2/7, {4}B1/B2,B3/B4,B5/B6,B7/B8, {4}B1/B2,B3/B4,B5/B6,B7/B8, {1}B2/B3/Ch[2:1], {1}B6/B7/Ch[2:1], {4}E5,E4/E6,{2}B2/B7/Chf[2:1],{1}, {1}8<4[2:1], {4}2h[4:1],4h[4:1],5h[4:1],7z3[8:5],{1}, {4}7h[4:1],5h[4:1],4h[4:1],2s6[8:5],{1}, {1}3xqq5[4:3]/6xpp4[4:3], {4},E4/E6,C1,E2/E8, {1}1xpp1[4:3]/8xqq8[4:3], {4},B4/B5,C1f/B2/B7,, {4}1h[4:1],3h[4:1],5h[4:1],7z3[8:5],{1}, {8}2,2,1,,7,7,8,, {8}3,3,4,,6,6,5,, {1}1-6[4:1]/2-5[4:1], {1}7-4[4:1]/8-3[4:1], {1}2V41[2:1]/7V58[2:1], {1}2b/7b, E

MASTER

(140.0){16},,,,,,,,,,,,,,4x,4x, {16}4x,4x,,,,,,,,,,,,,,, {16},,,,5x,,5x,5x,{2}5x<4[2:1],{1}, {1}1-3[8:3]/8-6[8:3], {1}2^4[16:7]/8V63[32:7], {1}7-3[4:1]>5[8:3], {1}8V64[8:3]*V24[8:3], {4}5/6,1,3/4,8, {8}5/6,,1,,3,4,3,, {8}1/7h[4:1],2,3,4,5/3h[4:1],6,7,8, {8}1/7h[4:1],2,3,4,3/5,,6/4-2[8:1],, {4}5-1[8:1],4-2[8:1],5-1[8:1],4-2[8:1], {8}5-1[8:1],,4-2[8:1],,5,5,5-7[8:1],, {4}4-8[8:1],5-7[8:1],4-8[8:1],5-7[8:1], {8}4-8[8:1],,5-7[8:1],,4,4,4,, {8}3qq5[4:1]/6pp4[4:1],,,,,,2/4,3/5, {4}4/6h[4:3],B7,E1,B2, {8}4qq4[4:1],,6,7,8qq8[4:1],,2,3, {4}4h[2:1],Chf[4:1],,, {4}4-2[8:1],5-8[8:1],4-1[8:1],5-7[8:1], {4}4-1[8:1],5-8[8:1],4-2[8:1],5, {8}1/7h[4:1],2,3,4,5/3h[4:1],6,7,8, {8}1/7h[4:1],2,3,4,3/5,,4/8<4[4:1],, {4}4>8[4:1],8<4[4:1],4>8[4:1],8<4[4:1], {8}4>8[4:1],,8<4[4:1],,3x,2x,1x>5[4:1],, {4}5<1[4:1],1>5[4:1],5<1[4:1],1>5[4:1], {8}5<1[4:1],,1>5[4:1],,6x,7x,8x,, {8}3qq5[4:1]/6pp4[4:1],,,,,,2/4,3/5, {4}4/6h[4:3],B6/B7,B1/B8,B2/B3, {8}4qq4[4:1],,6,7,8qq8[4:1],,2,3, {4}4h[2:1],Chf[4:1],,, {4}1>5[4:1],5q1[4:1],1q5[4:1],5<1[4:1], {8}1,,5,5h[8:13],,,,, {8}B1,B2,B3,B4,B5,B6,B7,B8, {641}1x,,,,,,,,,,,,,,,,,,,,{639}2x,,,,,,,,,,,,,,,,,,,,3x,,,,,,,,,,,,,,,,,,,,{641}4x,,,,,,,,,,,,,,,,,,,,5x,,,,,,,,,,,,,,,,,,,,{639}6x,,,,,,,,,,,,,,,,,,,,7x,,,,,,,,,,,,,,,,,,,,{641}8x,,,,,,,,,,,,,,,,,,,,1x,,,,,,,,,,,,,,,,,,,,{639}2x,,,,,,,,,,,,,,,,,,,,3x,,,,,,,,,,,,,,,,,,,,{641}4x,,,,,,,,,,,,,,,,,,,,5x,,,,,,,,,,,,,,,,,,,,{639}6x,,,,,,,,,,,,,,,,,,,,7x,,,,,,,,,,,,,,,,,,,,{641}8x,,,,,,,,,,,,,,,,,,,,{4}1b/5b,, {4}B1,B2,B3,B4, {4}B1/B5,B2/B6,B3/B7,B4/B8, {4}1h[8:1]/3h[8:1],4h[8:1]/5h[8:1],6h[8:1]/8h[8:1],4h[8:1]/5h[8:1], {4}1h[8:1]/3h[8:1],4h[8:1]/5h[8:1],6h[8:1]/8h[8:1],4-1[8:1]/5-8[8:1], {4}4b/5b,,4/7,2/5, {4}6/1-5[8:1],7,3/8-4[8:1],2, {4}1h[8:1]/2h[8:1],3h[8:1]/4h[8:1],5h[8:1]/6h[8:1],7h[8:1]/8h[8:1], {4}1h[8:1]/2h[8:1],3h[8:1]/4h[8:1],5h[8:1]/6h[8:1],7h[8:1]/8h[8:1], {8}1/2h[4:3],1,1>5[4:1],1,,,,, {8}8/7h[4:3],8,8<4[4:1],8,,,,, {4}B1/E2/B2,4/5,B7/E8/B8,4/5, {4}B3/B4/B5/B6,4/5,{2}Chf[8:5],{1}, {8}2x/7x,,4/5,,3/8,7,1/6,2, {8}3V51[16:3]/7V15[16:3],,,,,6,7,8, {8}1/3,,4/5,,4/7,6,2/5,3, {1}4V62[16:3]/8V26[16:3], {8}C1/B2/B3/B4/E5/B5/B6/B7,,,,5/7,3,2/4,5, {4}6h[4:3]/4-7[8:1],4x-8[8:1],4x-1[8:1],4x, {8}4qq4[4:1],,6,7,8qq8[4:1],,2,3, {4}4h[4:1],5w1[8:1],5x,, {4}7z3[4:1],1,2s6[4:1],8, {4}7z3[4:1],1,2s6[4:1],8, {8}7h[2:1],8,1,2,3h[2:1],4,5,6, {8}7h[2:1],8,1,2,3,,1/5,, {4}E6/B6/B7/E8,E2/B2/B3/E4,C1,, {8}B6/E6/B7/B8,,B1/B2/B3/E4,,C1,,,1x/7x, {8}2x/6x,3xV14[8:3]/5xV74[8:3],,,,,,, {1}3b/5h[4:5], {16},{597}1x,,,,,,,,,,,,,,,,,,,,,,,,,,,,{16}1x,{653}1x,,,,,,,,,,,,,,,,,,,,,,,,,,,,,,,,,,,,,,,,,,,,,,,,,,,1x, E

Re:MASTER

(140.0){8},,,,,,,C1/B3/B4/B7/B8,{1}, {8},,B1/C1f/B2/B5/B6,,,,,{24}4x,5x,4x,5x,4x,5x,4x,5x,4x,5x,4x,5x,{32}4x,3x,2x,1x,8x,7x,6x,5x,4x,3x,2x,1x,8x,7x,6x,5x,4x,3x,2x,1x, {4}8x,5,5,5, {16}5,,,,5,,,,5,,,,5,,4,4, {4}5,5,5,5<4[8:3], {16}5,,,,,,,,,,5,4,5,4,5,4, {16}5,,3,4,2,,6,5,7,,3,4,2,,6,5, {16}7,,2,1,3,,7,8,6,,2,1,3,,7,8, {8}6,4/5,3,1/2,8,6/7,5,3/4, {8}2,1/8,2/7,3/6,4/5,6,5,4, {4}3-8[8:1],6-1[8:1],4-8[8:1],8<2[4:1], {8}1,1,1,1,1,6,5,4, {4}3-5[16:1],7-1[16:1],2-4[16:1],6<4[8:3], {8}5,5,5,5,5,5/6,5-2[8:1]/6-1[8:1],, {4}5x/6x,3-8[8:1]/4-7[8:1],3x/4x,4-1[8:1]/5-8[8:1], {4}4x/5x,7x^4[16:1]/8x^3[16:1],{641}E1/E7,,,,,,,,,,,,,,,,,,,,{639}E2/E6,,,,,,,,,,,,,,,,,,,,{16}E3/E5,,,2b/7b,,,, {8}1h[4:1],,,1/8,7,6,5,4, {8}3/6,,C1f/B4/B5,C1f/E1/E2/E8,C1f/E3/E7,,,, {4}7^4[8:1],8v3[8:1],7^4[8:1],8v3[8:1], {4}7^4[8:1],8v3[8:1],7^4[8:1],1b, {8}1h[8:1],5h[8:1],6h[8:1],7h[8:1],2h[8:1],5h[8:1],6h[8:1],7h[8:1], {8}3h[8:1],5h[8:1],6h[8:1],7h[8:1],4,3,4,5, {8}6h[4:1],,1,,{32}1b,2,3,4,5,6,7,8,{8}1,, {8}3b/7b,,,,,6,5,4, {8}3h[4:1],,8,,{32}8b,7,6,5,4,3,2,1,{4}8, {4}2b/6b,,,3^8[8:1]/4p7[8:1], {4}3x/4x,5q2[8:1]/6^1[8:1],5x/6x,4^1[8:1]/5^8[8:1], {4}4x/5x,1^6[16:1]/2^5[16:1],{641}E1/E3,,,,,,,,,,,,,,,,,,,,{639}E4/E8,,,,,,,,,,,,,,,,,,,,{16}E5/E7,,,3x/8x,,,, {8}1h[8:3],,,8,7,6,5,4, {8}3/6,,B1/C1f/B8,C1f/E4/E5/E6,C1f/E3/E7,,,, {8}1,2,3,4,5,6,7,8, {32}8,7,6,5,4,3,2,1,8,7,6,5,4,3,2,1,8,7,6,5,4,3,2,1,{8}8,, {8}8h[8:1],4h[8:1],3h[8:1],2h[8:1],7h[8:1],4h[8:1],3h[8:1],2h[8:1], {8}6h[8:1],4h[8:1],3h[8:1],2h[8:1],5,,6/3-1[16:1],, {4}3/6-8[16:1],6/3-1[16:1],3/6-8[16:1],6/3-1[16:1], {4}3/6-8[16:1],6/3-1[16:1],3/6-8[16:1],1b/6, {4}B2/B3,B1/E2/B8/E8,B6/B7,B4/E4/B5/E6, {4}2/3,1/8,6/7,4-1[16:1]/5-8[16:1], {641}E5,,,,,,,,,,,,,,,,,,,,{639}C1f,,,,,,,,,,,,,,,,,,,,{16}E1,,,,,,,,,,,,,,, {2}8h[4:3],1h[4:1], {4}6-1[8:1],6h[4:1],3-8[8:1],3h[4:1], {4}6-1[8:1],6h[4:1],3-8[8:1],3, {8}B5/E5/B6/E7,E8,B3/B4,8h[4:1],,1,1,, {8}B3/E3/B4/E5,E2,B5/B6,1h[4:1],,8,8,B2/E2/E3, {8}B7/E7/E8,B4/B5/E5,Chf[4:1],,E1,,,, {8}1/8,2/7,3pp1[2:1]/6qq8[2:1],4/5,,,,, {8},,,,,6,5,4, {4}3h[4:1],6,B1/B4/E4/B5/B8/E8/Chf[2:1],, {8},,,,,2,8,4, {4}6h[4:1],3,B1/B4/E4/B5/B8/E8/Chf[2:1],, {4},,2/7,5<3[4:1], {8}4h[4:3],,,,B7,B2,C1f,, {8}1/8,,2x/7x,,{641}1/8,,,,,,,,,,,,,,,,,,,,{639}2/7,,,,,,,,,,,,,,,,,,,,3/6,,,,,,,,,,,,,,,,,,,,{621}4/5,,,,,,,,,,,,,,,,,,,,,,,,,,,,,,,,,,,,,,,,,,,,,,,,,,,,,,,,,,,,,,,,,,,,,,,,,,,,,,,,,,,,,,,,,,,,,,,,,{4}7b/2b>8[4:1], {8}1h[4:3],,,,B3,B6,C1f,, {8}1/8,,{641}1,,,,,,,,,,,,,,,,,,,,{639}2,,,,,,,,,,,,,,,,,,,,{16}3,{641}8,,,,,,,,,,,,,,,,,,,,{639}7,,,,,,,,,,,,,,,,,,,,{16}6h[16:1],1b,,,,4/5,,,, {983}E8,,,,,,,,,,,,,,,,,,,,,,,,,,,,,,,,,,,,,,,,,{625}B8,,,,,,,,,,,,,,,,,,,,,,,,,,{983}B1,,,,,,,,,,,,,,,,,,,,,,,,,,,,,,,,,,,,,,,,,C1,,,,,,,,,,,,,,,,,,,,,,,,,,,,,,,,,,,,,,,,,{625}B5,,,,,,,,,,,,,,,,,,,,,,,,,,{983}B4,,,,,,,,,,,,,,,,,,,,,,,,,,,,,,,,,,,,,,,,,{4}E4,{983}E8,,,,,,,,,,,,,,,,,,,,,,,,,,,,,,,,,,,,,,,,,{625}B8,,,,,,,,,,,,,,,,,,,,,,,,,,{983}B1,,,,,,,,,,,,,,,,,,,,,,,,,,,,,,,,,,,,,,,,,C1,,,,,,,,,,,,,,,,,,,,,,,,,,,,,,,,,,,,,,,,,{625}B5,,,,,,,,,,,,,,,,,,,,,,,,,,{983}B4,,,,,,,,,,,,,,,,,,,,,,,,,,,,,,,,,,,,,,,,,{4}E4, {641}E8,,,,,,,,,,,,,,,,,,,,{639}B8,,,,,,,,,,,,,,,,,,,,B1,,,,,,,,,,,,,,,,,,,,{641}C1,,,,,,,,,,,,,,,,,,,,B5,,,,,,,,,,,,,,,,,,,,{639}B4,,,,,,,,,,,,,,,,,,,,{16}E4,{641}E8,,,,,,,,,,,,,,,,,,,,{639}B8,,,,,,,,,,,,,,,,,,,,B1,,,,,,,,,,,,,,,,,,,,{641}C1,,,,,,,,,,,,,,,,,,,,B5,,,,,,,,,,,,,,,,,,,,{639}B4,,,,,,,,,,,,,,,,,,,,{16}E4,{641}E8,,,,,,,,,,,,,,,,,,,,{639}B8,,,,,,,,,,,,,,,,,,,,B1,,,,,,,,,,,,,,,,,,,,{641}C1,,,,,,,,,,,,,,,,,,,,B5,,,,,,,,,,,,,,,,,,,,{639}B4,,,,,,,,,,,,,,,,,,,,{16}E4,,,,, {8}2h[8:1],3h[8:1],4h[8:1],E1,2h[8:1],3h[8:1],4h[8:1],E5, {8}2h[8:1],3h[8:1],4h[8:1],5h[8:1],C1f,,,, {8}3,4,5^2[8:1],6,5^8[8:1],,,, {8}6,5,4^7[8:1],3,4^1[8:1],,,8, {8}8h[8:3],Chf[4:1],,,{32}1,8,7,6,5,4,3,2,1,8,7,6,5,4,3,2, {4}1h[16:17]/5h[4:5],{1},, E

名前:
コメント:

タグ:

+ タグ編集
  • タグ:
最終更新:2026年01月07日 19:49