アットウィキロゴ

アカリがやってきたぞっ

アーティスト GYARI

BPM BASIC ADVANCED EXPERT MASTER Re:MASTER
136 3 6 10 12+ -

EXPERT MASTER Re:MASTER
譜面制作者 華火職人 Moon Strix -

BASIC

(136.0){1},,,
{1}4,
{1}4,
{1}5,
{1}5,
{1}B4,
{1}B5,
{1}Chf[8:7],,
{2}8,8,
{1}8,
{2}1,1,
{1}1x,
{2}8,8,
{1}1/8,
{2}1,1,
{1}1b/8b,
{2}8,8,
{2}1,1,
{1}8-4[4:3],,
{1}3h[2:1],
{2}4,4,
{2}5x,5x,
{1}5b,
{4}6,6,6,,
{4}7,7,7,,
{4}8,8,8,,
{1}1h[16:7]/8h[16:7],
{4}7,7,7,,
{4}6,6,{2}6-3[4:3],{1},
{4}2,2,2b,,
{4}3,3,4,4,
{4}5,5,5,,
{4}6,6,5,5,
{4},4x/5x,,,
{4}3,3,4,4,
{4}5,5,5,,
{4}6,6,5,5,
{1}4h[2:1],
{1}4b/5b,
{4}4,4,4,,
{4}3,3,3,,
{4}2,2,1,1,
{4}8,8,1/8,,
{4}7,7,7,,
{4}6,6,6,,
{4}5,5,4,4,
{1}4hx[2:1]/5hx[2:1],
{4}5,5,5,,
{4}6,6,6,,
{4}7,7,8,8,
{4}1/8,1/8,2x/7x,,
{4}2,2,2,,
{4}3,3,3,,
{1}4b/5b,
{2}4/5,4/5,
{1}B3,
{1}B2,
{1}B1,
{1}B8,
{1}B7,
{1}B6,
{1}Chf[1:1],,
{4}8,8,8,,
{4}7,7,7,,
{4}6,6,6,,
{4}5,4,5b,,
{4}4,4,4,,
{4}3,3,3,,
{4}2,2,2,,
{1}1h[2:1],
{2}1x/2x,1x/2x,
{2}7x/8x,7x/8x,
{1}1-5[4:3],
{2},{8}6hx[8:5],,,,,,
E

ADVANCED

(136.0){1},
{1}4hx[2:3]/5hx[1:1],,
{4}6h[2:1],,5,5,
{4}4h[2:1],,5,5,
{4}6h[2:1],,5,4,
{4}4h[8:1]/5h[4:1],,,3x/4x,
{4}3h[2:1],,4,4,
{4}5h[2:1],,4,4,
{4}3,3,2,2,
{4}1/8,2/7,3x/6x,,
{2}B4,B5,
{2}B3,B6,
{2}B2,B7,
{1}Ch[2:1],
{2}B2,C1,
{2}B6,B7,
{2}C1,B3,
{1}C1f,
{4}3,3,4/5,6,
{4}6,5/6,4x/7x,,
{4}6,6,4/5,3x,
{4}3,3/4,2x/5x,,
{4}3,3h[4:3],,,
{4}4,5,6,5,
{4}4,3,4,5,
{2}4h[4:1]/5h[4:1],3b/6b,
{4}2,1,8x,8x,
{4}7,8,1x,1x,
{4}2,3,4,5,
{4}6,7/8,1x/6x,,
{4}7,8,1x,1x,
{4}2,1,8x,8x,
{4}7,6,5,4,
{4}3,1x/2x,3x/8x,,
{1}2^5[8:3],
{1}6^1[8:3],
{1}2-5[8:3],
{4}6,4h[4:1]/5h[4:1],,,
{1}3^8[8:3],
{1}7^4[8:3],
{1}3-8[8:3],
{4}7,7,8,8,
{4}1x,1x/8x,2b/7b,,
{8}1,,2,,3,3,3,,
{4}4,5,4x/6x,,
{8}6,6,5,,3,3,4,,
{4}4x/5x,3x/6x,2b/7b,,
{8}8,,7,,6,6,6,,
{4}5,4,3x/5x,,
{4}2x,1x,1x/8x,2v4[2:1]/7v5[2:1],{1},
{8}1,,2,,3,3,3,,
{8}4,4,5,,4x/6x,,,,
{8}6,6,5/6,,3,3,3/4,,
{4}4x/5x,3x/6x,2b/7b,,
{8}8,,7,,6,6,6,,
{8}5,5,4,,3x/5x,,,,
{1}1^4[8:3],
{1}5^8[8:3],
{4}2,1/2,7,7/8,
{4}6,5/6,4x/7x,,
{4}6h[4:1],5,4,3,
{1}4^1[8:3]/5^8[8:3],
{4}7,7/8,2,1/2,
{4}3,3/4,2x/5x,,
{4}3h[4:1],4,6h[4:1],5,
{4}3x/4x,2x/5x,1b/6b,,
{4}7,7/8,2,1/2,
{4}3,3/4,2x/5x,,
{4}3h[4:1],4,5,6,
{1}4v1[8:3]/6v1[8:3],
{4}2,1/2,7,7/8,
{4}6,5/6,4x/7x,,
{4}6h[4:1],5,3h[4:1],4,
{4}5x/6x,4x/7x,3x/8x,,
{4}1,2,3,3/4,
{4}5,6,7,7/8,
{4}1,1x/8x,1x/8x,2x/7x,
{4}3b/6b,,B4,B5,
{8}Chf[8:1],,
E

EXPERT

(136.0){1},
{8}4/5,4,,4,,4,,4,
{8},4,,4,,4,,4,
{16}4/5,,,,6h[4:1],,,,5,,,4/5,,,3/4,,
{16}2x,,,,3h[4:1],,,,4,,,4/5,,,5/6,,
{16}7x,,,,6h[4:1],,,,5,,,4/5,,,3/4,,
{8}3/4,2/5,2h[2:1]/5h[2:1],,,,,,
{16}4/5,,,,2h[4:1],,,,4,,,3/5,,,4/6,,
{16}7x,,,,7h[4:1],,,,5,,,4/6,,,3/5,,
{16}2x,,,,2h[4:1],,,,4,,,3/5,,,4/6,,
{4},3-5[4:1]/6-2[4:1],,,
{4}6h[8:1]/7h[8:1],C1,2h[8:1]/3h[8:1],C1,
{4}6h[8:1]/7h[8:1],C1,2h[8:1]/3h[8:1],C1,
{4}6h[8:1]/7h[8:1],C1,2/3,3-5[4:1]/6-2[4:1],
{8},,,,,1x,1x,,
{4}6h[8:1]/7h[8:1],C1,2h[8:1]/3h[8:1],C1,
{4}6h[8:1]/7h[8:1],C1,2h[8:1]/3h[8:1],C1,
{4}6h[8:1]/7h[8:1],C1,2h[8:1]/3h[8:1],5/4q5[8:3],
{4},,8b,8b,
{2}1hx[4:1],7/2-5[8:1],
{8}6h[4:1],,5,4/5,3/4,2x/5x,,,
{4}C1f/B3/B6,B1/C1f/B8,,1x/8x,
{8},,3/4,4/5,5/6,4x/7x,,4x/5x,
{8}3pp6[2:1],3,,,,,,,
{8}8,8,6x/7x,,1,1,2x/3x,,
{8}3/4h[4:5],,,,8x,8x,,,
{8}2x,,2x,,,7b,8b,2b,
{16}3,,5,,4/6,,,8x,,8x,,6,5,,4/7,,
{16}6,,4,,3/4,,,1x,,1x,,3,4,,2/5,,
{16}3,,5,,4/6,,,8x,,8x,,4,5,,2/6,,
{8}3-6[4:1]*^6[4:1],3,,,,4x/5x,4x/5x,,
{8}1b,,3/4,2x/5x,,8x,7,5/6,
{8}2x/7x,,C1f/B4/B5,C1f/B2/B7,,,{4}1xs5[4:3]/8xz4[4:3],{1},
{8}5/6,,1x,1h[4:1],,8,2/7,,
{4}6h[8:1]/7h[8:1],C1/E5,2h[8:1]/3h[8:1],C1/E5,
{4}6h[8:1]/7h[8:1],C1/E5,2h[8:1]/3h[8:1],C1/E5,
{4}6h[8:1]/7h[8:1],C1/E5,2h[8:1]/3h[8:1],C1/E5,
{4},4hx[8:1]/5hx[8:1],,,
{4}6h[8:1]/7h[8:1],C1/E5,2h[8:1]/3h[8:1],C1/E5,
{4}6h[8:1]/7h[8:1],C1/E5,2h[8:1]/3h[8:1],C1/E5,
{8}6h[8:1]/7h[8:1],,C1/E5,,2h[8:1]/3h[8:1],,1/8,1/8,
{16}3/6,,,1x,,1x,,2x/4x,,,,,5/6,,5/6,,
{8}2b/7b,,,,,1x,1x,,
{4}8v5[8:1],1^4[8:1],8-5[8:1],1-5[8:1],
{8}8-6[16:1],,1q5[8:1],,8^6[16:1],,1,1,
{4}6-1[8:1],5-2[8:1],6v8[8:1],4,
{8}1-4[8:1],,8-5[8:1],,1,1,2b/7b,2b/7b,
{4}1v4[8:1],8^5[8:1],1-4[8:1],8-4[8:1],
{4}1-3[8:1],8p4[8:1],1^3[8:1],8,
{8}6,6,5,5,4,4,3/6,,
{8}1x/8x,1x/8x,2x/7x,2x/7x,3b/6b,2,1,1,
{4}8v5[8:1],1^4[8:1],8-5[8:1],1-5[8:1],
{8}8-6[16:1],,1q5[8:1],,8^6[8:1],,1,1,
{4}6-1[8:1],5-2[8:1],6v8[8:1],4,
{8}1-4[8:1],,8-5[8:1],,1,2,3b/6b,3b/6b,
{8}2,2,1x/3x,,7,7,6b/8b,,
{16}8x/1x-5[8:1],,1x/8x,,,,,,7,,,1/8,,,1/8,,
{1}7x/2q5[2:1],
{8}1x/8x,7,6,5,4,3,2-6[8:1],2,
{16},,,,8b,,7,,6h[16:3],,,5,6,,4/7,,
{16}3h[16:3],,,4,3,,2/5,,1,,1,,8,,7,,
{16}6h[16:3],,,5,6,,4/7,,3h[16:3],,,4,3,,2/5,,
{8}1,8,1h[16:3]/8^5[4:1],,,,1,2,
{16}3h[16:3],,,4,3,,2/5,,6h[16:3],,,5,6,,4/7,,
{16}3h[16:3],,,4,3^6[4:1],,,,,,,,8x,,,,
{16}2h[8:1]/8h[8:1],,,,1h[8:1]/7h[8:1],,,,6hx[16:3],,,5hx[16:3],,,4x>6[8:3],,
{4},,,2/7,
{8}3,1/3,2,1/7,6,6/8,7,2/8,
{8}3,1/3,2,1/7,6,6/8,7,2/8,
{8}3,1/3,2,1/7,6,6/8,7pp2[2:1],,
{4},,,6h[16:3]/1-4[8:1],
{4},7h[16:3]/1^4[8:1],,7h[16:3]/8>5[8:3],
{4},,,3h[16:3]/8-5[8:1],
{4},2h[16:3]/8^5[8:1],,2h[16:3]/1<4[8:3],
{16},,,,,,,1x,,,,,3^6[4:1],,,,
{4},7^2[4:1],,3^6[4:1],
{16},,,,,,,,1x/8x,,,1x/8x,,,2x/7x,,
{1}7x/2x<4[2:1],
{4}2b/7b,,B2/B3,B6/B7,
{8},B1/C1f/B8,
E

MASTER

(136.0){1},
{8}3,6,,6,,6,,6,
{8},6,,6,,6,,6,
{16}E2,,,,B6,,,,E8,,,B2,,,E4,,
{16}E2,,,,B3,,,,E6,,,E4,,,E2,,
{16}E8,,,,B2,,,,B7,,,E2,,,E4,,
{8}B2,B7,E8/B8,,E2,,3/6,,
{16}E2,,,,B6,,,,E8,,,B2,,,E4,,
{16}E2,,,,B3,,,,E6,,,E4,,,E2,,
{16}E8,,,,B2,,,,5x/7x,,,2x/4x,,,2hx[4:1]/7hx[4:1],,
{4},3-6[8:1]/6-1[8:1],,,
{16}2-7[8:1],4,,4h[16:1],,,,,7-2[8:1],5,,5h[16:1],,,,,
{16}2-7[8:1],4,,4h[16:1],,,,,7-2[8:1],5,,5,,,4,,
{16}2-7[8:1],4,,4h[16:1],,,,,7-2[8:1],5,,5h[16:1],,,,,
{8}3/6-2[8:1],3h[8:1],,,,2/5,3/4,,
{16}3-6[8:1],5,,5h[16:1],,,,,6-3[8:1],4,,4h[16:1],,,,,
{16}3-6[8:1],5,,5h[16:1],,,,,6-3[8:1],4,,4,,,5,,
{16}3-6[8:1],5,,5h[16:1],,,,,6-3[8:1],4,,4h[16:1],,,,,
{4}4/6,3/5x^3[8:1]*-7[8:1],5x-1[8:1]*v8[8:1],,
{16}2-7[8:1]/3-6[8:1],,,,,,,,8,7,,,4,5,4,,
{16}6,5,6,,8,,1,,2,,3/4,3h[16:3]/4h[16:3],,,,,
{4}8b-4[8:1],1bw5[8:1],,2h[4:1]/7h[4:1],
{16},,,,3pp6[8:3],4,3,4,,,,,,,,,
{8}7,7,2v4[4:1]/6<2[4:1],,,,,,
{16}7v6[8:1],5,7,5,,,,,2v3[8:1],4,2,4,,,,,
{8}5/4-1[8:1],,,,5/4p8[8:1],5,,,
{16}5/4v1[8:1],,,5,5,,,,,,E7,,C1,,E3,,
{16}7,,5,,8,1,,6x,,6x,,8,7,,1/6,,
{16}2,,4,,1,8,,3,,3,,1,2,,3/8,,
{16}6,,8,,5,4,,7x,,7x,,5,6,,4/7,,
{16}8h[16:7],,2,,3,3,,4,,,4/5,,4/5,,,,
{16}2hx[16:1]/3hx[16:1],,,,7/8,,4/5,4h[16:3]/5h[16:3],,,,,6,5,6,5,
{8}6hx[16:1],,1x/8x,4hx[4:1]/5hx[4:1],,,{4}4xq5[4:3]/5x<4[4:3],{1},
{16}4-2[8:1]*-7[8:1],5,4,5,4x,,,,,,1,,3b/8b,,,,
{16}2-7[8:1],4,,4h[16:1],,,,,7-2[8:1],5,,5h[16:1],,,,,
{16}2-7[8:1],4,,4h[16:1],,,,,7-2[8:1],5,,5,,,4,,
{16}2-7[8:1],4,,4h[16:1],,,,,7-2[8:1],5,,5h[16:1],,,,,
{4},4hx[2:1]/5hx[2:1],,,
{16}3-6[8:1],5,,5h[16:1],,,,,6-3[8:1],4,,4h[16:1],,,,,
{16}3-6[8:1],5,,5h[16:1],,,,,6-3[8:1],4,,4,,,5,,
{16}3-6[8:1],5,,5h[16:1],,,,,6-3[8:1],4,,4h[16:1],,,,,
{16}5,4h[4:1],,6,,6,,3/4,,2,5,,4,5,4,,
{8}2/7,,,,,B2/E2/B3/E3/E4,7x/8x-4[8:1],,
{4}6b-2[8:1],3^6[8:1],6^3[8:1],2q7[8:1],
{4}7^2[8:1],4-1[8:1],8-5[8:1],2z6[4:1],
{4}6z2[4:1],2^5[8:1],7^4[8:1],1v2[8:1],
{4}8v7[8:1],4-1[8:1],1-4[8:1],5-1[8:1],
{4}3-7[8:1],6^3[8:1],3^6[8:1],7p2[8:1],
{4}2^7[8:1],5-8[8:1],1-4[8:1],7s3[4:1],
{4}3s7[4:1],7^4[8:1],2h[4:1],C1,
{8}4x/5x,3x/6x,2x/7x,1x/8x,C1f/B3/B4/B5/B6,,7x/8x-4[8:1],,
{4}6b-2[8:1],3^6[8:1],6^3[8:1],2q7[8:1],
{4}7^2[8:1],4-1[8:1],8-5[8:1],2z6[4:1],
{4}6z2[4:1],2^5[8:1],7^4[8:1],1v2[8:1],
{4}8v7[8:1],4-1[8:1],1-4[8:1],8,
{16}3,4,3,4,C1f,,,,7x,,7x,,C1f,,,,
{16}2x/7x,,2hx[4:1]/7hx[4:1],,,,,,1/6,,,4/5,,,3/4,,
{4}2bV48[4:1]/7bV51[4:1],,,4/5,
{16}1/8,,7,,6,,5,,4,,3,,2,,8/1x-5[16:1],1/8,
{16},,,,8b,,,,B3/E4,E5/B5,,B2/E2,,B6/E7,,1h[16:11],
{16},,B5,,,,B6,,,,E7,,8,,2^5[8:1],5-1[16:1],
{16},,,,,,,,E2/B2,E1/B8,,B3/E4,,E7/B7,,2h[2:1],
{16},,4,,5,,6,6,,,,,2^5[8:1],,1,1,
{16},,8,,7^4[8:1],,8,8,,,1,,2pp5[16:5],,1,1,
{16},,8,,7,7,,6^1[8:1],,,,,,,,,
{16}2/8,,1,,6/8,,7,,6/4h[16:3],,,1h[16:3],,,2,,
{16}2V48[4:1],,5-7[8:1],,5,,,,,,,,1/6,,7-4[8:1]/8-3[8:1],7/8,
{16},,,,,,,,E6/B6,B4/E5,,B7/E8,,E3/B3,,8h[16:11],
{16},,B4,,,,B3,,,,E3,,1,,7^4[8:1],4-8[16:1],
{16},,,,,,,,B7/E8,E1/B1,,B6/E6,,B2/E3,,7h[2:1],
{16},,5,,4,,3,3,,,,,7^2[8:1],,2,2,
{16},,,,6^1[8:1],,3,3,,,,,5<3[4:1],,4,4h[16:5],
{16},,,,,,,,,,,,2^7[8:1],,7,7,
{16},,,,3^8[8:1],,6,6,,,,,4w8[4:1],,5,5,
{16},,,,,,,2x/7x,,,,,4/5,,,,
{2}2hx[4:1]/4hx[4:1],5hx[4:1]/7hx[4:1],
{16}4x-1[8:1]/5x-8[8:1],,,,,,,,2/7,,,3/6,,,4/5,,
{1}4bqq1[2:1]/5bpp8[2:1],
{4}C1/B2/B3/B6/B7,5x^3[8:1]*-7[8:1],5x-1[8:1]*v8[8:1],,
{8},E1/B1/C1f/B6/B7/B8,,,,,,,{1},,
{8},,,,,,,{983}6x,,,,,,,,,,,,,,,,,,,,,,,,,,,,,,,,,,,,,,,,,{625}5x,,,,,,,,,,,,,,,,,,,,,,,,,,{983}4x,,,,,,,,,,,,,,,,,,,,,,,,,,,,,,,,,,,,,,,,,
{1}3x,
E

Re:MASTER


名前:
コメント:

タグ:

+ タグ編集
  • タグ:
最終更新:2022年09月25日 11:05