アットウィキロゴ

ソリッド

アーティスト 豚乙女

BPM BASIC ADVANCED EXPERT MASTER Re:MASTER
222 4 7+ 10+ 13 -

EXPERT MASTER Re:MASTER
譜面制作者 はっぴー ロシェ@ペンギン -

BASIC

(222.0){1},,,,,,,,,
{2}1x,1x,
{1}1x,
{1}1hx[1:1],,
{2}8x,8x,
{1}8x,
{1}8hx[1:1],,
{1}1,
{1}1,
{2}2,2,
{1}2,
{1}3,
{1}3,
{2}4,4,
{1}4,
{1}5,
{1}5,
{2}6,6,
{1}6,
{1}7,
{1}7,
{2}8,8,
{1}1/8,
{1}1-4[4:3],,
{1}8-5[4:3],,
{2}4,4,
{2}5,5,
{1}4h[1:1],,
{1}B3,
{1}B2,
{1}B1,
{1}B8,
{1}B7,
{1}B6,
{1}Chf[1:1],,
{2}8,8,
{1}8,
{2}7,7,
{1}7b,
{2}6,6,
{2}5,5,
{2}4,4,
{1}4x/5x,
{2}4,4,
{1}4,
{2}3,3,
{1}3b,
{2}2,2,
{2}1,1,
{2}8,8,
{1}1x/8x,
{1}1-5[4:3],,
{1}8-4[4:3],,
{1}2-5[4:3],,
{1}7-4[4:3],,
{1}3,
{1}3/4,
{1}4,
{1}4/5,
{1}6,
{1}5/6,
{2}4/5,4/5,
{1}4hx[1:1]/5hx[1:1],,
{1}B6,
{1}B7,
{1}B8,
{1}B1,
{1}B2,
{1}B3,
{1}Chf[1:1],,
{4}8,8,8,,
{1}8h[2:1],
{4}7,7,7,,
{1}7b,
{2}6,6,
{2}5,5,
{4}4,5,4,,
{1}3x/6x,
{4}4,4,4,,
{1}4h[2:1],
{4}3,3,3,,
{1}3b,
{2}2,2,
{2}1,1,
{4}1/8,1/8,1/8,,
{1}2/7,
{2}1,1,
{2}8,8,
{1}1-5[4:3],,
{2}8,8,
{2}1,1,
{1}8-4[4:3],,
{1}4hx[2:1]/5hx[2:1],
{2}4/5,3b/6b,
E

ADVANCED

(222.0){1},
{1}6hx[1:1],
{1}5h[1:1],
{1}4h[1:1],
{1}3x,
{2}2,2,
{2}1,1,
{4}8,8,1x/8x,,
{1}2x/7x,
{4}1x,1x,1x,,
{4}2,2,2,,
{4}3,3,3,,
{2}3x/4x,4x/5x,
{4}6,6,6,,
{4}7,7,7,,
{4}8,8,8,,
{1}2x/7x,
{1}6hx[1:1],
{2}5,4/5,
{1}3h[1:1],
{2}4,4/5,
{1}6h[1:1],
{2}5,4,
{2}3,3,
{1}2x/4x,
{4}2,2,2,,
{2}3,3/4,
{4}5,5,5,,
{1}4x/6x,
{4}7,7,7,,
{4}8,8,8,,
{4}1,1,1x/8x,,
{1}2x/7x,
{1}8<4[4:5],,
{1}3p6[4:5],,
{1}7x^5[8:5],
{1}4x^2[8:5],
{2}1x,1x,
{1}1x,
{1}1>5[4:5],,
{1}6q3[4:5],,
{2}2,2,
{2}1,1,
{8}8h[8:3],,,1,,1,,2b/7b,{1},
{4}1,1,2,2,
{2}3,3x/4x,
{4}5,5,6,6,
{2}7,7x/8x,
{4}6,6,6,,
{4}5,5,5,,
{4}3/4,3/4,3/4,,
{1}2x/5x,
{4}8,8,7,7,
{2}6,5x/6x,
{4}4,4,3,3,
{2}2,1x/2x,
{4}3,3,3/4,,
{4}5,5,4/5,,
{4}3/6,3/6,3/6,,
{1}2x/7x,
{1}8^5[1:1],
{4},,4x,4x,
{1}4^1[1:1],
{4},,8x,8x,
{1}8-5[1:1],
{4},,4x,4x,
{2}4/5,4/5,
{4}3/6,3/6,3b/6b,,
{2}E7,B6,
{1}B5,
{2}B4,B3,
{1}E3,
{2}B2,C1,
{2}B6,B5,
{2}B4,B3,
{1}C1f,,
{1}3hx[1:2],,
{1}4h[1:2],,
{1}5h[1:3],,
{1}6h[1:1],,
{4}8,8,7,7,
{4}6,6,5x/6x,,
{4}4,4,3,3,
{4}2,2,1x/2x,,
{4}3,3,3/4,,
{4}6,6,5/6,,
{4}3/4,3/4,3/4,,
{1}2x/5x,
{4}1,1,2,2,
{4}3,3,3x/4x,,
{4}5,5,6,6,
{4}7,7,7x/8x,,
{4}6,6,5/6,,
{4}3,3,3/4,,
{4}4/5,4/5,4/5,,
{1}2x/7x,
{4}1,1,2,2,
{4}3,3,4,4,
{4}5,5,6,6,
{1}7x/8x,
{4}7,7,8,8,
{4}1,1,2,2,
{4}3,3,{2}4x-1[4:3]/5x-8[4:3],{1},
{1}2b/7b,
{1}C1f,
E

EXPERT

(222.0){1},
{1}6h[1:1],
{1}5h[1:1],
{1}4h[1:1],
{2}3,3,
{1}3h[1:1],
{1}4h[1:1],
{4}5,,5,4,
{8}3/6,,,,8,8,,1b/7b,
{8},2,,4,,6,,2/8,
{8},7,,5,,3,,1/7,
{8},2,,4,,6,,2/8,
{8},2/8,,4/6,,4/6,,3/5,
{8},6,,8,,2,,4/6,
{8},3,,1,,7,,3/5,
{8},6,,8,,2,,4/6,
{8},4/6,,3/5,,3h[8:1]/5h[8:1],,,
{8}5/7,,6,,3,3,4,,
{8}2/4,,3,,6,6,5,,
{8}5/7,,8,,2,2,1,,
{4}2/4,1,1/8,3/6,
{8}2/4,,3,,6,6,5,,
{8}5/7,,6,,3,3,4,,
{8}2/4,,1,,7,7,8,,
{4}5/7,8,1/8,3/6,
{8}2h[4:1],,4,,6,6,5,,
{8}7h[4:1],,5,,3,3,4,,
{8}2h[4:1],,4,,6,6,5,,
{4}7h[4:1],8,2,3/5,
{8}7h[4:1],,5,,3,3,4,,
{8}2h[4:1],,4,,6,6,5,,
{8}7h[4:1],,5,5,,8<1[8:5],,,{1},
{4}5,4,3,2,
{2}1-4[4:1],7-5[8:1],
{4}4,5,6,7,
{2}8-5[4:1],2-4[8:1],
{4}5,4,3,2,
{4}1-5[4:1],,6,7<1[1:1],{1},
{2},4/5,
{4}5,4,3,2,
{2}1v4[4:1],8^5[4:1],
{4}4,5,6,7,
{2}8v5[4:1],1^4[4:1],
{4}5,4,3,2,
{4}1/8,2/7,3/6,5p4[2:1],
{8},,,,,,,C1f/B2/B7,
{4},,,4/5,
{8}6h[4:1],,5,5,,8,8,,
{8}3h[4:1],,4,4,,1,1,,
{4}7h[4:1],5h[4:1],4h[4:1],2h[4:1],
{8}8,,,,,1,1,,
{4}6^3[4:1],,2,2,
{4}3^6[4:1],,7,7,
{2}6^3[4:1],2q4[4:3],
{4},,,4/5,
{8}3h[4:1],,4,4,,1,1,,
{8}6h[4:1],,5,5,,8,8,,
{4}2h[4:1],4h[4:1],5h[4:1],7h[4:1],
{8}1,,,,,8,8,,
{4}3^6[4:1],,7,7,
{4}6^3[4:1],,2,2,
{2}2-6[4:1],7-3[4:1],
{8}1,,1,,2/6,2/6,,3/7,
{8}3/7h[4:1],,5,5h[4:1],,8,8h[4:1],,
{8}1,1h[4:1],,4,4,,5,,
{8}6/2h[4:1],,4,4h[4:1],,1,1h[4:1],,
{8}8,8h[4:1],,5,5,,4,,
{8}4/6h[4:1],,8,8h[4:1],,4,4h[4:1],,
{8}2,2h[4:1],,3,3,,4,,
{8}5/3h[4:1],,1,1h[4:1],,5,5h[4:1],,
{8}7,7h[4:1],,1,1b,,,,
{4}4/5,3/4,2,2q4[4:3],{1},
{4}4/5,5/6,7,7p5[4:3],{1},
{4}4/5,3/4,2,1^4[8:3]/8^5[8:3],
{4},,2/7,4/5,
{4}4/5,3/6,3/6,2/7,
{4}2/7,1/8,1/8,1/8,
{1}Ch[2:1],
{1}8h[1:2],
{2}B7,E6,
{1}1h[1:2],
{2}B2,E4,
{1}6h[1:2],
{2}B7,E6,
{1}3h[1:1],
{4}C1f,,,1/8,
{8}3h[4:1],,4,4,,8,1/8,,
{8}6h[4:1],,5,5,,1,1/8,,
{4}2h[4:1],4h[4:1],5h[4:1],7h[4:1],
{8}1,,,,,8,8,,
{4}3^6[4:1],,7,7,
{4}6^3[4:1],,2,2,
{2}3^6[4:1],7p5[4:3],
{4},,3,3,
{4}1/2,3/4,5/6,7/8,
{4}1/2,3/4,5/6,7/8,
{4}7/8,3/4,1/2,5/6,
{4}2h[2:1]/7h[2:1],,,2/7,
{2}3-8[4:1],6-1[4:1],
{4}2h[4:1],4h[4:1],5h[4:1],7,
{4}7h[4:1],5h[4:1],4h[4:1],2h[4:1],
{8}8x,,,,1,1,,2b/8b,
{8},7,7,5,,3,,1/7,
{8},2,2,4,,6,,2/8,
{8},7,7,5,,3,,1/7,
{8},1/7,,3/5,,3/5,,4/6,
{8},7,7,8,,2,,3/5,
{8},2,2,1,,7,,4/6,
{8},7,7,8,,2,,2/5,
{8},2/5,,4/7,,4/7,,3/5,
{1}3h[4:3]/5h[4:3],
{6}1x/8x,2x/7x,3x/6x,4x/5x,
E

MASTER

(222.0){1},
{1}1V75[2:1]*V75[2:1]*V35[2:1],
{1}1w5[2:1],
{4}1,2/8,E3/E7,E1/E5,
{1}Ch[2:1],
{2}1h[4:1]/8h[4:1],6h[4:1]/7h[4:1],
{2}4h[4:1]/5h[4:1],2h[4:1]/3h[4:1],
{4}1,8,6v4[2:1]/7V13[2:1],,
{8},,,,5,4,,2b/7b,
{8},8,2,4-1[8:1],,4x/5x,,2x/8x,
{8},1,7,5-8[8:1],,4x/5x,,1x/7x,
{8},8,2,4-1[8:1],,4x/5x,,8x-4[8:1],
{8},1,2,3,,4/5,,1b/5b,
{8},8,2,3/4-8[8:1],,4x/5x,,1x/6x,
{8},1,7,6/5-1[8:1],,4x/5x,,3x/8x,
{8},8,2,3/4-8[8:1],,4x/5x,,7b-3[8:1],
{8},1b-5[8:1],,6b-2[8:1],,8b,,,
{8}4x/5x,,7,5,,3,4,3,
{8}4/5,,2,4,,6,5,6,
{8}4/5,,3,2/5,,6/3V15[8:5],,7h[8:5],
{4},,,3/6,
{8}4/5,,2,4,,6,5,6,
{8}4/5,,7,5,,3,4,3,
{8}4/5,,6,4/7^4[4:1],,4V61[8:5]*V27[8:5],,,
{4},,,4/5,
{8}3x/8x,,7,5,,1,2,3,
{8}4/5,,2,4,,8,7,6,
{8}4/5,,3,5/2^5[4:1],,5pp2[8:5],,7h[8:5],
{4},,,3/6,
{8}4/5,,2,4,,8,7,6,
{8}4/5,,7,5,,1,2,3,
{8}4/5,,5,5>1[4:1],,1<1[8:5],,5h[8:5],
{4},,,4/5,
{4}6h[4:3],5,4,3,
{4}2x-4[8:1],1x-5[8:1],8x-6[8:1],,
{4}3h[4:3],4,5,6,
{4}7x-5[8:1],8x-4[8:1],1x-3[8:1],,
{8}5x/6x,,3,4/2h[2:1],,1,,7,
{8},B4/E5/B5,,B1/E1/B8,,B2/B3/B6/B7,,Ch[8:5],{1},
{8}1,8,2,7,3^6[8:1],,8,,
{8}7h[4:3],,5,5,,4,4,,
{4}3xqq2[4:1],5x,4xpp5[4:1],,
{8}2h[1:1],,4,4,,5,5,,
{4}6xpp7[4:1],4x,5xqq4[4:1],,
{8}6,,4,4/5,,1/3,,1/7,
{8},5/7,,4,5,4,,2/7,
{8}2/7,1x-3[8:1]/8x-6[8:1],,1x-5[8:1]/8x-4[8:1],,1x/8x,,2b/7b,
{4},,,4/5,
{8}1x/3x,,4,5-1[8:1],,6,6,,
{8}2,,5,4-8[8:1],,3,3,,
{4}7^4[4:1],4-8[4:1],8^3[4:1],3qq7[2:1],
{8}1hx[2:1],,,,,8,1,,
{8}3^8[8:1],,6,6^3[8:1],,1,2,,
{8}6^1[8:1],,3,3^6[8:1],,8,7,,
{8}6/5-1[8:1],,8-4[8:1],,2-6[8:1],,8,8,
{8},2/7,2/7,,4/5,,3/6,,
{8}6x/8x,,5,4-8[8:1],,3,2,,
{8}7,,4,5-1[8:1],,6,7,,
{4}2^5[4:1],5-1[4:1],1^6[4:1],6pp2[2:1],
{8}8hx[2:1],,,,,1,8,,
{8}6^1[8:1],,2,2v5[8:1],,8,7,,
{8}3^8[8:1],,7,7v4[8:1],,1,2,,
{8}3/5-1[8:1],,2-6[8:1],,7^4[8:1],,8,8,
{8},4/8,4/8,,4/5,3/6,,1/8,
{8}2b/7hx[2:3],,5,5,,8,8,,
{8}6,6,,1,1x-4[8:1]*-6[8:1],,1x,,
{8}7b/2hx[2:3],,4,4,,1,1,,
{8}3,3,,8,8x-3[8:1]*-5[8:1],,8x,,
{8}2b/7hx[2:3],,5,5,,1,1,,
{8}3,3,,8,8x-3[8:1]*-5[8:1],,8x,,
{8}7b/2hx[8:9],,4,4,,8,8,,
{8}6,6,,,C1/B3/B4/B5/B6,,,,
{8}2x/7x,,5/2^4[8:1],,7,,5,4,
{8}7,4,5/4q2[4:1],,7,,8x,,
{8}2x/7x,,5/2^4[8:1],,7,,5,4,
{8}7,4,5/4q2[4:1],,7,,8x,,
{4}5x<1[4:1],1>5[4:1],5<1[4:1],1>5[4:1],
{4}5<1[4:1],1p5[4:1]*q5[4:1],,,
{24}5,,,4,,,3,,,2,,,1x/8x,,,,1x/8x,,,,1x/8x,,,,
{8}2x-5[8:1],2,7-4[8:1],7,1-5[8:1],1,8<3[4:1],8,
{16}1x,,,1x,,,1x,,1b/7b,,,,,,,,
{1}4h[4:3]/5V38[2:3],
{1}1h[1:2],
{2}E7,E1,
{4}E3,,,4v7[8:5],
{4}4h[4:3],,,5v2[8:5],
{1}5h[4:3],
{2}E2/B2/B3/E4,B6/E6/B7/E8,
{4}C1/E3/E7,,,4/5,
{8}1x/3x,,4,5-1[8:1],,6,7,8,
{8}2,,5,4-8[8:1],,3,2,1,
{4}7^4[4:1],4-8[4:1],8^3[4:1],3qq7[2:1],
{8}1hx[2:1],,,,,8,1,,
{8}3^8[8:1],,7,7v4[8:1],,1,2,,
{8}6^1[8:1],,2,2v5[8:1],,8,7,,
{8}4/6-2[8:1],,8-4[8:1],,5-1[8:1],,3,3,
{8},7,6,5,3/4,,2/7,,
{8}1b-5[8:1],8,1x,8,4,5,6,7,
{8}8-4[8:1],1,8x,1,5,4,3,2,
{4}1^4[4:1],4-8[4:1],8^5[4:1],5pp1[2:1],
{8}7hx[2:1],,,,,7,8,1,
{8}8b-4[8:1],1,8x,1,5,4,3,2,
{8}1-5[8:1],8,1x,8,4,5,3/6,,
{8}8-6[8:1],8,2-4[8:1],2,5,5,1,1,
{32}8x,7x,6x,5x,4x,3x,2x,1x,{8}8xV64[4:1]*V24[4:1],,,,,1b/7b,
{8},2>6[4:1],6,6-2[4:1],,1,,8x,
{8},7<3[4:1],3,3-7[4:1],,8,,1x,
{8},2>6[4:1],6,6-2[4:1],,8,,8x-4[8:1],
{8},1,2,3,4,5,6,1b/7b,
{8},7<3[4:1],3,3-7[4:1],,8,,1x,
{8},2>6[4:1],6,6-2[4:1],,1,,8x,
{8},7<3[4:1],3,3-7[4:1],,8,,1b-5[8:1],
{8},6b-2[8:1],,4b-8[8:1],,1b,,2x/7x,
{1}1bp8[2:1]/8b<1[2:1],
{6}1x/8x,2x/4x,5x/7x,1b/8b,
E

Re:MASTER


名前:
コメント:

タグ:

+ タグ編集
  • タグ:
最終更新:2022年10月01日 16:15