アットウィキロゴ

NULCTRL

アーティスト Silentroom

BPM BASIC ADVANCED EXPERT MASTER Re:MASTER
100 3 7+ 12+ 13+ -

EXPERT MASTER Re:MASTER
譜面制作者 Jack 譜面-100号とはっぴー -

BASIC

(100.0){1},,,,
{1}4h[4:1],
{1}4h[4:1],
{1}5h[4:1],
{1}5h[4:1],
{4}4/5,,4,4,
{4}5,5,4/5,,
{4}4/5,,5,5,
{4}4,4,4/5,,
{2}3/4,5/6,
{2}7/8,1/2,
{4}8,8,1,1,
{1}8b,
{2}1,1,
{2}2,2,
{2}3,3,
{4}4/5,4/5,4/5,,
{2}5,5,
{2}6,6,
{2}7,7,
{4}1/8,1/8,1b/8b,,
{1}1h[2:1],
{1}8h[2:1],
{1}1h[2:1],
{4}7/8,7/8,7/8,,
{1}6h[2:1],
{1}5h[2:1],
{4}4,4,3,3,
{4}3/4,3/4,3b/4b,,
{1}B2,
{1}B8,
{1}B1,
{1}B7,
{2}B6,B5,
{2}B4,B3,
{1}Chf[1:1],,
{4}1,1,1,,
{4}2,2,2,,
{4}3,3,3,,
{4}3/4,3/4,3/4,,
{4}5,5,5,,
{4}6,6,6,,
{4}7,7,7,,
{4}7/8,7/8,7b/8b,,
{1}1-4[4:3],,
{1}8-5[4:3],,
{4}4,4,3,3,
{4}2,2,1,1,
{8}8,8,8,,7,7,7,,
{4}5/6,5/6,5x/6x,,
{1}C1,
{1}C1,
{1}C1,
{2}C1,{16}1h[16:7]/8h[16:7],,,,,,,,
E

ADVANCED

(100.0){1}Ch[1:1],,
{1}Ch[1:1],,
{4}B5/B6,B3/B4,Ch[2:1],,
{2},B2/B7,
{4}B3/B4,B5/B6,Ch[2:1],,
{2},1x/8x,
{8}3,,4,,5,5,5,,
{8}6,,7,,8,8,8x,,
{8}1/8,,2,,3,3,3x,,
{4}3/4,4/5,3x/6x,,
{4}4,3,2,1,
{4}8,7,3h[4:1]/6h[4:1],,
{1}4>5[4:3],
{4},,3/6,8b,
{2}5hx[4:1]/7hx[4:1],5h[4:1]/6h[4:1],
{2}2hx[4:1]/4hx[4:1],3h[4:1]/4h[4:1],
{2}4h[4:1]/5h[4:1],3h[4:1]/6h[4:1],
{4}8h[4:1],1,2x/7x,,
{4}2hx[4:1]/4hx[4:1],,4/3h[4:1],4,
{4}5hx[4:1]/7hx[4:1],,5/6h[4:1],5,
{4}4h[4:1]/5h[4:1],,3/6,2,
{4}1x/6x,2x/7x,3x/8x,1b/2b,
{4}3h[4:1],4,5,6,
{4}7h[4:1],5,8,1x/8x,
{4}2x/7x,3/6,4h[4:1]/5h[4:1],,
{4}2x/4x,5x/7x,3x/6x,,
{2}2h[2:1],3h[2:1],
{2}4h[2:1],5h[2:1],
{4}6,6,7,7,
{4}2h[4:1]/8h[4:1],,1,2b/7b,
{1}8^5[2:1],
{1}4^1[2:1],
{1}8^5[2:1],
{1}Ch[2:1],
{4}8x,7,5/6,4/5,
{4}4,3,2/5,3,
{8}5,5,5,,4,4,4q5[2:1],,
{4},,,3x/6x,
{4}3h[4:1],4,5h[4:1],4,
{8}2h[4:1],,1,,8,8,1x/8x,,
{4}7hx[4:1],5,3h[4:1],5,
{4}4x/6x,3x/5x,4x/7x,1b,
{4}7hx[4:1]/8hx[4:1],,5/6,6,
{4}3/4,3,1/2,2x,
{1}8b/1bs5[2:1],
{4}4x/6x,2x/5x,4hx[4:1]/7hx[4:1],,
{8}8,8,1/8,,7,7,5/7,,
{8}6,6,5/6,,4^1[4:1],,,,
{8}8-4[4:1],,,,3,3,3hx[4:1],,
{8}5,5,4,4,4hx[4:1]/5hx[4:1],,,,
{4}E4,E3,E2,E1,
{4}E8,E7,E6,E5,
{4}B4/B5,B3/B6,E3/E7,B2/B7,
{8}1,1,8,8,1,1,2b/7b,,
{1}8h[2:3],
{1}Ch[2:1],
{1}1h[16:31],
{16}Ch[16:15],,,,,,,,,,,,,,,,
E

EXPERT

(100.0){1}Ch[4:1],
{1}Ch[4:1],
{1}Ch[4:1],
{16}Ch[4:1],,,,,,,,5,5,5,5,4,4,4,4,
{16}Ch[4:1],,,,,,4,,4,,,4,,,4,,
{16}Ch[4:1],,,,,,5,,5,,,5,,,5,,
{16}Ch[4:1],,,,,,4,,4,,,4,,,4,,
{16}Ch[4:1],,,,,,5,,5h[16:1],,4,4,5,5,4,4,
{8}6/2hx[4:1],6,5,3/2hx[8:7],4,4,3,5,
{8}5,3,4,5/2hx[2:1],3,4,5,4,
{8}3/7hx[4:1],3,4,6/7hx[2:3],5,5,6,4,
{8}4,6,5,4,6,5,2h[8:1],,
{8}4x/5hx[8:1],1,1/6hx[8:1],4,2/5hx[8:1],3,3/6hx[8:1],2,
{16}4/5hx[8:1],,4,,2/6hx[8:1],,3,,4/5hx[8:1],,2,,3/6hx[8:1],3,3,3,
{8}5x/4hx[16:1],8/3hx[16:1],8/4hx[16:1],5/3hx[16:1],7/4hx[16:1],3hx[16:1]/6h[8:1],4hx[16:1],5/3hx[16:1],
{16}4x/6x,4x/6x,4x/6x,4x/6x,5h[4:1],,7,,4h[4:1],,2,,C1,,,,
{16}4hx[8:1]/5h[8:1],,,,2/5h[8:1],,4,,5h[8:1],4,,4,7h[8:1],,4,,
{16}4hx[8:1]/5h[8:1],,,,2/5h[8:1],,4,,5h[8:1],4,,4,7h[8:1],,4,,
{16}4hx[8:1]/5h[8:1],,,,2/5h[8:1],,4,,5h[8:1],4,,4,7h[8:1],,4,,
{4}4hx[8:1]/5h[8:1],4hx[8:1]/6h[8:1],4hx[8:1]/7^5[8:1],,
{16}3h[8:1]/4hx[8:1],,,,7/3h[8:1],,4,,3h[8:1],4,,4,1h[8:1],,4,,
{16}3h[8:1]/4hx[8:1],,,,7/3h[8:1],,4,,3h[8:1],4,,4,1h[8:1],,4,,
{16}3h[8:1]/4hx[8:1],,,,7/3h[8:1],,4,,3h[8:1],4,,4,1h[8:1],,4,,
{4}1h[8:1]/4hx[8:1],2h[8:1]/4hx[8:1],4hx[8:1]/3^1[8:1],,
{16}5hx[8:1]/6h[8:1],,,,2/6h[8:1],,5,,6h[8:1],5,,5,8h[8:1],,5,,
{16}5hx[8:1]/6h[8:1],,,,2/6h[8:1],,5,,6h[8:1],5,,5,8h[8:1],,5,,
{16}5hx[8:1]/6h[8:1],,,,2/6h[8:1],,5,,6h[8:1],5,,5,8h[8:1],,5,,
{4}5hx[8:1]/8h[8:1],5hx[8:1]/7h[8:1],5hx[8:1]/6^8[8:1],2-6[8:1],
{4}4^2[8:1],8-4[8:1],3^1[8:1],7-3[8:1],
{4}5^7[8:1],1-5[8:1],8-4[8:1],5<4[1:1],
{8}E5,E4,E3,E2,E1,E8,E7,E6,
{8}E5,2/7,2/7,4/5,2/7,3/6,8b/1bp8[4:13],,
{1}Ch[4:1],
{1}Ch[4:1],
{1}Ch[4:1],
{16}Ch[4:1],,,,,,4/5,,1,1,1,1,1,1,1x/5x,,
{8}4hx[16:3]/8h[16:1],8h[16:1],3hx[16:3]/7h[16:1],7h[16:1],2hx[16:3]/6h[16:1],6h[16:1],1hx[16:3]/5h[16:1],5h[16:1],
{8}4h[16:1]/8hx[16:3],4h[16:1],3h[16:1]/7hx[16:3],3h[16:1],2h[16:1]/6hx[16:3],2h[16:1],1h[16:1]/5hx[16:3],1h[16:1],
{16}1,1,8,8,1,1,8,8,1,1,8,8,1,1,8,8,
{641}1,,,,,,,,,,,,,,,,,,,,{639}8,,,,,,,,,,,,,,,,,,,,1,,,,,,,,,,,,,,,,,,,,{641}8,,,,,,,,,,,,,,,,,,,,1,,,,,,,,,,,,,,,,,,,,{639}8,,,,,,,,,,,,,,,,,,,,1,,,,,,,,,,,,,,,,,,,,{641}8,,,,,,,,,,,,,,,,,,,,1,,,,,,,,,,,,,,,,,,,,{639}8,,,,,,,,,,,,,,,,,,,,1,,,,,,,,,,,,,,,,,,,,{641}8,,,,,,,,,,,,,,,,,,,,1,,,,,,,,,,,,,,,,,,,,{639}8,,,,,,,,,,,,,,,,,,,,1,,,,,,,,,,,,,,,,,,,,{641}8,,,,,,,,,,,,,,,,,,,,2,,,,,,,,,,,,,,,,,,,,{639}8,,,,,,,,,,,,,,,,,,,,1,,,,,,,,,,,,,,,,,,,,{641}8,,,,,,,,,,,,,,,,,,,,1,,,,,,,,,,,,,,,,,,,,{639}8,,,,,,,,,,,,,,,,,,,,1,,,,,,,,,,,,,,,,,,,,{641}8,,,,,,,,,,,,,,,,,,,,1,,,,,,,,,,,,,,,,,,,,{639}8,,,,,,,,,,,,,,,,,,,,1,,,,,,,,,,,,,,,,,,,,{641}8,,,,,,,,,,,,,,,,,,,,1,,,,,,,,,,,,,,,,,,,,{639}8,,,,,,,,,,,,,,,,,,,,1,,,,,,,,,,,,,,,,,,,,{641}8,,,,,,,,,,,,,,,,,,,,
{16}2hx[8:5],,3,,,3,,,3,,3hx[8:3],,2h[8:1],,,,
{16}4hx[16:5],,5,,,5,4hx[4:1],,5,,5hx[8:3],,4h[8:1],,,,
{16}6h[16:5],,7,,,7,6hx[4:1],,7,,7hx[4:1],,6-4[8:1],,,,
{16}8-2[8:1],,,,7-3[8:1],,,,5h[4:1],,,,4,5,4,,
{16}7h[16:5],,6,,,6,7hx[4:1],,6,,6hx[8:3],,7h[8:1],,,,
{16}5h[16:5],,4,,,4,5hx[4:1],,4,,4hx[8:3],,5h[8:1],,,,
{16}3h[16:5],,2,,,2,3hx[4:1],,2,,2hx[4:1],,3-5[8:1],,,,
{16}1-7[8:1],,,,2-6[8:1],,,,4h[4:1],,,,5,4,5,,
{16}1b,,,,{12}8x/7h[4:1],{995}6,,,,,,,,,,,,,,,,,,,,,,,,,,,,,,,,,,,,,,,,,,,,,,,,,,,,,,,,,,,,,,,,,,,,,,,,,,,,,,,,,,,{12}5,6,{983}5,,,,,,,,,,,,,,,,,,,,,,,,,,,,,,,,,,,,,,,,,6x,,,,,,,,,,,,,,,,,,,,,,,,,,,,,,,,,,,,,,,,,{12}4,5h[4:1],{995}4,,,,,,,,,,,,,,,,,,,,,,,,,,,,,,,,,,,,,,,,,,,,,,,,,,,,,,,,,,,,,,,,,,,,,,,,,,,,,,,,,,,{12}3,
{12}4hx[4:1],{995}3,,,,,,,,,,,,,,,,,,,,,,,,,,,,,,,,,,,,,,,,,,,,,,,,,,,,,,,,,,,,,,,,,,,,,,,,,,,,,,,,,,,{12}2,3h[4:1],{995}4,,,,,,,,,,,,,,,,,,,,,,,,,,,,,,,,,,,,,,,,,,,,,,,,,,,,,,,,,,,,,,,,,,,,,,,,,,,,,,,,,,,{12}5,4,{983}5,,,,,,,,,,,,,,,,,,,,,,,,,,,,,,,,,,,,,,,,,4x,,,,,,,,,,,,,,,,,,,,,,,,,,,,,,,,,,,,,,,,,{12}6,5hx[4:1],{995}6,,,,,,,,,,,,,,,,,,,,,,,,,,,,,,,,,,,,,,,,,,,,,,,,,,,,,,,,,,,,,,,,,,,,,,,,,,,,,,,,,,,{12}7,
{12}8b,,,1x/2h[4:1],{995}3,,,,,,,,,,,,,,,,,,,,,,,,,,,,,,,,,,,,,,,,,,,,,,,,,,,,,,,,,,,,,,,,,,,,,,,,,,,,,,,,,,,{12}4,3,{983}4,,,,,,,,,,,,,,,,,,,,,,,,,,,,,,,,,,,,,,,,,3x,,,,,,,,,,,,,,,,,,,,,,,,,,,,,,,,,,,,,,,,,{12}5,4h[4:1],{995}5,,,,,,,,,,,,,,,,,,,,,,,,,,,,,,,,,,,,,,,,,,,,,,,,,,,,,,,,,,,,,,,,,,,,,,,,,,,,,,,,,,,{12}6,
{12}5hx[4:1],{995}6,,,,,,,,,,,,,,,,,,,,,,,,,,,,,,,,,,,,,,,,,,,,,,,,,,,,,,,,,,,,,,,,,,,,,,,,,,,,,,,,,,,{48}7,,,,6x,,,5,,,4,,,3,,,5hx[4:1],,,,{995}4,,,,,,,,,,,,,,,,,,,,,,,,,,,,,,,,,,,,,,,,,,,,,,,,,,,,,,,,,,,,,,,,,,,,,,,,,,,,,,,,,,,{12}3,4-2[8:1],,,
{4}8-4[8:1],2-8[8:1],6-2[8:1],8-6[8:1],
{4}4-8[8:1],6-4[8:1],2-6[8:1],4>5[1:1],
{8}E1,E8,E7,E6,E5,E4,E3,E2,
{8}E1,3/6,3/6,1/8,3/6,2/7,4b/5bp4[4:13],,
{1}Ch[4:1],
{1}Ch[4:1],
{1}Ch[4:1],
{16}Ch[4:1],,,,,,2/7,,4,4,4,4,5,5,5,5,
E

MASTER

(100.0){16}3,4,6,5,2,4,,,,,,,,,,,
{16}6,5,3,4,7,5,,,,,,,,,,,
{16}3,4,6,5,2,4,,,,,,,,,,,
{16}6,5,3,4,7,5,,,1,1,1,1,1,1,1,1,
{16}7,5,6,2,4,3,,,7h[8:1],,4,6h[8:1],,3,5h[8:1],,
{16}2,4,3,7,5,6,,,2h[8:1],,5,3h[8:1],,6,4h[8:1],,
{16}7,5,6,2,4,3,,,7h[8:1],,4,6h[8:1],,3,5h[8:1],,
{16}2,4,3,7,5,6,,,8h[16:1],,8,8,8,8,8,8,
{16}1b/3b,,6b/8b,,7,5,3/8,,{641}E8,,,,,,,,,,B7,,,,,,,,,,{828}B6,,,,,,,,,,,,,{653}E6,,,,,,,,,,,,,,,,,,,,,,,,,,,,,,,,,,,,,,,,,,,,,,,,,,,{641}E2,,,,,,,,,,B2,,,,,,,,,,{828}B3,,,,,,,,,,,,,{653}E4,,,,,,,,,,,,,,,,,,,,,,,,,,,,,,,,,,,,,,,,,,,,,,,,,,,{16}3/8,,2,4,
{16}7,5,3/8,,{641}E8,,,,,,,,,,B7,,,,,,,,,,{828}B6,,,,,,,,,,,,,{653}E6,,,,,,,,,,,,,,,,,,,,,,,,,,,,,,,,,,,,,,,,,,,,,,,,,,,{16}2,4,3/8,,{641}E2,,,,,,,,,,B2,,,,,,,,,,{828}B3,,,,,,,,,,,,,{653}E4,,,,,,,,,,,,,,,,,,,,,,,,,,,,,,,,,,,,,,,,,,,,,,,,,,,{16}7,5,1/6,,
{16}1/3,,6/8,,7,5,3/8,,{641}E8,,,,,,,,,,B7,,,,,,,,,,{828}B6,,,,,,,,,,,,,{653}E6,,,,,,,,,,,,,,,,,,,,,,,,,,,,,,,,,,,,,,,,,,,,,,,,,,,{641}E2,,,,,,,,,,B2,,,,,,,,,,{828}B3,,,,,,,,,,,,,{653}E4,,,,,,,,,,,,,,,,,,,,,,,,,,,,,,,,,,,,,,,,,,,,,,,,,,,{16}3/8,,2,4,
{16}7,5,3/8,,{641}E8,,,,,,,,,,B7,,,,,,,,,,{828}B6,,,,,,,,,,,,,{653}E6,,,,,,,,,,,,,,,,,,,,,,,,,,,,,,,,,,,,,,,,,,,,,,,,,,,{16}2,4,3/8,,1/6,,B3/B4/B5/E5/B6,,,,
{16}4/6,,2,,3/5,,7,4,4/6,,{641}E8,,,,,,,,,,B8,,,,,,,,,,{828}B1,,,,,,,,,,,,,{653}E2,,,,,,,,,,,,,,,,,,,,,,,,,,,,,,,,,,,,,,,,,,,,,,,,,,,{16}3/5,5,8,,
{16}6,4,1,3,5,,{641}E2,,,,,,,,,,B1,,,,,,,,,,{828}B8,,,,,,,,,,,,,{641}E8,,,,,,,,,,{16}5,3,5,8,6,4,4,4,4,
{16}7,,1/3,,6/8,,2,4,3/8,,1h[8:1]/6h[8:1],,,,7,5,
{16}8,8,8,8,1/5,,2,4,3/8,,1/6,,C1,,E4/E6,,
{16}5/6h[8:1],,8,,5/4h[8:1],,8,,4/5h[8:1],,{641}2,,,,,,,,,,E2,,,,,,,,,,{828}B1,,,,,,,,,,,,,{653}B8,,,,,,,,,,,,,,,,,,,,,,,,,,,,,,,,,,,,,,,,,,,,,,,,,,,{8}4/3h[8:1],1,
{8}6/5h[8:1],8,4/5h[8:1],8,5/4h[8:1],{641}7,,,,,,,,,,E8,,,,,,,,,,{828}B8,,,,,,,,,,,,,{653}B1,,,,,,,,,,,,,,,,,,,,,,,,,,,,,,,,,,,,,,,,,,,,,,,,,,,{8}3/4h[8:1],1,
{8}5/6h[8:1],8,5/4h[8:1],8,4/5h[8:1],{641}2,,,,,,,,,,E2,,,,,,,,,,{828}B1,,,,,,,,,,,,,{653}B8,,,,,,,,,,,,,,,,,,,,,,,,,,,,,,,,,,,,,,,,,,,,,,,,,,,{8}4/3h[8:1],1,
{4}B5/B6/B7/E7/B8,B1/B2/B3/E3/B4,B5/B6/B7/E7/B8,C1,
{8}2/4h[8:1],7,5/3h[8:1],7,{16}4/6h[8:1],{641}2,,,,,,,,,,{828}E3,,,,,,,,,,,,,{641}B3,,,,,,,,,,{653}B4,,,,,,,,,,,,,,,,,,,,,,,,,,,,,,,,,,,,,,,,,,,,,,,,,,,{16}2,7/5h[8:1],,2,,
{16}4/2h[8:1],,7,,3/5h[8:1],,7,,6/4h[8:1],{641}2,,,,,,,,,,{828}E2,,,,,,,,,,,,,{641}B1,,,,,,,,,,{653}B8,,,,,,,,,,,,,,,,,,,,,,,,,,,,,,,,,,,,,,,,,,,,,,,,,,,{16}2,5/7h[8:1],,2,,
{16}2,4,4/7,4,5/3h[8:1],,7,,4/6h[8:1],{641}2,,,,,,,,,,{828}E3,,,,,,,,,,,,,{641}B3,,,,,,,,,,{653}B4,,,,,,,,,,,,,,,,,,,,,,,,,,,,,,,,,,,,,,,,,,,,,,,,,,,{16}2,7/5h[8:1],,2,,
{8}B1/E1/B2/B7/B8,,B3/B4/B5/E5/B6,,B1/E1/B2/B7/B8,,3q6[4:1],5h[8:3],
{8},,,1,{16}4/5h[8:1],{641}8,,,,,,,,,,{828}E1,,,,,,,,,,,,,{641}B1,,,,,,,,,,{653}B2,,,,,,,,,,,,,,,,,,,,,,,,,,,,,,,,,,,,,,,,,,,,,,,,,,,{16}8,6/5h[8:1],,2,,
{16}4/3h[8:1],,7,,4/5h[8:1],,1,,5/4h[8:1],{641}8,,,,,,,,,,{828}E8,,,,,,,,,,,,,{641}B7,,,,,,,,,,{653}B6,,,,,,,,,,,,,,,,,,,,,,,,,,,,,,,,,,,,,,,,,,,,,,,,,,,{16}8,{983}1,,,,,,,,,,,,,,,,,,,,,,,,,,,,,,,,,,,,,,,,,{625}7,,,,,,,,,,,,,,,,,,,,,,,,,,{983}2,,,,,,,,,,,,,,,,,,,,,,,,,,,,,,,,,,,,,,,,,6,,,,,,,,,,,,,,,,,,,,,,,,,,,,,,,,,,,,,,,,,{625}3,,,,,,,,,,,,,,,,,,,,,,,,,,{983}5,,,,,,,,,,,,,,,,,,,,,,,,,,,,,,,,,,,,,,,,,
{983}4,,,,,,,,,,,,,,,,,,,,,,,,,,,,,,,,,,,,,,,,,{625}6,,,,,,,,,,,,,,,,,,,,,,,,,,{983}3,,,,,,,,,,,,,,,,,,,,,,,,,,,,,,,,,,,,,,,,,7,,,,,,,,,,,,,,,,,,,,,,,,,,,,,,,,,,,,,,,,,{625}2,,,,,,,,,,,,,,,,,,,,,,,,,,{983}8,,,,,,,,,,,,,,,,,,,,,,,,,,,,,,,,,,,,,,,,,{8}4h[8:1],1,{16}4/5h[8:1],{641}8,,,,,,,,,,{828}E1,,,,,,,,,,,,,{641}B1,,,,,,,,,,{653}B2,,,,,,,,,,,,,,,,,,,,,,,,,,,,,,,,,,,,,,,,,,,,,,,,,,,{16}8,6/5h[8:1],,2,,
{16}B1/B2/B3/E3/B4,,,,B5/B6/B7/E7/B8,,,,B1/B2/B3/E3/B4,,,,5,4,6h[8:1],,
{16}5,6,3h[8:1],,4,3,7h[8:1],,6,7,2h[8:1],,3,2,8h[8:1],,
{16}7,8,1h[8:1],,2,1,8h[8:1],,6,7,1h[8:1],,3,2,8h[8:1],,
{16}5,6,1/4,3,5/8,7,1/4,2,5/7,6,2/4,3,6/8,7,1/3,2,
{16}4b/8b,,6,,1b/5b,,3,6,1,8,2/7,,B3/B4/B5/E5/B6,,,,
{16}8,,8,,{673}1/8x,,,,,,,{649}B8,,,,,,,,,,,,,,,,,,,,,,,,,,,,,,,,,,,,,,,,,,,,,,,,,,,,,,,,,,,,,,,,,,,,,,,,,,,,,,,,,,,,,,,,,,,,,,,,,,,,,,,,,,,,,,,,,,,,,,,,,,,,,,,,,,,,,,,,,,,,,,,,,,,,,,,,,,,,,,,,,,,,,,,,,,,,,,,,,,,,,,,,,,,,,,,,,,,,,,,,,,,,,,,,,,,,,,,,,,,,,,,,,,,,,,,,,,,,,,,,,,,,,,,,,,,,,,,,,,,,,,,,,,,,,,,,,,,,,,,,,,,,,,,,,,,,,,,,,,,,,,,,,,,,,,,,,,,,,,,,,,,,,,,,,,,,,,,,,,,,,,,,,,,,,,,,,,,,,,,,,,,,,,,,,,,,,,,,,,,,,,,,,,,,,,,,,,,,,,,,,,,,,,,,,,,,,,,,,,,,,,,,,,,,,,,,,,,,,,,,,,,,,,,,,,,,,,,,,,,,,,,,,,,,,,,,,,,,,,,,
{8}1,1,{673}1x/8,,,,,,,{649}B1,,,,,,,,,,,,,,,,,,,,,,,,,,,,,,,,,,,,,,,,,,,,,,,,,,,,,,,,,,,,,,,,,,,,,,,,,,,,,,,,,,,,,,,,,,,,,,,,,,,,,,,,,,,,,,,,,,,,,,,,,,,,,,,,,,,,,,,,,,,,,,,,,,,,,,,,,,,,,,,,,,,,,,,,,,,,,,,,,,,,,,,,,,,,,,,,,,,,,,,,,,,,,,,,,,,,,,,,,,,,,,,,,,,,,,,,,,,,,,,,,,,,,,,,,,,,,,,,,,,,,,,,,,,,,,,,,,,,,,,,,,,,,,,,,,,,,,,,,,,,,,,,,,,,,,,,,,,,,,,,,,,,,,,,,,,,,,,,,,,,,,,,,,,,,,,,,,,,,,,,,,,,,,,,,,,,,,,,,,,,,,,,,,,,,,,,,,,,,,,,,,,,,,,,,,,,,,,,,,,,,,,,,,,,,,,,,,,,,,,,,,,,,,,,,,,,,,,,,,,,,,,,,,,,,,,,,,,,,,,,
{8}7/4h[4:1],7,{673}7x,,,,,,,{649}B7,,,,,,,,,,,,,,,,,,,,,,,,,,,,,,,,,,,,,,,,,,,,,,,,,,,,,,,,,,,,,,,,,,,,,,,,,,,,,,,,,,,,,,,,,,,,,,,,,,,,,,,,,,,,,,,,,,,,,,,,,,,,,,,,,,,,,,,,,,,,,,,,,,,,,,,,,,,,,,,,,,,,,,,,,,,,,,,,,,,,,,,,,,,,,,,,,,,,,,,,,,,,,,,,,,,,,,,,,,,,,,,,,,,,,,,,,,,,,,,,,,,,,,,,,,,,,,,,,,,,,,,,,,,,,,,,,,,,,,,,,,,,,,,,,,,,,,,,,,,,,,,,,,,,,,,,,,,,,,,,,,,,,,,,,,,,,,,,,,,,,,,,,,,,,,,,,,,,,,,,,,,,,,,,,,,,,,,,,,,,,,,,,,,,,,,,,,,,,,,,,,,,,,,,,,,,,,,,,,,,,,,,,,,,,,,,,,,,,,,,,,,,,,,,,,,,,,,,,,,,,,,,,,,,,,,,,,,,,,,,
{8}2/5h[4:1],2,{673}2x,,,,,,,{601}B2,,,,,,,,,,,,,,,,,,,,,,,,,,,,,,,,,,,,,,,,,,,,,,,,,,,,,,,,,,,,,,,,,,,,,,,,,,,,,,,,,,,,,,,,,,,,,,,,,,,,,,,,,,,,,,,,,,,,,,,,,,,,,,,,,,,,,,,,,,,,,,,,{16}8,8,8,8,8,8,8,8,
{673}2x/8,,,,,,,{637}B2,,,,,,,,,,,,,,,,,,,,,,,,,,,,,,,,,,,,,,,,,,,,,,,,,,,,,,,,,,,,,,,,,,,,,,,,,{16}1,1,{673}1/7x,,,,,,,{637}B7,,,,,,,,,,,,,,,,,,,,,,,,,,,,,,,,,,,,,,,,,,,,,,,,,,,,,,,,,,,,,,,,,,,,,,,,,{16}6,6,{673}2x/6,,,,,,,{637}B2,,,,,,,,,,,,,,,,,,,,,,,,,,,,,,,,,,,,,,,,,,,,,,,,,,,,,,,,,,,,,,,,,,,,,,,,,{16}3,3,{673}3/7x,,,,,,,{637}B7,,,,,,,,,,,,,,,,,,,,,,,,,,,,,,,,,,,,,,,,,,,,,,,,,,,,,,,,,,,,,,,,,,,,,,,,,{16}6,6,
{673}4x/6,,,,,,,{637}B4,,,,,,,,,,,,,,,,,,,,,,,,,,,,,,,,,,,,,,,,,,,,,,,,,,,,,,,,,,,,,,,,,,,,,,,,,{16}2,2,{673}2/5x,,,,,,,{637}B5,,,,,,,,,,,,,,,,,,,,,,,,,,,,,,,,,,,,,,,,,,,,,,,,,,,,,,,,,,,,,,,,,,,,,,,,,{16}7,7,{673}4x/7,,,,,,,{637}B4,,,,,,,,,,,,,,,,,,,,,,,,,,,,,,,,,,,,,,,,,,,,,,,,,,,,,,,,,,,,,,,,,,,,,,,,,{16}1,1,{673}1/6x,,,,,,,{637}B6,,,,,,,,,,,,,,,,,,,,,,,,,,,,,,,,,,,,,,,,,,,,,,,,,,,,,,,,,,,,,,,,,,,,,,,,,{16}8,8,
{16}1,1,2,2,3,3,4,4,5,5,6,6,7,7,8,8,
{16}1,1,{641}8,,,,,,,,,,,,,,,,,,,,{639}2,,,,,,,,,,,,,,,,,,,,8,,,,,,,,,,,,,,,,,,,,{641}2,,,,,,,,,,,,,,,,,,,,7,,,,,,,,,,,,,,,,,,,,{639}3,,,,,,,,,,,,,,,,,,,,7,,,,,,,,,,,,,,,,,,,,{641}3,,,,,,,,,,,,,,,,,,,,6,,,,,,,,,,,,,,,,,,,,{639}4,,,,,,,,,,,,,,,,,,,,6,,,,,,,,,,,,,,,,,,,,{641}4,,,,,,,,,,,,,,,,,,,,{16}5,5,{641}4,,,,,,,,,,,,,,,,,,,,{639}6,,,,,,,,,,,,,,,,,,,,4,,,,,,,,,,,,,,,,,,,,{641}6,,,,,,,,,,,,,,,,,,,,3,,,,,,,,,,,,,,,,,,,,{639}7,,,,,,,,,,,,,,,,,,,,3,,,,,,,,,,,,,,,,,,,,{641}7,,,,,,,,,,,,,,,,,,,,2,,,,,,,,,,,,,,,,,,,,{639}8,,,,,,,,,,,,,,,,,,,,2,,,,,,,,,,,,,,,,,,,,{641}8,,,,,,,,,,,,,,,,,,,,
{8}1h[8:7],{641}8,,,,,,,,,,{605}B8,,,,,,,,,,,,,,,,,,,,,,,,,,,,,,,,,,,,,,,,,,,,,,,,,,,,,,,,,,,,,,,,,,,,,,,,,,,,,,,,,,,,,,,,,,,,,,,,,,,,,,,,{641}3,,,,,,,,,,{605}B3,,,,,,,,,,,,,,,,,,,,,,,,,,,,,,,,,,,,,,,,,,,,,,,,,,,,,,,,,,,,,,,,,,,,,,,,,,,,,,,,,,,,,,,,,,,,,,,,,,,,,,,,{673}7,,,,,,,{655}B7,,,,,,,,,,,,,,,,,,,,,,,,,,,,,,,,,,,,,,,,,,,,,,,,,,,,,,,,,,,,,,,,,,,,,,,,,,,,,,,,,,,,,,,,,,,,,,,,,,,,,,,,,,,,,,,,,,,,{673}4,,,,,,,{619}B4,,,,,,,,,,,,,,,,,,,,,,,,,,,,,,,,,,,,,,,,,,,,,,,,,,,,,,,,,,,,,,,,,,,,,,,,,,,,,,,,,,,,,,,,,,,,,,,,,,,,,,,,,,,,,,,,,,,,,,,,,,,,,,,,,,,,,,,,,,,,,,,,,,,,,,,,,,,,,,,,,,,,,,,,,,,,,,,,,,,,,,,,,,,
{8}8h[16:11],{641}1,,,,,,,,,,{605}B1,,,,,,,,,,,,,,,,,,,,,,,,,,,,,,,,,,,,,,,,,,,,,,,,,,,,,,,,,,,,,,,,,,,,,,,,,,,,,,,,,,,,,,,,,,,,,,,,,,,,,,,,{641}6,,,,,,,,,,{605}B6,,,,,,,,,,,,,,,,,,,,,,,,,,,,,,,,,,,,,,,,,,,,,,,,,,,,,,,,,,,,,,,,,,,,,,,,,,,,,,,,,,,,,,,,,,,,,,,,,,,,,,,,{673}2,,,,,,,{655}B2,,,,,,,,,,,,,,,,,,,,,,,,,,,,,,,,,,,,,,,,,,,,,,,,,,,,,,,,,,,,,,,,,,,,,,,,,,,,,,,,,,,,,,,,,,,,,,,,,,,,,,,,,,,,,,,,,,,,{673}5,,,,,,,{595}B5,,,,,,,,,,,,,,,,,,,,,,,,,,,,,,,{983}7,,,,,,,,,,,,,,,,,,,,,,,,,,,,,,,,,,,,,,,,,{625}3,,,,,,,,,,,,,,,,,,,,,,,,,,{983}5,,,,,,,,,,,,,,,,,,,,,,,,,,,,,,,,,,,,,,,,,4,,,,,,,,,,,,,,,,,,,,,,,,,,,,,,,,,,,,,,,,,{625}6,,,,,,,,,,,,,,,,,,,,,,,,,,{983}2,,,,,,,,,,,,,,,,,,,,,,,,,,,,,,,,,,,,,,,,,
{8}5h[8:7],{641}3,,,,,,,,,,{605}B3,,,,,,,,,,,,,,,,,,,,,,,,,,,,,,,,,,,,,,,,,,,,,,,,,,,,,,,,,,,,,,,,,,,,,,,,,,,,,,,,,,,,,,,,,,,,,,,,,,,,,,,,{641}6,,,,,,,,,,{605}B6,,,,,,,,,,,,,,,,,,,,,,,,,,,,,,,,,,,,,,,,,,,,,,,,,,,,,,,,,,,,,,,,,,,,,,,,,,,,,,,,,,,,,,,,,,,,,,,,,,,,,,,,{673}2,,,,,,,{655}B2,,,,,,,,,,,,,,,,,,,,,,,,,,,,,,,,,,,,,,,,,,,,,,,,,,,,,,,,,,,,,,,,,,,,,,,,,,,,,,,,,,,,,,,,,,,,,,,,,,,,,,,,,,,,,,,,,,,,{673}7,,,,,,,{619}B7,,,,,,,,,,,,,,,,,,,,,,,,,,,,,,,,,,,,,,,,,,,,,,,,,,,,,,,,,,,,,,,,,,,,,,,,,,,,,,,,,,,,,,,,,,,,,,,,,,,,,,,,,,,,,,,,,,,,,,,,,,,,,,,,,,,,,,,,,,,,,,,,,,,,,,,,,,,,,,,,,,,,,,,,,,,,,,,,,,,,,,,,,,,
{673}3x/8x,,,,,,,{601}B3/B8,,,,,,,,,,,,,,,,,,,,,,,,,,,,,,,,,,,,,,,,,,,,,,,,,,,,,,,,,,,,,,,,,,,,,,,,,,,,,,,,,,,,,,,,,,,,,,,,,,,,,,,,,,,,,,,,,,,,,,,,,,,,,,,,,,,,,,,,,,,,,,,,{673}1x/6x,,,,,,,{601}B1/B6,,,,,,,,,,,,,,,,,,,,,,,,,,,,,,,,,,,,,,,,,,,,,,,,,,,,,,,,,,,,,,,,,,,,,,,,,,,,,,,,,,,,,,,,,,,,,,,,,,,,,,,,,,,,,,,,,,,,,,,,,,,,,,,,,,,,,,,,,,,,,,,,{673}3x/8x,,,,,,,{601}B3/B8,,,,,,,,,,,,,,,,,,,,,,,,,,,,,,,,,,,,,,,,,,,,,,,,,,,,,,,,,,,,,,,,,,,,,,,,,,,,,,,,,,,,,,,,,,,,,,,,,,,,,,,,,,,,,,,,,,,,,,,,,,,,,,,,,,,,,,,,,,,,,,,,{16}1,6,3,,
{16}8h[8:3],,{673}6,,,,,,,{655}B6,,,,,,,,,,,,,,,,,,,,,,,,,,,,,,,,,,,,,,,,,,,,,,,,,,,,,,,,,,,,,,,,,,,,,,,,,,,,,,,,,,,,,,,,,,,,,,,,,,,,,,,,,,,,,,,,,,,,{673}2,,,,,,,{655}B2,,,,,,,,,,,,,,,,,,,,,,,,,,,,,,,,,,,,,,,,,,,,,,,,,,,,,,,,,,,,,,,,,,,,,,,,,,,,,,,,,,,,,,,,,,,,,,,,,,,,,,,,,,,,,,,,,,,,{673}1/5,,,,,,,{655}B1/B5,,,,,,,,,,,,,,,,,,,,,,,,,,,,,,,,,,,,,,,,,,,,,,,,,,,,,,,,,,,,,,,,,,,,,,,,,,,,,,,,,,,,,,,,,,,,,,,,,,,,,,,,,,,,,,,,,,,,{673}3/7,,,,,,,{619}B3/B7,,,,,,,,,,,,,,,,,,,,,,,,,,,,,,,,,,,,,,,,,,,,,,,,,,,,,,,,,,,,,,,,,,,,,,,,,,,,,,,,,,,,,,,,,,,,,,,,,,,,,,,,,,,,,,,,,,,,,,,,,,,,,,,,,,,,,,,,,,,,,,,,,,,,,,,,,,,,,,,,,,,,,,,,,,,,,,,,,,,,,,,,,,,
{8}1h[8:3],{673}3,,,,,,,{655}B3,,,,,,,,,,,,,,,,,,,,,,,,,,,,,,,,,,,,,,,,,,,,,,,,,,,,,,,,,,,,,,,,,,,,,,,,,,,,,,,,,,,,,,,,,,,,,,,,,,,,,,,,,,,,,,,,,,,,{673}7,,,,,,,{655}B7,,,,,,,,,,,,,,,,,,,,,,,,,,,,,,,,,,,,,,,,,,,,,,,,,,,,,,,,,,,,,,,,,,,,,,,,,,,,,,,,,,,,,,,,,,,,,,,,,,,,,,,,,,,,,,,,,,,,{673}4/8,,,,,,,{655}B4/B8,,,,,,,,,,,,,,,,,,,,,,,,,,,,,,,,,,,,,,,,,,,,,,,,,,,,,,,,,,,,,,,,,,,,,,,,,,,,,,,,,,,,,,,,,,,,,,,,,,,,,,,,,,,,,,,,,,,,{673}2/6,,,,,,,{629}B2/B6,,,,,,,,,,,,,,,,,,,,,,,,,,,,,,,,,,,,,,,,,,,,,,,,,,,,,,,,,,,{625}7,,,,,,,,,,,,,,,,,,,,,,,,,,{983}3,,,,,,,,,,,,,,,,,,,,,,,,,,,,,,,,,,,,,,,,,5,,,,,,,,,,,,,,,,,,,,,,,,,,,,,,,,,,,,,,,,,{625}2,,,,,,,,,,,,,,,,,,,,,,,,,,{983}6,,,,,,,,,,,,,,,,,,,,,,,,,,,,,,,,,,,,,,,,,
{8}4h[8:3],{673}6,,,,,,,{655}B6,,,,,,,,,,,,,,,,,,,,,,,,,,,,,,,,,,,,,,,,,,,,,,,,,,,,,,,,,,,,,,,,,,,,,,,,,,,,,,,,,,,,,,,,,,,,,,,,,,,,,,,,,,,,,,,,,,,,{673}3,,,,,,,{655}B3,,,,,,,,,,,,,,,,,,,,,,,,,,,,,,,,,,,,,,,,,,,,,,,,,,,,,,,,,,,,,,,,,,,,,,,,,,,,,,,,,,,,,,,,,,,,,,,,,,,,,,,,,,,,,,,,,,,,{673}2/6,,,,,,,{655}B2/B6,,,,,,,,,,,,,,,,,,,,,,,,,,,,,,,,,,,,,,,,,,,,,,,,,,,,,,,,,,,,,,,,,,,,,,,,,,,,,,,,,,,,,,,,,,,,,,,,,,,,,,,,,,,,,,,,,,,,{673}3/7,,,,,,,{619}B3/B7,,,,,,,,,,,,,,,,,,,,,,,,,,,,,,,,,,,,,,,,,,,,,,,,,,,,,,,,,,,,,,,,,,,,,,,,,,,,,,,,,,,,,,,,,,,,,,,,,,,,,,,,,,,,,,,,,,,,,,,,,,,,,,,,,,,,,,,,,,,,,,,,,,,,,,,,,,,,,,,,,,,,,,,,,,,,,,,,,,,,,,,,,,,
{673}1x/4x,,,,,,,{601}B1/B4,,,,,,,,,,,,,,,,,,,,,,,,,,,,,,,,,,,,,,,,,,,,,,,,,,,,,,,,,,,,,,,,,,,,,,,,,,,,,,,,,,,,,,,,,,,,,,,,,,,,,,,,,,,,,,,,,,,,,,,,,,,,,,,,,,,,,,,,,,,,,,,,{673}5x/8x,,,,,,,{601}B5/B8,,,,,,,,,,,,,,,,,,,,,,,,,,,,,,,,,,,,,,,,,,,,,,,,,,,,,,,,,,,,,,,,,,,,,,,,,,,,,,,,,,,,,,,,,,,,,,,,,,,,,,,,,,,,,,,,,,,,,,,,,,,,,,,,,,,,,,,,,,,,,,,,{673}1x/4x,,,,,,,{601}B1/B4,,,,,,,,,,,,,,,,,,,,,,,,,,,,,,,,,,,,,,,,,,,,,,,,,,,,,,,,,,,,,,,,,,,,,,,,,,,,,,,,,,,,,,,,,,,,,,,,,,,,,,,,,,,,,,,,,,,,,,,,,,,,,,,,,,,,,,,,,,,,,,,,{16}8,5,3,,
{16}Ch[4:1],,,,,,,,{673}6,,,,,,,E6,,,,,,,{16}B5,{381}2,,,,{673}E2,,,,,,,{16}B1,{673}7,,,,,,,{631}E7,,,,,,,,,,,,,,,,,,,,,,,,,,,,,,,,,,,,,,,,,,,,,,{673}3,,,,,,,E4,,,,,,,{16}B4,{381}7,,,,{673}E8,,,,,,,{16}B8,{673}2,,,,,,,{631}E3,,,,,,,,,,,,,,,,,,,,,,,,,,,,,,,,,,,,,,,,,,,,,,
{673}6,,,,,,,E6,,,,,,,{16}B5,{381}2,,,,{673}E2,,,,,,,{16}B1,{673}7,,,,,,,{631}E7,,,,,,,,,,,,,,,,,,,,,,,,,,,,,,,,,,,,,,,,,,,,,,{673}3,,,,,,,E4,,,,,,,{16}B4,{381}7,,,,{673}E8,,,,,,,{16}B8,{673}2,,,,,,,{631}E3,,,,,,,,,,,,,,,,,,,,,,,,,,,,,,,,,,,,,,,,,,,,,,{673}6,,,,,,,E6,,,,,,,{16}B5,{381}2,,,,{673}E2,,,,,,,{16}B1,{673}7,,,,,,,{631}E7,,,,,,,,,,,,,,,,,,,,,,,,,,,,,,,,,,,,,,,,,,,,,,{673}3,,,,,,,E4,,,,,,,{16}B4,{381}7,,,,{673}E8,,,,,,,{16}B8,{673}2,,,,,,,{631}E3,,,,,,,,,,,,,,,,,,,,,,,,,,,,,,,,,,,,,,,,,,,,,,
{2}Ch[4:1],{673}7,,,,,,,E7,,,,,,,{16}B6,{381}3,,,,{673}E3,,,,,,,{16}B2,{673}8,,,,,,,{631}E8,,,,,,,,,,,,,,,,,,,,,,,,,,,,,,,,,,,,,,,,,,,,,,{673}4,,,,,,,E5,,,,,,,{16}B5,{381}8,,,,{673}E1,,,,,,,{16}B1,{673}3,,,,,,,{631}E4,,,,,,,,,,,,,,,,,,,,,,,,,,,,,,,,,,,,,,,,,,,,,,
{673}7,,,,,,,E7,,,,,,,{16}B6,{381}3,,,,{673}E3,,,,,,,{16}B2,{673}8,,,,,,,{631}E8,,,,,,,,,,,,,,,,,,,,,,,,,,,,,,,,,,,,,,,,,,,,,,{673}4,,,,,,,E5,,,,,,,{16}B5,{381}8,,,,{673}E1,,,,,,,{16}B1,{673}3,,,,,,,{631}E4,,,,,,,,,,,,,,,,,,,,,,,,,,,,,,,,,,,,,,,,,,,,,,{673}7,,,,,,,E7,,,,,,,{16}B6,{381}3,,,,{673}E3,,,,,,,{16}B2,{673}8,,,,,,,{631}E8,,,,,,,,,,,,,,,,,,,,,,,,,,,,,,,,,,,,,,,,,,,,,,{16}1,3,5h[8:1],,
{16}8,6,3h[8:1],,2,4,6h[8:1],,7,5,2h[8:1],,1,3,7h[8:1],,
{16}8,6,1h[8:1],,8,2,8h[8:1],,7,1,2h[8:1],,1,3,7h[8:1],,
{16}1,3,4/8,6,1/5,3,4/8,6,1/5,3,4/8,6,1/5,3,4/8,6,
{16}1b/5b,,3,,4b/8b,,6,3,8,1,2/7,,B3/B4/B5/E5/B6,,,,
{16}3,4,5,4,{673}2,,,,,,,{595}B2,,,,,,,,,,,,,,,,,,,,,,,,,,,,,,,{673}6,,,,,,,{607}B6,,,,,,,,,,,,,,,,,,,,,,,,,,,,,,,,,,,,,,,,,,,,,,,,,,,,,,,,,,,,,,,,,,,,,,,,,,,,,,,,,,,,,,,,,,,,,,,,,,,,,,,,,,,,,,,,,,,,,,,,,,,,,,,,,,,,,,,,,,,,,,,,,,,,,,,,,,,,,,,,,,,,,,,,,,,,,,,,,,,,,,,,,,,,,,,,,,,,,,,,,,,,,,,,,,,,,,,,,,,,,,,,,,,,,,,,,,,,,,,,,,,,,,,,,,,,,,,,,,,,,,,,,,,,,,,,,,,,,,,,,,,,,,,,,,,,,,,,,,,,,,,,,,,,,,,,,,,,,,,,,,,,,,,,,,,,,,,,,,,,,,,,,,,,,,,,,,,,,,,,,,,,,,,,,,,,,,,,,,,,,,,,,,,,,,,,,,,,,,,,,,,,,,,,,,,
{16}6,5,4,5,{673}7,,,,,,,{595}B7,,,,,,,,,,,,,,,,,,,,,,,,,,,,,,,{673}3,,,,,,,{607}B3,,,,,,,,,,,,,,,,,,,,,,,,,,,,,,,,,,,,,,,,,,,,,,,,,,,,,,,,,,,,,,,,,,,,,,,,,,,,,,,,,,,,,,,,,,,,,,,,,,,,,,,,,,,,,,,,,,,,,,,,,,,,,,,,,,,,,,,,,,,,,,,,,,,,,,,,,,,,,,,,,,,,,,,,,,,,,,,,,,,,,,,,,,,,,,,,,,,,,,,,,,,,,,,,,,,,,,,,,,,,,,,,,,,,,,,,,,,,,,,,,,,,,,,,,,,,,,,,,,,,,,,,,,,,,,,,,,,,,,,,,,,,,,,,,,,,,,,,,,,,,,,,,,,,,,,,,,,,,,,,,,,,,,,,,,,,,,,,,,,,,,,,,,,,,,,,,,,,,,,,,,,,,,,,,,,,,,,,,,,,,,,,,,,,,,,,,,,,,,,,,,,,,,,,,,,
{16}3,4,5,4,{673}2,,,,,,,{595}B2,,,,,,,,,,,,,,,,,,,,,,,,,,,,,,,{673}6,,,,,,,{607}B6,,,,,,,,,,,,,,,,,,,,,,,,,,,,,,,,,,,,,,,,,,,,,,,,,,,,,,,,,,,,,,,,,,,,,,,,,,,,,,,,,,,,,,,,,,,,,,,,,,,,,,,,,,,,,,,,,,,,,,,,,,,,,,,,,,,,,,,,,,,,,,,,,,,,,,,,,,,,,,,,,,,,,,,,,,,,,,,,,,,,,,,,,,,,,,,,,,,,,,,,,,,,,,,,,,,,,,,,,,,,,,,,,,,,,,,,,,,,,,,,,,,,,,,,,,,,,,,,,,,,,,,,,,,,,,,,,,,,,,,,,,,,,,,,,,,,,,,,,,,,,,,,,,,,,,,,,,,,,,,,,,,,,,,,,,,,,,,,,,,,,,,,,,,,,,,,,,,,,,,,,,,,,,,,,,,,,,,,,,,,,,,,,,,,,,,,,,,,,,,,,,,,,,,,,,,
{16}6,5,4,5,{673}7,,,,,,,{595}B7,,,,,,,,,,,,,,,,,,,,,,,,,,,,,,,{673}3,,,,,,,{655}B3,,,,,,,,,,,,,,,,,,,,,,,,,,,,,,,,,,,,,,,,,,,,,,,,,,,,,,,,,,,,,,,,,,,,,,,,,,,,,,,,,,,,,,,,,,,,,,,,,,,,,,,,,,,,,,,,,,,,{16}8,8,1,1,{673}7,,,,,,,{595}B7,,,,,,,,,,,,,,,,,,,,,,,,,,,,,,,{673}8,,,,,,,{595}B8,,,,,,,,,,,,,,,,,,,,,,,,,,,,,,,{673}1,,,,,,,{595}B1,,,,,,,,,,,,,,,,,,,,,,,,,,,,,,,{673}2,,,,,,,B2,
E

Re:MASTER


名前:
コメント:

タグ:

+ タグ編集
  • タグ:
最終更新:2026年04月05日 14:07