アットウィキロゴ

サンバランド〈でらっくす〉

アーティスト SAMBA MASTER 佐藤

BPM BASIC ADVANCED EXPERT MASTER Re:MASTER
132 3 7 11 12+ -

EXPERT MASTER Re:MASTER
譜面制作者 サファ太 小鳥遊さん -

BASIC

(132.0){1},,,,,
{1}1h[2:1],
{2}1,1,
{1}8h[2:1],
{2}8,8b,
{1}1,
{1}1,
{1}2,
{1}2,
{1}3,
{1}3,
{1}4,
{1}4h[2:1],
{2}5,5,
{1}5,
{2}6,6,
{1}6,
{2}7,7,
{1}7,
{2}8,8,
{1}8,
{1}1-4[4:3],,
{1}8-5[4:3],,
{1}1-4[4:3],,
{1}8-5[4:3],,
{2}1/8,1b/8b,
{4}8,8,8,,
{4}7,7,7,,
{4}6,6,6,,
{1}4h[2:1]/5h[2:1],
{4}4,4,4,,
{4}3,3,3,,
{4}2,2,2,,
{4}1/8,1/8,1b/8b,,
{1}B2,
{1}B3,
{1}B4,
{1}B5,
{1}B6,
{1}B7,
{1}Chf[1:1],,
{2}8,8,
{2}7,7,
{2}6,6,
{4}5,5,4/5,,
{2}4,4,
{2}3,3,
{2}2,2,
{4}1,1,1b/8b,,
{2}2,3,
{2}4,5,
{2}6,5,
{2}4,3/4,
{2}5,6,
{2}7,8,
{2}1x/8x,1x/8x,
{4}1,1,8,8b,
E

ADVANCED

(132.0){1},
{1}3h[2:1]/4h[2:1],
{1}4h[2:1]/5h[2:1],
{1}5h[2:1]/6h[2:1],
{2}7,1/8,
{1}2h[2:1]/7h[2:1],
{1}2h[2:1]/7h[2:1],
{1}2h[2:1]/7h[2:1],
{4}2/7,2/7,2b/7b,,
{4}3,3,3/4,,
{4}6,6,5/6,,
{4}3,3,4,4,
{4}3,3,3/4,,
{4}2,2,1/2,,
{4}7,7,7/8,,
{4}1,1,8,8,
{2}1h[4:1]/8h[4:1],2x/7x,
{1}3h[2:1]/4h[2:1],
{1}3h[2:1]/4h[2:1],
{2}3h[2:1],4h[2:1],
{4}3,3,3/4,,
{2}5h[4:1]/6h[4:1],5/6,
{2}3h[4:1]/4h[4:1],3/4,
{2}5h[4:1]/6h[4:1],4/7,
{4}4/5,4/5,3x/6x,,
{1}5-8[2:1],
{1}1-4[2:1],
{1}5^8[2:1],
{4}1,8,2/7,,
{4}E3,B3,B4,,
{4}E7,B6,B5,,
{4}E4,B3,B2,,
{4}B6,B7,E8,,
{4}1h[2:1]/8h[2:1],,,2b/7b,
{4}3,3/4,2,1/2,
{4}3,3/4,2/5,,
{4}7,7/8,6,5/6,
{4}7,7/8,1/6,,
{4}3/4,3/4,2/5,,
{4}5/6,5/6,4/7,,
{4}2,1,7,8,
{4}1/8,1/8,2x/7x,,
{4}3/6,1/8,3/6,1/8,
{4}3/6,1/2,3/6,7/8,
{4}3/6,1/8,3/6,1/8,
{4}3/6,4/5,2x/7x,,
{4}4/7,1/2,4/7,1/2,
{4}3/4,1/6,3/4,1/6,
{4}4/5,1/2,4/5,7/8,
{4}4h[4:1]/5h[4:1],,2/7,2b/7b,
{4}8,7,6,4/5,
{4}3,2,2/5,,
{4}1,2,3,4/5,
{4}6,7,4/7,,
{4}2h[4:1],1,3/8,,
{4}7h[4:1],8,1/6,,
{4}2,3,4,5/6,
{4}4,3,2b/5b,,
{4}5/6,4/7,3/4,2/5,
{4}5/6,4/7,3/8,,
{4}1/2,3/8,7/8,1/6,
{4}1/8,2/7,3/6,,
{2}1h[4:1]/2h[4:1],3/8,
{2}7h[4:1]/8h[4:1],1/6,
{2}5x/7x,2x/4x,
{4}4/5,4/5,3/6,1b/8b,
E

EXPERT

(132.0){4},,,3>6[2:1],
{4}6x,,,3/5,
{12}4,{995}4,,,,,,,,,,,,,,,,,,,,,,,,,,,,,,,,,,,,,,,,,,,,,,,,,,,,,,,,,,,,,,,,,,,,,,,,,,,,,,,,,,,{12}4,5,{995}5,,,,,,,,,,,,,,,,,,,,,,,,,,,,,,,,,,,,,,,,,,,,,,,,,,,,,,,,,,,,,,,,,,,,,,,,,,,,,,,,,,,{12}5,4x,,,6<3[2:1],,,
{4}3x,,,4/6,
{12}5,{995}5,,,,,,,,,,,,,,,,,,,,,,,,,,,,,,,,,,,,,,,,,,,,,,,,,,,,,,,,,,,,,,,,,,,,,,,,,,,,,,,,,,,{12}5,4,{995}4,,,,,,,,,,,,,,,,,,,,,,,,,,,,,,,,,,,,,,,,,,,,,,,,,,,,,,,,,,,,,,,,,,,,,,,,,,,,,,,,,,,{12}4,5x,,,4/5,,,
{4}2h[8:1]/7h[8:1],2/7,2h[8:1]/7h[8:1],2/7,
{12}1,{995}1,,,,,,,,,,,,,,,,,,,,,,,,,,,,,,,,,,,,,,,,,,,,,,,,,,,,,,,,,,,,,,,,,,,,,,,,,,,,,,,,,,,{12}1,8,{995}8,,,,,,,,,,,,,,,,,,,,,,,,,,,,,,,,,,,,,,,,,,,,,,,,,,,,,,,,,,,,,,,,,,,,,,,,,,,,,,,,,,,{12}8,1x,,,1/8,,,
{4}3h[8:1]/6h[8:1],B2/B7,3h[8:1]/6h[8:1],B2/B7,
{12}8,{995}8,,,,,,,,,,,,,,,,,,,,,,,,,,,,,,,,,,,,,,,,,,,,,,,,,,,,,,,,,,,,,,,,,,,,,,,,,,,,,,,,,,,{12}8,1,{995}1,,,,,,,,,,,,,,,,,,,,,,,,,,,,,,,,,,,,,,,,,,,,,,,,,,,,,,,,,,,,,,,,,,,,,,,,,,,,,,,,,,,{12}1,8,{995}8,,,,,,,,,,,,,,,,,,,,,,,,,,,,,,,,,,,,,,,,,,,,,,,,,,,,,,,,,,,,,,,,,,,,,,,,,,,,,,,,,,,{12}8,1b,,,
{8}2,,2/4,,3,3,4,,
{8}6,,5/6,,7,7,8,,
{4}6/1>6[8:3],,8,8,
{4}3/8<3[8:3],,1,1/8,
{8}3,,2/4,,1,1,8,,
{4}5/7,4/5,2/4,4/5<4[2:1],
{4},,,2/7,
{4}3/4,5/6,{12}3x/6x,{995}3x/6x,,,,,,,,,,,,,,,,,,,,,,,,,,,,,,,,,,,,,,,,,,,,,,,,,,,,,,,,,,,,,,,,,,,,,,,,,,,,,,,,,,,{12}3x/6x,3x/6x,,,
{16}2h[16:3],,,3h[16:3],,,4,,,,3/4,,3/4,,,,
{16}5h[16:3],,,4h[16:3],,,3,,,,3/4,,3/4,,,,
{16}2h[16:3],,,3h[16:3],,,4,,,,2/5,,2/5,,,,
{4}3h[8:1]/4h[8:1],4h[8:1]/5h[8:1],3h[8:1]/4h[8:1],2/5,
{16}7h[16:3],,,6h[16:3],,,5,,,,3,,2/4,,,,
{16}2h[16:3],,,3h[16:3],,,4,,,,6,,5/7,,,,
{16}6h[16:3],,,7h[16:3],,,8,,,,1/6,,1/6,,,,
{4}2h[8:1]/4h[8:1],5h[8:1]/7h[8:1],3h[8:1]/6h[8:1],3x/6x,
{2}4x/5^7[8:1],3^1[8:1],
{12}7,{995}7,,,,,,,,,,,,,,,,,,,,,,,,,,,,,,,,,,,,,,,,,,,,,,,,,,,,,,,,,,,,,,,,,,,,,,,,,,,,,,,,,,,{12}7,8,{995}8,,,,,,,,,,,,,,,,,,,,,,,,,,,,,,,,,,,,,,,,,,,,,,,,,,,,,,,,,,,,,,,,,,,,,,,,,,,,,,,,,,,{12}8,7x,,,5/6,,,
{2}5x/4^2[8:1],6^8[8:1],
{12}2,{995}2,,,,,,,,,,,,,,,,,,,,,,,,,,,,,,,,,,,,,,,,,,,,,,,,,,,,,,,,,,,,,,,,,,,,,,,,,,,,,,,,,,,{12}2,1,{995}1,,,,,,,,,,,,,,,,,,,,,,,,,,,,,,,,,,,,,,,,,,,,,,,,,,,,,,,,,,,,,,,,,,,,,,,,,,,,,,,,,,,{12}1,2x,,,3/4,,,
{2}4/5^7[8:1],3^1[8:1],
{12}7,{995}7,,,,,,,,,,,,,,,,,,,,,,,,,,,,,,,,,,,,,,,,,,,,,,,,,,,,,,,,,,,,,,,,,,,,,,,,,,,,,,,,,,,{12}7,7,{995}7,,,,,,,,,,,,,,,,,,,,,,,,,,,,,,,,,,,,,,,,,,,,,,,,,,,,,,,,,,,,,,,,,,,,,,,,,,,,,,,,,,,{12}7,7/8,,,4/5,,,
{4}3/4h[4:1],B2/E2,4/3h[4:1],E6/B6,
{12}2,{995}2,,,,,,,,,,,,,,,,,,,,,,,,,,,,,,,,,,,,,,,,,,,,,,,,,,,,,,,,,,,,,,,,,,,,,,,,,,,,,,,,,,,{12}2,2,{995}2,,,,,,,,,,,,,,,,,,,,,,,,,,,,,,,,,,,,,,,,,,,,,,,,,,,,,,,,,,,,,,,,,,,,,,,,,,,,,,,,,,,{12}2,1/2,,,3/6,,,
{12}8,{995}8,,,,,,,,,,,,,,,,,,,,,,,,,,,,,,,,,,,,,,,,,,,,,,,,,,,,,,,,,,,,,,,,,,,,,,,,,,,,,,,,,,,{12}8,1,{995}1,,,,,,,,,,,,,,,,,,,,,,,,,,,,,,,,,,,,,,,,,,,,,,,,,,,,,,,,,,,,,,,,,,,,,,,,,,,,,,,,,,,{12}1,8,{995}8,,,,,,,,,,,,,,,,,,,,,,,,,,,,,,,,,,,,,,,,,,,,,,,,,,,,,,,,,,,,,,,,,,,,,,,,,,,,,,,,,,,{12}8,2b/7b,,,
{16}8/3h[4:1],,,,4,,,,3,4,,3/4,,2/5,,5/2>7[16:7],
{4},8,8,8,
{16}1/6h[4:1],,,,5,,,,6,5,,5/6,,4/7,,4/7<2[16:7],
{4},1,1,1b/8b,
{16}5/7h[4:1],,,,8,,,,2,1,,1/2,,3/8,,7/4>7[16:7],
{4},6,6,5-8[8:1],
{16}4,,,,2x/7x,,,,6,5,,4/7,,4/7,,3/8,
{16},3/8,,1/2h[16:5],,,,,{12}7x,{995}7x,,,,,,,,,,,,,,,,,,,,,,,,,,,,,,,,,,,,,,,,,,,,,,,,,,,,,,,,,,,,,,,,,,,,,,,,,,,,,,,,,,,{12}7x,7b/8b,,,
{4}2x/1-6[8:1],4-2[8:1],1-6[8:1],4-2[8:1],
{8}1-6[8:1],,4-2[8:1],,7,7,7/8,,
{4}1/6-4[8:1],2-7[8:1],6-4[8:1],2<4[8:3],
{8}7x,,,,1/2,3/8,4b/7b,,
{4}6/5-2[8:1],8-6[8:1],5-2[8:1],7-5[8:1],
{4}3-8[8:1],6-4[8:1],3h[4:1],8x,
{4}1/7-4[8:1],1-6[8:1],3-8[8:1],5x,
{12}4,{995}4,,,,,,,,,,,,,,,,,,,,,,,,,,,,,,,,,,,,,,,,,,,,,,,,,,,,,,,,,,,,,,,,,,,,,,,,,,,,,,,,,,,{12}4,6,{995}6,,,,,,,,,,,,,,,,,,,,,,,,,,,,,,,,,,,,,,,,,,,,,,,,,,,,,,,,,,,,,,,,,,,,,,,,,,,,,,,,,,,{12}6,2,{995}2,,,,,,,,,,,,,,,,,,,,,,,,,,,,,,,,,,,,,,,,,,,,,,,,,,,,,,,,,,,,,,,,,,,,,,,,,,,,,,,,,,,{12}2,1b/2b>6[2:1],,,
{4}C1f,,,8/7<3[2:1],
{4}2h[2:1],,,2/8,
{8}3,4,5/2h[4:1],,1,,3/4,,
{8}6,5,4/7h[4:1],,8,,5/6,,
{8}4/3h[4:1],,2,,2,2,1/2,,
{8}8/7h[4:1],,6,,6,6,5/6,,
{2}4h[4:1]/3-8[8:1],5h[4:1]/6-1[8:1],
{4}2/4,4/5,{12}3/6,{995}3/6,,,,,,,,,,,,,,,,,,,,,,,,,,,,,,,,,,,,,,,,,,,,,,,,,,,,,,,,,,,,,,,,,,,,,,,,,,,,,,,,,,,{12}3/6,3b/6b,,,
{16}1/2,,2,1,,3/8,,4/7h[16:5],,,8,,8,,,,
{4}1^4[4:1],6,5^8[4:1],2q5[2:1],
{4},,7,4h[4:1]/7p4[2:1],
{4},,2,1/2,
{16}7/8,,7,8,,1/6,,5/2h[16:5],,,1,,1,,,,
{4}7hx[4:1]/8hx[4:1],,5/6,4/5,
{12}2b/4b,{995}2/4,,,,,,,,,,,,,,,,,,,,,,,,,,,,,,,,,,,,,,,,,,,,,,,,,,,,,,,,,,,,,,,,,,,,,,,,,,,,,,,,,,,{12}2/4,,,,5b/7b,{995}5/7,,,,,,,,,,,,,,,,,,,,,,,,,,,,,,,,,,,,,,,,,,,,,,,,,,,,,,,,,,,,,,,,,,,,,,,,,,,,,,,,,,,{12}5/7,,,,
{12}1b/8b,{995}1/8,,,,,,,,,,,,,,,,,,,,,,,,,,,,,,,,,,,,,,,,,,,,,,,,,,,,,,,,,,,,,,,,,,,,,,,,,,,,,,,,,,,{12}1/8,1/8,{995}1/8,,,,,,,,,,,,,,,,,,,,,,,,,,,,,,,,,,,,,,,,,,,,,,,,,,,,,,,,,,,,,,,,,,,,,,,,,,,,,,,,,,,{12}1/8,2/7,{995}2/7,,,,,,,,,,,,,,,,,,,,,,,,,,,,,,,,,,,,,,,,,,,,,,,,,,,,,,,,,,,,,,,,,,,,,,,,,,,,,,,,,,,{12}2/7,C1f/B3/B6,
E

MASTER

(132.0){4},,,5<4[4:3],
{1}4,
{12}4,{995}4,,,,,,,,,,,,,,,,,,,,,,,,,,,,,,,,,,,,,,,,,,,,,,,,,,,,,,,,,,,,,,,,,,,,,,,,,,,,,,,,,,,{12}4,5,{995}5,,,,,,,,,,,,,,,,,,,,,,,,,,,,,,,,,,,,,,,,,,,,,,,,,,,,,,,,,,,,,,,,,,,,,,,,,,,,,,,,,,,{12}5,3/6,,,4>5[4:3],,,
{1}5,
{12}5,{995}5,,,,,,,,,,,,,,,,,,,,,,,,,,,,,,,,,,,,,,,,,,,,,,,,,,,,,,,,,,,,,,,,,,,,,,,,,,,,,,,,,,,{12}5,4,{995}4,,,,,,,,,,,,,,,,,,,,,,,,,,,,,,,,,,,,,,,,,,,,,,,,,,,,,,,,,,,,,,,,,,,,,,,,,,,,,,,,,,,{12}4,3/6,,,5<4[4:3],,,
{4}4,4,5,5,
{12}4,{995}4,,,,,,,,,,,,,,,,,,,,,,,,,,,,,,,,,,,,,,,,,,,,,,,,,,,,,,,,,,,,,,,,,,,,,,,,,,,,,,,,,,,{12}4,5,{995}5,,,,,,,,,,,,,,,,,,,,,,,,,,,,,,,,,,,,,,,,,,,,,,,,,,,,,,,,,,,,,,,,,,,,,,,,,,,,,,,,,,,{12}5,3/6,,,4>5[4:3],,,
{4}5,5,4,4,
{12}5,{995}5,,,,,,,,,,,,,,,,,,,,,,,,,,,,,,,,,,,,,,,,,,,,,,,,,,,,,,,,,,,,,,,,,,,,,,,,,,,,,,,,,,,{12}5,4,{995}4,,,,,,,,,,,,,,,,,,,,,,,,,,,,,,,,,,,,,,,,,,,,,,,,,,,,,,,,,,,,,,,,,,,,,,,,,,,,,,,,,,,{12}4,8,{995}8,,,,,,,,,,,,,,,,,,,,,,,,,,,,,,,,,,,,,,,,,,,,,,,,,,,,,,,,,,,,,,,,,,,,,,,,,,,,,,,,,,,{12}8,1b/7b,,,
{16}2x/5x,,3,4,,4,3,,2,,1,,8,,7,,
{8}6h[4:1],7,4h[4:1],8,5h[4:1],1,3h[4:1],2,
{4}1<3[4:1],C1,8>6[4:1],C1,
{4}1<3[4:1],C1,1,3b/8b,
{16}4x/7x,,6,5,,5,6,,7,,8,,1,,2,,
{8}3h[4:1],2,5h[4:1],1,4h[4:1],8,6h[4:1],7,
{4}8>6[4:1],C1,1<3[4:1],C1,
{4}8>6[4:1],C1,{12}8,{995}8,,,,,,,,,,,,,,,,,,,,,,,,,,,,,,,,,,,,,,,,,,,,,,,,,,,,,,,,,,,,,,,,,,,,,,,,,,,,,,,,,,,{12}8,1b/7b,,,
{16}7h[16:3],,,6h[16:3],,,5,,2/4,,3,,4/7,,6,,
{16}2/5,,3,,4/5,,6,5,6,,4,4,,3/5,,,
{16}2h[16:3],,,3h[16:3],,,4,,6,,5/7,,5/7,,,,
{16}7h[16:3],,,6h[16:3],,,5,,3,,2/4,,2/4,,,,
{16}2h[16:3],,,3h[16:3],,,4,,5/7,,6,,2/5,,3,,
{16}4/7,,6,,4/5,,3,4,3,,5,5,,4/6,,,
{16}7h[16:3],,,6h[16:3],,,5,,3,,2/4,,2/4,,,,
{16}2h[16:3],,,3h[16:3],,,4,,6,,5/7,,4^1[2:1]/8v5[2:1],,,,
{4},,,1v4[2:1]/5^8[2:1],
{4},,,4^1[2:1]/8q5[2:1],
{4},,,1p4[2:1]/5^8[2:1],
{4},,,4/8<3[2:1],
{4}2h[2:1],,,5/1>6[2:1],
{4}7h[2:1],,,4/8>5[2:1],
{4}2h[2:1],,,5/1<4[2:1],
{4}7h[2:1],,,1/8,
{12}7x,{995}7,,,,,,,,,,,,,,,,,,,,,,,,,,,,,,,,,,,,,,,,,,,,,,,,,,,,,,,,,,,,,,,,,,,,,,,,,,,,,,,,,,,{12}7,3,{995}3,,,,,,,,,,,,,,,,,,,,,,,,,,,,,,,,,,,,,,,,,,,,,,,,,,,,,,,,,,,,,,,,,,,,,,,,,,,,,,,,,,,{12}3,5,{995}5,,,,,,,,,,,,,,,,,,,,,,,,,,,,,,,,,,,,,,,,,,,,,,,,,,,,,,,,,,,,,,,,,,,,,,,,,,,,,,,,,,,{12}5,C1f/B3/B6,,,
{16}1x/8x,,2-6[8:1],1,3,,2,,7,7,,4,5,4,,6,
{8}5/6^3[8:1],7,1/6,2,4/3^6[8:1],2,3/8,7,
{16}5/6,,7-3[8:1],8,6,,7,,2,2,,5,4,5,,7/8,
{16},2,1,2qq5[16:5],,5,5,,6,,7,,8b,,,,
{16}4/5,,3-7[8:1],4,2,,3,,6,6,,1,8,1,,7,
{8}8/7^2[8:1],6,4/7,3,1/2^7[8:1],3,2/5,6,
{16}4h[4:1]/7h[4:1],,,,,,5/6,,4/7,4/7,,2/4,,1/8,,5/7,
{12}6x,{995}6,,,,,,,,,,,,,,,,,,,,,,,,,,,,,,,,,,,,,,,,,,,,,,,,,,,,,,,,,,,,,,,,,,,,,,,,,,,,,,,,,,,{12}6,2x,{995}2,,,,,,,,,,,,,,,,,,,,,,,,,,,,,,,,,,,,,,,,,,,,,,,,,,,,,,,,,,,,,,,,,,,,,,,,,,,,,,,,,,,{12}2,1x/5x,{995}1x/5x,,,,,,,,,,,,,,,,,,,,,,,,,,,,,,,,,,,,,,,,,,,,,,,,,,,,,,,,,,,,,,,,,,,,,,,,,,,,,,,,,,,{12}1x/5x,2b/6b,,,
{12}4hx[1883:412]/5hx[1883:412],,,{641}3x/6x,,,,,,,,,,,,,,,,,,,,{639}2x/7x,,,,,,,,,,,,,,,,,,,,{16}1hx[631:92]/8hx[621:97],,,{641}2x/7x,,,,,,,,,,,,,,,,,,,,{639}3x/6x,,,,,,,,,,,,,,,,,,,,{16}4hx[631:92]/5hx[631:92],,,{641}3x/6x,,,,,,,,,,,,,,,,,,,,{639}2x/7x,,,,,,,,,,,,,,,,,,,,{16}1hx[631:92]/8hx[621:97],,,
{641}2x/7x,,,,,,,,,,,,,,,,,,,,{639}3x/6x,,,,,,,,,,,,,,,,,,,,{16}4hx[631:92]/5hx[631:92],,,{641}3x/6x,,,,,,,,,,,,,,,,,,,,{639}2x/7x,,,,,,,,,,,,,,,,,,,,{16}1hx[631:92]/8hx[621:97],,,{641}2x/7x,,,,,,,,,,,,,,,,,,,,{639}3x/6x,,,,,,,,,,,,,,,,,,,,{16}4hx[631:92]/5hx[631:92],,,{641}3x/6x,,,,,,,,,,,,,,,,,,,,{639}2x/7x,,,,,,,,,,,,,,,,,,,,{16}1hx[631:92]/8hx[621:97],,,
{641}2x/7x,,,,,,,,,,,,,,,,,,,,{639}3x/6x,,,,,,,,,,,,,,,,,,,,{16}4hx[631:92]/5hx[631:92],,,{641}3x/6x,,,,,,,,,,,,,,,,,,,,{639}2x/7x,,,,,,,,,,,,,,,,,,,,{16}1hx[631:92]/8hx[621:97],,,{641}2x/7x,,,,,,,,,,,,,,,,,,,,{639}3x/6x,,,,,,,,,,,,,,,,,,,,{16}4hx[631:92]/5hx[631:92],,,{641}3x/6x,,,,,,,,,,,,,,,,,,,,{639}2x/7x,,,,,,,,,,,,,,,,,,,,{16}1hx[631:92]/8hx[621:97],,,
{641}2x/7x,,,,,,,,,,,,,,,,,,,,{639}3x/6x,,,,,,,,,,,,,,,,,,,,{16}4hx[631:92]/5hx[631:92],,,{641}3x/6x,,,,,,,,,,,,,,,,,,,,{639}2x/7x,,,,,,,,,,,,,,,,,,,,{16}1hx[631:92]/8hx[621:97],,,{641}2x/7x,,,,,,,,,,,,,,,,,,,,{639}3x/6x,,,,,,,,,,,,,,,,,,,,{16}4x/5x,,,2b/7b,,,,
{16}2hx[1883:412]/5hx[1883:412],,,,{641}3x/6x,,,,,,,,,,,,,,,,,,,,{639}4x/7x,,,,,,,,,,,,,,,,,,,,{16}5hx[621:97]/8hx[621:97],,,{641}4x/7x,,,,,,,,,,,,,,,,,,,,{639}3x/6x,,,,,,,,,,,,,,,,,,,,2x/5x,,,,,,,,,,,,,,,,,,,,{621}1hx[8:1]/4hx[8:1],,,,,,,,,,,,,,,,,,,,,,,,,,,,,,,,,,,,,,,,,,,,,,,,,,,,,,,,,,,,,,,,,,,,,,,,,,,,,,,,,,,,,,,,,,,,,,,,,{641}2x/5x,,,,,,,,,,,,,,,,,,,,{639}3x/6x,,,,,,,,,,,,,,,,,,,,4x/7x,,,,,,,,,,,,,,,,,,,,{621}5hx[8:1]/8hx[8:1],,,,,,,,,,,,,,,,,,,,,,,,,,,,,,,,,,,,,,,,,,,,,,,,,,,,,,,,,,,,,,,,,,,,,,,,,,,,,,,,,,,,,,,,,,,,,,,,,
{641}4x/7x,,,,,,,,,,,,,,,,,,,,{639}3x/6x,,,,,,,,,,,,,,,,,,,,2x/5x,,,,,,,,,,,,,,,,,,,,{621}1hx[8:1]/4hx[8:1],,,,,,,,,,,,,,,,,,,,,,,,,,,,,,,,,,,,,,,,,,,,,,,,,,,,,,,,,,,,,,,,,,,,,,,,,,,,,,,,,,,,,,,,,,,,,,,,,{641}2x/5x,,,,,,,,,,,,,,,,,,,,{639}3x/6x,,,,,,,,,,,,,,,,,,,,4x/7x,,,,,,,,,,,,,,,,,,,,{621}5hx[8:1]/8hx[8:1],,,,,,,,,,,,,,,,,,,,,,,,,,,,,,,,,,,,,,,,,,,,,,,,,,,,,,,,,,,,,,,,,,,,,,,,,,,,,,,,,,,,,,,,,,,,,,,,,{641}4x/7x,,,,,,,,,,,,,,,,,,,,{639}3x/6x,,,,,,,,,,,,,,,,,,,,2x/5x,,,,,,,,,,,,,,,,,,,,{621}1hx[8:1]/4hx[8:1],,,,,,,,,,,,,,,,,,,,,,,,,,,,,,,,,,,,,,,,,,,,,,,,,,,,,,,,,,,,,,,,,,,,,,,,,,,,,,,,,,,,,,,,,,,,,,,,,{641}2x/5x,,,,,,,,,,,,,,,,,,,,{639}3x/6x,,,,,,,,,,,,,,,,,,,,4x/7x,,,,,,,,,,,,,,,,,,,,{621}5hx[8:1]/8hx[8:1],,,,,,,,,,,,,,,,,,,,,,,,,,,,,,,,,,,,,,,,,,,,,,,,,,,,,,,,,,,,,,,,,,,,,,,,,,,,,,,,,,,,,,,,,,,,,,,,,
{641}4x/7x,,,,,,,,,,,,,,,,,,,,{639}3x/6x,,,,,,,,,,,,,,,,,,,,2x/5x,,,,,,,,,,,,,,,,,,,,{621}1hx[8:1]/4hx[8:1],,,,,,,,,,,,,,,,,,,,,,,,,,,,,,,,,,,,,,,,,,,,,,,,,,,,,,,,,,,,,,,,,,,,,,,,,,,,,,,,,,,,,,,,,,,,,,,,,{641}2x/5x,,,,,,,,,,,,,,,,,,,,{639}3x/6x,,,,,,,,,,,,,,,,,,,,4x/7x,,,,,,,,,,,,,,,,,,,,{621}5hx[8:1]/8hx[8:1],,,,,,,,,,,,,,,,,,,,,,,,,,,,,,,,,,,,,,,,,,,,,,,,,,,,,,,,,,,,,,,,,,,,,,,,,,,,,,,,,,,,,,,,,,,,,,,,,{641}4x/7x,,,,,,,,,,,,,,,,,,,,{639}3x/6x,,,,,,,,,,,,,,,,,,,,2x/5x,,,,,,,,,,,,,,,,,,,,{621}1hx[8:1]/4hx[8:1],,,,,,,,,,,,,,,,,,,,,,,,,,,,,,,,,,,,,,,,,,,,,,,,,,,,,,,,,,,,,,,,,,,,,,,,,,,,,,,,,,,,,,,,,,,,,,,,,{641}2x/5x,,,,,,,,,,,,,,,,,,,,{639}3x/6x,,,,,,,,,,,,,,,,,,,,4x/7x,,,,,,,,,,,,,,,,,,,,{621}5x/8x,,,,,,,,,,,,,,,,,,,,,,,,,,,,,,,,,,,,,,,,,,,,,,,,,,,,,,,,,,,,,,,,,,,,,,,,,,,,,,,,,,,,,,,,,,,,,,,,,
{12}2x,{995}2,,,,,,,,,,,,,,,,,,,,,,,,,,,,,,,,,,,,,,,,,,,,,,,,,,,,,,,,,,,,,,,,,,,,,,,,,,,,,,,,,,,{12}2,8x,{995}8,,,,,,,,,,,,,,,,,,,,,,,,,,,,,,,,,,,,,,,,,,,,,,,,,,,,,,,,,,,,,,,,,,,,,,,,,,,,,,,,,,,{12}8,3x/7x,{995}3x/7x,,,,,,,,,,,,,,,,,,,,,,,,,,,,,,,,,,,,,,,,,,,,,,,,,,,,,,,,,,,,,,,,,,,,,,,,,,,,,,,,,,,{12}3x/7x,2b/6b,,,
{16}4x/7x,,6,5,,4,5,,3/7,,8,,1/6,,2,,
{8}3h[4:1],2,4h[4:1],1,5h[4:1],8,6h[4:1],7,
{8}8>6[4:1],7,C1f,,1<3[4:1],2,C1f,,
{8}8>6[4:1],7,C1f,,8,,2b/6b,,
{16}1x/5x,,3,4,,5,4,,2/6,,1,,3/8,,7,,
{8}6h[4:1],7,5h[4:1],8,4h[4:1],1,3h[4:1],2,
{8}1<3[4:1],2,C1f,,8>6[4:1],7,C1f,,
{8}1<3[4:1],2,C1f,,{12}1,{995}1,,,,,,,,,,,,,,,,,,,,,,,,,,,,,,,,,,,,,,,,,,,,,,,,,,,,,,,,,,,,,,,,,,,,,,,,,,,,,,,,,,,{12}1,2b/8b,,,
{16}4x/8x,,6,5,,3,4,,2/7,,8,,1/6,,2,,
{8}3h[4:1],2,4h[4:1],1,5h[4:1],8,6h[4:1],7,
{8}8>6[4:1],7,C1f,7,1<3[4:1],2,C1f,2,
{8}8>6[4:1],7,C1f,7,8,,2b/6b,,
{16}1x/5x,,3^8[8:1],4,,6,6,,7,,6,,1/5,,6,,
{16}3x/7x,,6^1[8:1],5,,3,3,,2,,3,,4/8,,3,,
{12}2x/4x,{995}2/4,,,,,,,,,,,,,,,,,,,,,,,,,,,,,,,,,,,,,,,,,,,,,,,,,,,,,,,,,,,,,,,,,,,,,,,,,,,,,,,,,,,{12}2/4,C1f/B2/B3,,,5x/7x,{995}5/7,,,,,,,,,,,,,,,,,,,,,,,,,,,,,,,,,,,,,,,,,,,,,,,,,,,,,,,,,,,,,,,,,,,,,,,,,,,,,,,,,,,{12}5/7,C1f/B6/B7,,,
{12}1x/8x,{995}1/8,,,,,,,,,,,,,,,,,,,,,,,,,,,,,,,,,,,,,,,,,,,,,,,,,,,,,,,,,,,,,,,,,,,,,,,,,,,,,,,,,,,{12}1/8,3x/6x,{995}3/6,,,,,,,,,,,,,,,,,,,,,,,,,,,,,,,,,,,,,,,,,,,,,,,,,,,,,,,,,,,,,,,,,,,,,,,,,,,,,,,,,,,{12}3/6,4x/5x,{995}4/5,,,,,,,,,,,,,,,,,,,,,,,,,,,,,,,,,,,,,,,,,,,,,,,,,,,,,,,,,,,,,,,,,,,,,,,,,,,,,,,,,,,{12}4/5,2b/7b,
E

Re:MASTER


名前:
コメント:

タグ:

+ タグ編集
  • タグ:
最終更新:2022年10月01日 22:49