アットウィキロゴ

VSpook!

アーティスト s-don

BPM BASIC ADVANCED EXPERT MASTER Re:MASTER
155 6 8 12+ 14 -

EXPERT MASTER Re:MASTER
譜面制作者 ロシェ@ペンギン Redarrow VS 翠楼屋 -

BASIC


ADVANCED


EXPERT

(155){1},4w8[2:1],{8}1x/6x,,7/8,1x/6x,,7/8,1x/6x,,7/8,1x/6x,,7/8,1x-4[8:1]/6x-1[8:1],,,,8x/3x,,2/1,8x/3x,,2/1,8x/3x,,2/1,8x/3x,,2/1,8x-5[8:1]*-4[8:1]/3x,,,,{4}4x/5hx[4:7],E3,E2,E1,E8,E7,E6,E5,{8}4/5,4/5,4/3,4/3,{16}2,3,2,3,2,3,2,3,{4}2x,4/5,8-4[8:1],,

{8}1x/6hx[4:1],,3h[12:1],5h[12:1],4h[12:1],6h[12:1],5h[12:1],7h[12:1],6-3[8:1],6,7-2[8:1],7,1-4[8:1]*-5[8:1],,,,8x/3hx[4:1],,6h[12:1],4h[12:1],5h[12:1],3h[12:1],4h[12:1],2h[12:1],3-6[8:1],3,2-7[8:1],2,8w4[8:1],,,,3x/8x,1x/2x,3x/8x,,3h[12:1],7h[12:1],2h[12:1],6h[12:1],1-5[8:1],1,6-2[8:1],6,4-1[8:1]*-7[8:1],,,,8x/3hx[4:1],,5h[12:1],1h[12:1],6h[12:1],2h[12:1],7h[12:1],3h[12:1],{1}8-2-7-3-6-4[8:5],

{4}1x/8x,2/3,4/5,6/7,1/8,2/3,{16}4/5,,6,5,6,,3,4,{4}3-8[8:1],6-1[8:1],2-5[8:1],7-4[8:1],3-8[8:1],6-1[8:1],2-5[8:1],8z4[4:1],,1,7/8,5/6,3/4,1/2,{16}7/8,,6,5,6,5,6,,{8}3x/4x,3,2/3,2,1/2,1,8/1h[4:3],,{4}7pp4[8:3],,,3b/8b,

{8}5h[4:1],2,4h[4:1],7,6h[4:1],2,3h[4:1],7,6h[4:1],1,2h[4:1],8,7h[4:1],1,1,,2h[4:1],8,7h[4:1],1,3h[4:1],8,6h[4:1],1,2xpp5[4:1],,,,8x-4[8:1],,,,5h[4:1],2,4h[4:1],7,6h[4:1],2,3h[4:1],7,6h[4:1],1,2h[4:1],8,7h[4:1],1,1,,{8}1hx[16:3]/2hx[16:3],,,3/8,3-1[8:1]/8-4[8:1],,,,E1,E2,E3,E4,E5,,1b/6b,,

{4}8x/B4,1x/B5,7x/B3,2x/B6,8z4[4:1]/C,,,{8},1x,{4}1h[8:1],2h[8:1]/4h[8:1],7h[8:1]/5h[8:1],8-2v3-5[2:1]/2h[8:1],,,,{8}3x/6x,3x/6x,{4}Chf[1:1]/B4,B3,B2,B1,{8}8x,,,1x/7x,,{16}2x/6x,,,4/5,,4/5,{4}3hx[8:1]/6hx[8:1],4h[8:1]/7h[8:1],5h[8:1]/8h[8:1],1h[8:1]/6h[8:1],2V48-6[2:1]/7V51-3[2:1],,,,

(157){8}4x/5x,4/5,3/5,3/5,(160)2/5,2/5,1/5,1/5,8h[2:1]/5,,1,1,1-4[8:1]*-5[8:1],,,,(163)5x/4x,5/4,6/4,6/4,(167)7/4,7/4,8/4,8/4,1h[2:1]/4,,8,8,8-5[8:1]*-4[8:1],,,,(172)6x,6,3x,3,7x,7,2x,2,(180)4x/3x,4/3,4x/3x,4/3,5x/6x,5/6,5x/6x,5/6,7x/8x,,1x/3x,1x/3x,,6x/8x,6x/8x,,1b/2b,,7b/8b-4[8:1],,4b,,,,{1}Cf/B1/B2/B3/B4/B5/B6/B7/B8,,{4}3/5,4/6,2/5,4/7,{8}1x/5x,1x/5x,1x/5x,1x/5x,1x-4[8:1]*-6[8:1]/5x,,,,

{8}3x/8x,,2h[16:1],3h[16:1],1h[16:1],4h[16:1],8h[16:1],5h[16:1],{16}7,6,7,6,7,6,7,6,{2}7-4[8:1]*-5[8:1],{8}6x/1x,,7h[16:1],6h[16:1],8h[16:1],5h[16:1],1h[16:1],4h[16:1],{16}2,3,2,3,2,3,2,3,{2}2-5[8:1]*-4[8:1],{8}1x/6x,7x/8x,1x/6x,,2h[16:1],4h[16:1],5h[16:1],7h[16:1],{16}8,7,8,7,8,7,8,7,{2}8-5[8:1]*-4[8:1],{8}8x/3x,,7h[16:1],5h[16:1],4h[16:1],2h[16:1],{16}1,2,1,2,{4}1x,4x/E8,3x/E7,2x/E6,

{4}1hx[4:1]/E5,2h[4:1],3h[4:1],4h[4:1],5h[4:1],6h[4:1],{2}7-4[8:1]*-5[8:1],3x-8[8:1],5h[4:1]/4-1[8:1],6h[4:1]/5-2[8:1],{4}6/7,1b/8b,4x/5x,2h[4:1],3h[4:1],4h[4:1],5h[4:1],6h[4:1],7h[4:1],8h[4:1],{8}1,2,3,4,5,6,7,8,1/2,1/2,3/4,3/4,{16}5,4,5,4,5,4,5,4,{2}5-8[4:1],4-1[4:1],5-8[4:1],4-1[4:1],{4}5,5/8,5/8,5/8,{8}5x/8x,5x/8x,5x/8x,5x/8x,5x/8x,,3/6,,

{8}2h[4:1],1,7h[4:1],8,3h[4:1],1,6h[4:1],8,4h[4:1],1,5h[4:1],8,2>5[8:1],1x,8x,,7-3[8:1],7,4-8[8:1],4,1-4[8:1]*-6[8:1],,,,{2}5-1[8:1]/7-3[8:1],7-4[8:1]/2-5[8:1],{8}7h[4:1],8,2h[4:1],1,6h[4:1],8,3h[4:1],1,5h[4:1],8,4h[4:1],1,7<4[8:1],8x,1x,,{16}2hx[16:3],,,3,,,4/5,,7hx[16:3],,,6,,,5/4,,{8}E3,E4,E5,E6,E7,,A5/A4/D5/B5/B4,,

{16}3/8,,2,1,2,,3/8q5[8:1],,3h[4:1]/8,,,,,,,,6/1,,7,8,7,,6/1p4[8:1],,6h[4:1]/1,,,,,,,,{8}2,1,8,7,6-1[8:1],5,4,,B2/B3,B7/B6,B4/B5,,1/8,,2/7,,2x-6[8:1],2,8-4[8:1],8,3-8[8:1]*-6[8:1],,,,7x-3[8:1],7,5-1[8:1],5,7-4[8:1]*-2[8:1],,,,3-8[8:1]/5-8[8:1],,,,{16}8x,1,8,1,8,1,8,,{24}1x,2x,3x,4x,5x,6x,7x,8x,1x,2x,3x,4x,{4}5x,A5/A4/D5/B5/B4,

{8}1x/6x,,7/8,1x/6x,,8/1,2x/7x,,1/2,3x/8x,,2/3,1hx[4:1]/4x-8[8:1],,,,8x/3x,,2/1,8x/3x,,1/8,7x/2x,,8/7,6x/1x,,7/6,8hx[4:1]/5x-1[8:1],,,,{4}7hx[4:7]/2x,E6,E4,E7,E3,E8,E2,E5,{16}6,5,6,5,6,5,6,5,7,4,7,4,7,4,7,4,{8}8x,8x,1x/7x,1x/7x,2xz6[4:1]/6x,E

MASTER

(155)
{1}Chf[4:3],
{8}8b/2bV48[4:1],,1,1-5-7[4:1],,2,2V48[4:1],,1,1-5-7[4:1],,2,2-4[8:1]*-8[8:1],,2,,
1b/7bV51[4:1],,8,8-4-2[4:1],,7,7V51[4:1],,8,8-4-2[4:1],,7,7-1[8:1]*-5[8:1],,7,,
3x/4x,3,24,2,14,1,48,8,75,7,65,6,45,4,36,36,
{16}4,5,4,5,{24}4,5,4,5,4,5,4,5,4,5,4,5,
{4}4-1[8:1],5hbx[8:1]/4bx-7[8:1],3hbx[8:1]/4bxw8[8:1],4bx,26,

1hx[8:1]/8hx[8:1],
{24}7,,4,6,,3,5,,2,4,,3,5,,4,6,,5,7h[8:1],,,4h[8:1],,,1,,2,{8}8,3^6[8:1]/7p2[8:1],C,,,1x/8x,,
{24}2,,5,3,,6,4,,7,5,,6,4,,5,3,,4,2,,5,3,,7,1,,6,2,,8,1v4[8:1]*v6[8:1],,B8,{8}B2,,,6x/4x,6x/3x,
{24}6x/2x,,1,7,,2,8,,3,1,,2,8,,1,7,,8,6h[8:1],,,1h[8:1],,,4,,3,{8}5,2^7[8:1]/6q3[8:1],C,,,4bx/5bx,,
{24}3,,8,2,,7,1,,6,8,,7,1,,8,2,,1,{8}3-8[8:1],4,5-8[8:1],6,1-5[8:1],2,7,6,2bx/8bx,,

{24}1hx[8:1]/8,7,6,,,,1hx[8:1]/2,3,4,,,,1hx[8:1]/8,7,6,,,,1hx[8:1]/3,4,5,,,,1hx[8:1]/7,6,5,,,,
1s5^2[8:3]*z5^8[8:3]/3,4,5,,,,{8},,,,C/B4/B7,,12,3,28,7,
{24}8hx[8:1]/1,2,3,,,,8hx[8:1]/7,6,5,,,,8xw4[8:1]/1,2,3,,,,{4}8x,2bx/6bx,
3h[8:1]/4hxb[8:1],6h[8:1]/4hxb[8:1],2h[8:1]/4hxb[8:1],7h[8:1]/4hxb[8:1],1h[8:1]/4hxb[8:1],
4bx-1[8:1]/8bz4[8:1],,{8}2,35,7,46,2,35,2V83[8:3]/6V47[8:3],26,,,,,5v2b[8:1]*-8b[8:1],46,5b,,

{24}3V17[8:1]/7,,,4,,5,3,,,6,,,5-1[8:1]/8,,,1,,,35,,,4,,,
3V17[8:1]/7,,,4,,5,3,,,6,5,4,3,,,8,,,17,,,6,,,
1-5[8:1]/5,,,2,,4,1^6[8:1],,,7,,,3-6[8:1]/1,,,2,,,38,,,7,,,
{16}6bx/8bx,,,1bx/3bx,,,{8}4bxv2[8:1]/5bxv7[8:1],2bxv3[8:1]/7bxv6[8:1],,,,
{24}5V71[8:1]/1,,,4,,3,5,,,2,,,4-8[8:1]/1x,,,8,,,46,,,5,,,
6V82[8:1]/2,,,5,,4,6,,,3,4,5,6,,,1,,,28,,,46,,,
{8}3hbx[4:1]/7hbx[4:1],,,{24}37,26,15,{2}4bxV68b[8:1]/8bxV24b[8:1],Ch[2:1],{8}8x,1x,2b/7b,,

3h[4:1],,4,5,6h[4:1],4,{4}5<4[8:4],8xz4[4:1],,,4x/5x,
{8}6h[4:1],,5,4,3h[4:1],2,{4}1V72-6-3-5[8:5],4h[4:3],,,
{8}5x,5x,2h[4:1],,3,4,5h[4:1],6,7pp4^1[4:3],,,,,6xp1[8:1],,,,,
7h[4:1],,6,5,4h[4:1],3,2p7[2:1],,,,E4,E5,E6,,1x/8x,,

2-6[8:1],2,3,4,5-1[8:1],5,6,7,
(160)8-4[8:1],8,1,2,3-8[8:1]*-6[8:1],3,,,
(165)7-3[8:1],7,6,5,4-8[8:1],4,3,2,
(170)1-5[8:1],1,8,7,{16}E7,E8,E1,E2,E3,E4,E5,,
(172){8}1x-5[8:1],1,2-6[8:1],2,(174)3-7[8:1],3,4-8[8:1],4,
(176)5-1[8:1],5,6-2[8:1],6,(178)7-3[8:1],7,8,8,
(180)1bx,1,{16}2bx,8,2bx,8,3,7,3bx,7,4bx,6,4,6,
{32}4bx,3,2,1,8,7,6,5,4bxw8[8:1],3,2,1,8,7,6,5,
4bx,B4,Cf,B8,,,,,{4},
{1}1s5[4:5]/8h[16:15],,
{8}2b/6bx,3,3bx/7b,6,2b/6bx,4,3bx/7b,5,
1b/8bx,3bx/6b,2bV41[4:1]/7bxV58[4:1],4bx/5b,{2}2b/7bx,

{8}2hbx[4:1]/7b,,8,47,{16}6^1[8:1],5,,5,6-4[8:1],,3,,6,,2,,8,,38,,
2-4[8:1],1,,1,2,,8,,2b/6hbx[4:1],,,,4,,35,,
2^5[8:1],1,,1,2,,7,,7,5,,5,6,4h[16:3],,5,5,,2,1,2,,
28,,3bx/7b,,4b/6bx,,2bhx[4:1]/8b,,,,
4^7[8:1],3,,3,4-1[8:1],,2,,8,,7,,26,,35,,
6-8[8:1],5,,5,6-3[8:1],,1,,2hbx[4:1]/6,,,,
1,2,1,2,5,4,5,4,7,8,7,8,{4}6-1[8:1],4-1[8:1]/6,8-4[8:1]/4,28,1b/7b,
{32}1hx[8:1]/8,7,6,,,,,,1hx[8:1]/2,3,4,,,,,,1hx[8:1]/7,6,5,,,,,,1hx[8:1]/3,4,5,,,,,,1hx[8:1]/7,6,5,,,,,,
1xs5^4-2[8:3]*z5^6-8[8:3]/4,5,6,,,,,,{4},,C/B4/B5/B6/B7/E6,{8}12,3,28,7,
{32}8hx[8:1]/1,2,3,,,,,,8hx[8:1]/7,6,5,,,,,,8xw4[8:1]/2,3,4,,,,,,{4}8x,2b/6b,
3h[8:1]/4hbx[8:1],4hbx[8:1]/6h[8:1],2h[8:1]/4hbx[8:1],4hbx[8:1]/7h[8:1],1h[8:1]/4hbx[8:1],
4bxw8[8:1]/8b,,{8}26,2,35,3,46,6,37,3,24,35,46,57,{16}8,4,8,4,8,4,8,4,
{2}7b/C/B3f/A3,5b/C/B1f/A1,3b/C/B7f/A7,1b/C/B5f/A5,
{8}17,6,28,3,17,5,28,4,1b/8b,3b/6b,2b-5^3-1[16:5]/7b-4^6-8[16:5],4b/5b,{2}2b/7b,

{16}2b/7b,,3,4,2,1,3,8,2h[8:1],,7,1,6,2,5,3,6h[8:1],,5,7,4,8,2,1,3-8[8:1],,4,,5,,6,,71,,
3,4,2-6[8:1],5,1,8,2^5[8:1],,5,,2,,6,,7b/8b,,,1b/2b,,,4b-8-6[4:1]/5b-1-3[4:1],,{2}3b/6b,
{16}4bx/5bx,,6,5,7,8,6,1,7h[8:1],,2,8,3,7,4,6,3h[8:1],,4,2,5,1,7,8,6-1[8:1],,5,,4,,3,,28,,
7,5,,3,4,,45,,6,57,,3,24,,{2}1b/5b,{32}1-5[8:1]/8-4[8:1],27,36,45,,,,,{4}1b/8b,
{16}2b/7b,,3,4,2-5[16:1],1,3,8,2,,7,8,6-1[16:1],3,5,4,6,,2,8,3-8[16:1],6,4,7,3,,4,,15,,26,,35,,
6,5,7-3[8:1],4,8-4[8:1],1,7-5[8:1],,8,,{4}7>3[16:5]*V13[16:5],,,{8}5-1[8:1]/6-1[8:1],56,5b/6b,,
{16}2bx/8bx,,3,5,4,7,5,6,1b,,2x,24,,6x,56,,3x/7x,,12,12,,78,78,,1b/6b,,2,,E6,B5,E3,B3,
8b,,7,75,,2,24,,1b,8,1,8,2,7,3,6,{8}4b/5b,3b/6b,1b-5[8:1]/8b-4[8:1],2b/7b,1b/8b,,3b/6b,,

7bV51[4:1]/2b,,8,8-4-2[4:1],,6,6V47[4:1],,8,8-3-1[4:1],,4,4-6[8:1]*-8[8:1],,4,,
2bV48[4:1]/7b,,1,1-5-7[4:1],,3,3V52[4:1],,1,1-6-8[4:1],,5,5-3[8:1]*-1[8:1],,5,,
{8}2x/8,2,3,3,4,4,5,5,46,3,25,6,73,2,18,18,
{16}2,3,4,5,8,7,6,5,{32}1b/4x,2,3,4,5,6,7,8,1b/5x,2,3,4,5,6,7,8,
{8}1b/6x,3b,5b-1-4-2[8:3]/7b^6V85[8:3],4b/8b,{1}5b/7b,,,,E

Re:MASTER


  • EXPERT譜面を追加しました。修正等ありましたらよろしくお願いします。 -- Sugar (2026-04-20 22:47:23)
名前:
コメント:

タグ:

+ タグ編集
  • タグ:
最終更新:2026年10月27日 23:23