BASIC
ADVANCED
EXPERT
MASTER
(172){32}6,5,4h[16:15],,{8},{4},,,
{24}A5,D6,A6,D7,,,A3,D3,A2,D2,,,E5,B5,B6,E7,,,E4,B3,B2,E2,,,
{16}7xb/8xb,,,,16,25,3h[4:1]/4,,,,1h[8:1],,2,8,3,7,
4b/6b,,,,5,46,3/7h[4:1],,,,2h[8:1], ,8,3,8,3,
1b/2b,,,,38,47,5/6h[4:1],,,,8h[8:1],,7,1,6,2,
3b/5b,,,,4,35,2h[4:1]/6,,,,{8}1,4v1[8:1]/8v5[8:1],,
{1}4xbqq6[2:1]/8xbqq2[2:1]`Cf,
{8}78,1,28,3,4h[4:1]/1,{24}A8,D8,A7,{8}D7,4,
13,8,71,6,5h[4:1]/8,{24}A1,D2,A2,{8}D3,6,
78,1,26,3,4-8[8:1]/5-1[8:1],,4b/5b,,
{16}5h[8:1]/7h[8:1],,,6h[8:1]/8h[8:1],,,1h[8:1]/7h[8:1],,,2h[8:1]/8h[8:1],,,13,,13,,
2h[8:1]/4h[8:1],,,1h[8:1]/3h[8:1],,,2h[8:1]/8h[8:1],,,1h[8:1]/7h[8:1],,,68,,68,,
3x,4,3,6x,5,6,2x,4,2,7x,5,7,2x,5,4,7,
1x,8,1,8x,1,8,1x,8,{24}2x,3,4,8,7,6,1,2,3,7,6,5,
{4}4b/8b,,A4/A5,{16}B3,B4,B5,,{8},A1,A2,A3,
A4/B4,,A5,A6,A7,A8,A1/B1,,A7/B7,,A3/B3,,
A5/B5,,A4,A3,A2,A1,{16}B6,B5,B4,,{8},A7,A8,A1,
A2/B2,,A7,A6,A5,A4,A3,{24}E6,B5,B4,E4,,,{8},E3/E7,,
3V15[4:1]/7,,8x,8,7x,6,5V73[4:1]/4,,1x,1,{16}8x,1,2,3,
{8}4/7V15[4:1],,3x,4,3x,2,1-6[8:1]/4-7[8:1],,1x/4x,,8x/5x,,
7V16-2[8:3]/4,,3x,3,4x,4,
{24}3V14-8[8:3]/1,8,7,,,,{8}5x,5,6x,6,
7V16-2[8:3]/3,,3x,3,4x,4,
13,{24}2,3,4,5x,,,{8}8,7x,3h[8:1]/6h[8:1],,,
{16}1b-3[8:1]/8b,,7,7,1-5[8:1],6,,6,1-3[8:1],,7,,1-5[8:1]/8,,7,,
1-3[8:1]/6,,7,7,1-5[8:1],6,,6,1,,8,,27,,,,
8b-6[8:1]/1b,,2,2,8-4[8:1],3,,3,8-6[8:1],,2,,8-4[8:1]/1,,2,,
8-6[8:1]/3,,2,2,8-4[8:1],3,,3,8,,1,,2b/6b,,,,
1x/8x,,2,2h[8:1],,3,3h[8:1],,4,4h[8:1],,5,5h[8:1],,7,,
1x/8x,,7,7h[8:1],,6,6h[8:1],,5,5h[8:1],,4,4h[8:1],,2,,
1x/8x,,2,2h[8:1],,4,4h[8:1],,6,6h[8:1],,8,8h[8:1],,1,,
3,4,2,5,1,6,8,7,{32}1,2,3,4,5,6,7,8,1,2,3,4,5,6,7,8,
{1}1xpp4[2:1]/5xpp8[2:1],
{24}3,,,6,5,4,3,,,6,5,4,3,,,6,5,4,3,,,6,5,4,
{4}3b<1[2:3]/Cf,,,,
D5,D6,D7,D8,
1p4[4:5],,,A7,
A6,,,,
6>8[2:3],,,,
D5,D4,D3,D2,
8-4qq3[2:3]*-4pp5[2:3],,,A8,C,,,,
{12}1h[6:1]/6,,6,2h[6:1]/7,,7,1h[6:1]/8,,8,2h[6:1]/7,,7,
3h[6:1]/6,,6,4h[6:1]/7,,7,3h[6:1]/8,,8,4h[6:1]/1,,1,
5h[4:1]/8h[4:1],,,,,4,6,3,5,2,,1,
1h[4:1]/4h[4:1],,,,,,2,4,3,7,8,6,
5h[6:1]/2,,2,4h[6:1]/1,,1,3h[6:1]/8,,8,4h[6:1]/1,,1,
5h[6:1]/2,,2,6h[6:1]/3,,3,7h[6:1]/4,,4,58,,,
{24}6b,5,6,5,6,5,6,5,6,5,6,5,6,,,,4x/5x,,,,4x/5x,,,,
3b,4,3,4,3,4,3,4,3,4,3,4,3,,,,4x/5x,,,,4x/5x,,,,
7b,5,7,5,7,5,7,,,,4x/5x,,2b,4,2,4,2,4,2,,,,4x/5x,,
{4}3V58[4:1]/6V41[4:1],,,27,
{16}6x/8x,,4-8[8:1],5,2,2,4,,{24}1x<6[8:1],2,3,{16}4,1-5[8:1],,,1,,
8,,6,4,5,5,3,,{24}4-1[8:1]/2,5,6,{16}7,4,,,8,,
3x/7x,,8-4[8:1],1,6,6,8,,{24}5,6,7,{16}8,{24}5-8[8:1],4,3,{16}2,5,,
{4}1b,{12}2x/6x,37,48,{8}5h[48:7]/1h[48:7],{32},4x/8x,37,26,{4}1x/5x,
{16}1x,4,3,7x,5,6,2x,4,3,8x,5,6,4x,,2x/5x,,
8x,5,6,2x,4,3,7x,5,6,1x,4,3,5x,,4x/7x,,
2xb/6xb,,8-4[8:1],1,6,6,8,,{24}5x>2[8:1],6,7,{16}8,5-8[8:1],,,5,,
{4}1b,{12}4-6[8:1]/7-5[8:1],38,12,{4}4x/7x,3b/8b,
{16}2x,1,3,7x,8,6,4,5,4h[8:1]/6h[8:1],,,1h[8:1]/3h[8:1],,,68,,
7x,8,6,2x,1,3,5,4,5h[8:1]/3h[8:1],,,8h[8:1]/6h[8:1],,,31,,
{4}4-1[8:1]/5-8[8:1],4b/5b`Cf,{16}7,8,,2,1,,35,,
{4}46,{12}3x/7x,26,15,{8}4h[48:7]/8h[48:7],{32},5x/1x,62,73,{4}8x/4x,
{16}7x,8,6,2x,1,3,5,4,7,8,7,8,61,,61,,2x,1,3,7x,8,6,4,5,2,1,2,1,38,,47,,
5x/6x,,1-5[8:1],8,3,3,1,,{24}4x<7[8:1],3,2,{16}1,4-1[8:1],,,4,,
{4}8b,{12}5-3[8:1]/2-4[8:1],61,87,{4}5x/2x,6b/1b,
{16}3x/4x,,7-4[8:1],8,7,6,7,,2-5[8:1],1,2,3,2,,6,,
4,8,3,7,2,6,1,5,{32}4x/8x,7,6,5,4,3,2,1,8x,7,6,5,4,3,2,1,
{1}8bw4[2:1]/7b,
{4},{12}B6,B5,B3,{4}B4,D3/D7,
{16}2b/7b,,8,8-4-8[16:5],,1,,2,2-6-2[4:1],,A4f,,,,A6f,,
8b,,7,7-3-7[16:5],,8,,1,1-5-1[4:1],,A3f,,,,A5f,,
7b,,8,8-4-8[16:5],,1,,2,2-6-2[4:1],,A4f,,,,A6f,,
8b,,6,5,,2,4,3,5,5,,46,,7,8,7,
1b/6b,,2,2-6-2[16:5],,1,,8,8-4-8[4:1],,A6f,,,,A4f,,
2b,,1,1-5-1[16:5],,8,,7,7-3-7[4:1],,A5f,,,,A3f,,
1b,,2,2-6-2[16:5],,1,,8,8-4-8[4:1],,A6f,,,,A4f,,
2b,,1,1,,7,8,6,6>3[8:1],,,,1,,,,
{8}2b/5b,36,47,58,{16}5,7,4,6,3,5,2,4,
{24}1x,3,1,3,1,3,8x,6,8,6,8,6,{4}1xw5[8:1],1,
8b/2b,{8}57,6,45,3,{16}2,1,,1,
28,,,,3,5,4,,6,5,,8,17,,,,
26,,,,7,5,6,,45,,3,,2,1,2,1,
{8}3x>8[8:1],4,5,6x>3[8:1],7,8,1hx[4:1],,
8,2b-5>1[8:3]/7b-4<8[8:3],,,,,,,
78,1,28,3,4h[4:1]/1,{24}A8,D8,A7,{8}D7,4,
13,8,71,6,5h[4:1]/8,{24}A1,D2,A2,{8}D3,6,
78,1,25,3,{16}6,5,,3,2b/4b,,,,
7x,8,6,2x,1,3,7x,5,6,2x,4,3,2hx[8:1]/5h[8:1],,,,
2x,1,3,7x,8,6,2x,4,3,7x,5,6,7hx[8:1]/4h[8:1],,,,
1x,4,3,8x,6,7,3x,4,2,6,5,7,8hx[8:1]/4h[8:1],,,,
3,7,2,6,1,5,8,4,7h[8:1]/3hx[8:1],,,1h[8:1]/5hx[8:1],,,3b/7b,,
6,2,7,3,8,4,1,5,2h[8:1]/6hx[8:1],,,8h[8:1]/4hx[8:1],,,2b/6b,,
3,7,2,6,1,5,8,4,7,3,7,3,7,3,7,3,
{32}8b/4xbh[2:1],1,2,3,,5,6,7,{48}8x,1,2,3,,5,6,7,8,1,2,3,B4,Cf,B8,{16},,,
1-5[8:1],7,3,5,1,,,,E
Re:MASTER
- ラストの回転のリズムを修正しました。 -- chika (2022-12-01 23:41:55)
- 配置ミス、HOLDの終点、スライドの速さを修正しました。 -- けもがみ (2026-01-11 18:05:50)
最終更新:2026年04月05日 14:00