アットウィキロゴ

エナドリおいしいソング

アーティスト 冥堂院・アレクサンドル・ヴィクトリア・リヒテンシュタイン・聖斗 feat.TINOP

BPM BASIC ADVANCED EXPERT MASTER Re:MASTER
140 5 8+ 12+ 13+ -

EXPERT MASTER Re:MASTER
譜面制作者 翠楼屋 はっぴー -

BASIC


ADVANCED


EXPERT

(140)
{4},,,
{8}5bx/4bx,54,43,43,54,54,6x/3x,, 74,74,63,63,52,52,41,,
{8}5bx/2bx,52,6x/3x,63,7bx/4bx,74,85,, {12}4x,4x,4x,6x,6x,6x, 3x,3x,3x,3x/4x,,,
{8}53,53,64,64,53,62,71,, 82,82,71,71,82,73,64,,
{12}5x,5x,5x,6bx/4bx,,, 3x,3x,3x,4bx/2bx,,, {8}5xh[16:1]/3xh[16:1],5xh[16:1]/3xh[16:1],6xh[16:1]/4xh[16:1],6xh[16:1]/4xh[16:1],5xh[16:1]/3xh[16:1],6xh[16:1]/2xh[16:1],7xh[16:1]/1xh[16:1],7xh[16:1]/1xh[16:1],

{1}7bx/1bxpp5[4:7],,
{1}6h[1:1],7h[1:1],
{1}8z4[4:3],3z7[4:3],
{1}6z2[4:3], {2}1h[4:3],8h[4:1],
{8}7bxh[2:1]/2bx,,,5,5,,,, {4}B6,B5,B4/B3,,
{8}5/2h[2:1],,,4,4,,3,, {16}42,,,53,,,64,, {4}64,73,
{8}8h[2:1]/2,,,5,5,,6,, {16}75,,,64,,,53,, {4}53,42,
{8}5/1h[2:1],,,4,4,,53,, {16}5,,,64,,,73,, {4}73,64,

||soflan: continuous +4.375bpm per beat, for 32 beats
{4}
(142.176281343158)5h[148.578272774815# 1:1],
(146.551616268841)4,
(150.926931775184)4,
(155.302229503618)4,
(159.677510915638)3h[166.096377668023# 1:1],
(164.052777316832)4,
(168.428029877077)4,
(172.803269647778)4,
(177.178497576478)5h[183.611027026999# 1:1],
(181.553714519351)4,
(185.928921251978)4,
(190.304118478644)4,
(194.679306840271)63,
(199.054486921438)63,
(203.429659256456)72,
(207.804824334601)72,

(212.179982604803)1xh[4:1],
(216.555134479727)2h[4:1],
(220.930280339317)3h[4:1],
(225.305420534029)4h[4:1],
(229.680555387580)5xh[4:1],
(234.055685199518)6h[4:1],
(238.430810247399)7h[4:1],
(242.805930788747)8h[4:1],
(247.181047062879)1xh[4:1],
(251.556159292440)2h[4:1],
(255.931267684850)3xh[4:1],
(260.306372433637)4h[4:1],
(264.681473719432)5xh[4:1],
(269.056571711223)6xh[4:1],
(273.431666567112)7xh[4:1],
(277.806758435259)8x,

||soflan stops
(280)
{1}6bx/1bx,
{4}7-5[8:1],1-3[8:1],8,8, 2-4[8:1],8-6[8:1],1,1pp6[1:1],
{4},,,, ,,8,71,
{4}2-4[8:1],8-6[8:1],1,1, 7-5[8:1],1-3[8:1],8,8qq3[1:1],
{4},,,, ,,1,71,
{4}2-4[8:1],8-5[8:1],1,2, 7-5[8:1],1-4[8:1],8,7,
{4}2-4[8:1],8-5[8:1],1,2, 43,43,65,74,
{4}2-4[8:1],8-6[8:1],1,2, 7-5[8:1],1-3[8:1],8,7,
{4}2-4[8:1],8-5[8:1],1,2, 43,43,6b/2b,,

{6}7h[6:2],,5,5h[6:2],,4, 4h[6:2],,2,2h[6:2],,4,
{6}4h[6:2],,5,5h[6:2],,7, 7-4[4:1],,,2-5[4:1],,,
{6}6h[6:2],,8,8h[6:2],,1, 1h[6:2],,3,3h[6:2],,1,
{6}1h[6:2],,8,8h[6:2],,6, 6-1[4:1],,,3-8[4:1],,,
{6}7h[6:2],,5,5h[6:2],,6, 6,,74,7h[2:1]/4,,,
{6}1h[6:2],,4,4h[6:2],,3, 3,,62,6/2h[2:1],,,
{6}4,4,4,53,,, 1,1,1,82,,,
{8}1,8,1,8,1,8,1,8, 1b,,7b/2b,,6b/3b,,,,

{4}65,65,82,82, 43,71,65,82,
{4}43,75,81,42, 65,78,62,62,
{4}53,53,87,87, 53,87,53,87,
{4}53,12,64,7-5[8:1], 1-3[8:1],8-4[8:1],1b,1b,
{4}42,42,78,78, 42,78,42,78,
{4}65,12,67,43, 78,23,65,65,
{4}74,12,43,61, 75,12,53,81,
{4}65,32,68,12, 53,68,13,75,
{1}8h[1:2]/4, ,
{4},, {12}1bx,8bx,1bx,8bxh[4:1],,, 1bx,2bx,3bx,4bx,5bx,6bx, 7bx,8bx,1bx,C/2bx,,,

MASTER

(140)
{4}4^1[4:1],,,
{8}18,18,67,67,35,35,{12}4x,4x,4x,{8}56,56,34,34,{16}25,25,25,,{12}1x,1x,1x,
{8}78,78,{16}56,56,56,,4b/7b,4b/7b,4b/7b,,{12}3x,3,3,5x,5,5,4x,4,4,
{8}3h[16:1]/5h[16:1],3h[16:1]/5h[16:1],{16}26,26,26,,{8}17,8,18,18,
{16}2x/7x,2x/7x,2x/7x,2x/7x,{8}2x/7x,,78,56,34,12,
{12}7-5[8:1]/8-4[8:1],16,16,,,,2-4[8:1]/1-5[8:1],83,83,,,,7-5[8:1]/8-4[8:1],16,16,,,,
{16}4,4,6,6,2,2,8,8,{32}1,2,3,4,5,6,7,8,1pp4[1:3]*qq6[1:3],2,3,4,5,6,7,8,{1}1b,,,,

{4}6h[1:1],,E4,E5,5h[1:1],,E6,E5,4h[1:1],,E5,E4,3h[2:1],,E5,,
{8}5<1[4:5],,,4h[8:3],,,,,{4}5,5,5,,{8}4>8[4:5],,,5h[8:3],,,,,{16}4,,,5,,,6,,{2}6,
{8}5<1[4:5],,,4h[8:3],,,,,{16}5,,,4,,,3,,{2}3,{8}4>8[4:5],,,5h[8:3],,,,,{16}4,,,5,,,6,,{2}6,

(144){4}1b^4[4:1],4^7[4:1],(150)7^2[4:1],(155)2^5[4:1],
(160)5b^8[4:1],(170)8^3[4:1],(172)3^6[4:1],6^1[4:1],
(174)1b^4[4:1],(183)4^7[4:1],(187)7^2[4:1],2^5[4:1],
(191)5b^8[4:1],(200)8^3[4:1],(210)3^6[4:1],6^1[4:1],
1b^4[4:1],4^7[4:1],(226)7b^2[4:1],2^5[4:1],
(230)5b^8[4:1],8^3[4:1],(238)3b^6[4:1],(240)6^1[4:1],
(250)1b^4[4:1],(254)4b^7[4:1],7b^2[4:1],(260)2b^5[4:1],
(266)5b^8[4:1],(270)8b^3[4:1],(274)3b^6[4:1],(280)6bq8b[8:4],Cf,,,

1-5[8:1],8-4[8:1],2-6[8:1],7-3[8:1],1-4[8:1],8-5[8:1],2-7[8:1],6-3[8:1],
{8}2,2,{4}2h[4:1],4h[4:1],5h[4:1],7h[4:1],{8}1,1,6,6,{4}2h[4:1],
8-4[8:1],1-5[8:1],7-3[8:1],2-6[8:1],8-5[8:1],1-4[8:1],7-2[8:1],3-6[8:1],
{8}7,7,{4}7h[4:1],5h[4:1],4h[4:1],2h[4:1],{8}8,8,3,3,{4}7h[4:1],
1-5[8:1],8-4[8:1],2-6[8:1],7-3[8:1],1-4[8:1],8-5[8:1],2-6[8:1],7,{8}8,8,
{4}1-5[8:1],7-3[8:1],2-6[8:1],8-5[8:1],1-4[8:1],7-3[8:1],{8}1,1,2,2,
{4}8-4[8:1],2-6[8:1],7-3[8:1],1-4[8:1],8-5[8:1],2-6[8:1],{8}7,7,1,1,18,,7,7,2,2,8,8,4,4,6,6,

{6}5/3x,2x,1x,1V35[2:1],,6,6,6,6,56,56,56,56,{12}6,5,7,,
{6}8V64[2:1],,3,3,3,3,{12}3,4,3,,3,4,3,,3,4,2,,
{6}1V35[2:1],,6,6,6,6,56,56,56,56,{12}6,5,7,,
{12}3,,3,4,2,,3,,3,4,2,,6,,6,5,7,,6,,6,5,7,,
{6}8V64[2:1],,3,3,3,3,34,34,34,2b/5b,,,
1V35[2:1],,6,6,6,6,56,56,56,4b/7b,,,
6^1[4:1],6,4,4,,,3^8[4:1],3,5,5,,,{8}6,6,6,6,3,3,7,7,
{16}1x,8x,1x,8x,1x,8x,1x,8x,1x,8x,1x,8x,1x,8x,1x,8x,{4}1bx,

{16}7x,6,5,4,8x,7,6,5,{8}4,8,8,,1,{16}7,6,5,,2,3,4,,{8}8,8,,
{16}2x,3,4,5,1x,2,3,4,{8}5,1,1-5[8:1],,7,,{16}8x,7,6,5,1x,2,3,4,{4}7b,
{16}2x,3,4,5,1x,2,3,4,{8}5,1,1,,8,{16}2,3,4,,7,6,5,,{8}1,1,,
{16}7x,6,5,4,8x,7,6,5,{8}4,8,8-4[8:1],,2,,{16}1x,2,3,4,8x,7,6,5,{4}2b,
{16}6x,7,8,1,5x,6,7,8,{8}1,5,5,,3,{16}8,7,6,,1,2,3,,{8}8,8,,
{16}3x,2,1,8,4x,3,2,1,{8}8,4,4-8[8:1],,6,,{16}7x,6,5,4,1x,2,3,4,{4}8b,
{16}3x,2,1,8,4x,3,2,1,{8}8,4,4,,6,{16}1,2,3,,8,7,6,,{8}1,1,,
{16}6x,7,8,1,5x,6,7,8,{8}1,5,5-1[8:1],,3,,{16}2x,3,4,5,8x,7,6,5,{2}4h[1:2],,,,,
{12}3b,7b,3b,7b,,,2b,6b,2b,6b,3b,7b,4b,8b,5b,{1}1b,,,,E

Re:MASTER


  • 追加しました。修正等ありましたらよろしくお願いします。 -- けもがみ (2022-12-15 00:45:33)
  • added EXPERT (the BPMs during the soflan is calculated, I might edit MASTER later) -- cubruce1103 (2023-07-21 02:22:25)
名前:
コメント:

タグ:

+ タグ編集
  • タグ:
最終更新:2026年04月07日 21:27