アットウィキロゴ

群青シグナル

アーティスト テヅカ feat. 獅子神レオナ

BPM BASIC ADVANCED EXPERT MASTER Re:MASTER
206 5 8 11+ 13+ -

EXPERT MASTER Re:MASTER
譜面制作者 翠楼屋 ものくろっく -

BASIC


ADVANCED


EXPERT


MASTER

(206){4}
5/6z2[4:5],5,5,5,
5,5,5,5,
3s7[4:5]/5,5,5,5,
5,5-1[8:1],,,
2h[4:1]/4h[4:1],,5h[4:1]/7h[4:1],{8},6x/7x,
,2x/3x,,1x-5[8:1]/8x-4[8:1],,,,,

2h[4:1],,4h[4:1],,5,5,,47,
,{16}6,5,6,,4,5,{8}4,6,6,,
7h[4:1],,5h[4:1],,4,4,,38,
,{16}2,1,2,,8,1,{8}8,2,2,,
3h[4:1],,5h[4:1],,6,6,,47,
,{16}6,5,6,,4,5,{8}4,7,7-4[8:1],,
5-2[8:1],,,,3,4,,1-5[8:1]/5,
,6,6h[4:1],,4,,18,,
2h[4:1],,4h[4:1],,5,5,,47,
,{16}6,5,6,,4,5,{8}4,7,7-4[8:1],,
1-5[8:1],,6-1[8:1],,2,2-4[8:1]*-6[8:1],,2x,
,,38,,56,,{16}3,4,{8}3,
25,,2/4<8[4:1],2,2,2,2,,
47,,5>1[4:1]/7,7,7,7,7,,
2h[4:1]/5h[4:1],,,,4/7h[8:3],,5,5,
,68,57,46,35,2h[4:1]/6h[4:1],,,

8b-4[4:5],,,D1,,,B1,,
,B3,,,D4,,5,,
5-1[4:5]/6,,,D6,,,B6,,
,B8,{4},D1,1,
12,3,4/8z4[4:3],,
,,,5,
5<1[4:1]/6h[2:1],,,{8}37,3h[8:5]/7h[8:5],
,,,,,,45,,
1-5[8:1]/7-5[8:1],,,,6,4,5,3,
4pp7[2:1],,2h[4:1],,,,3,,
48,,7,7,5,6,5,7h[8:5],
,6,6p2[4:1],,,,5,,
24,,3,3,4,4,3,4pp3[2:1],
,2,,1,,2,2,,
2h[4:1]/5h[4:1],,,{16}4,3,{8}4,1-4[8:1],,1x/4x-7[8:1],
,4x/7x-2[8:1],,2x/7x,,1b,1b,,

2-4[8:1],,5,5,6-8[8:1],,5,,
2-4[8:1],,5,5,6-8[8:1],,5,,
1-3[8:1],,4,4,5-7[8:1],,4,,
8-2[8:1],,3q7[4:1],3,,,4x,,
5-3[8:1]/7,,8,8,5-3[8:1]/7,,8,,
5-3[8:1]/7,,8,8,{4}5-3[8:1]/7,8,
4h[8:1]/7,5h[8:1]/7,6h[8:1]/7,7/8h[8:1],
1h[8:1]/7,2h[8:1]/7,{8}3/7-3[8:1],3,,,
{2}2h[4:1]/5h[4:3],4h[4:3],
7h[4:3],5h[1:2],
8b<4b[4:5],,,,
{4}34,45,24,46,
2/A4f,6/E4f,1/B5f,7/Cf,
{16}1,8,{8}1,2,2,6,6,3,3^8[8:1]/4^7[8:1],
,34,,1bxh[8:3]/6bxh[8:3],,,,,

3h[4:1],4,4h[4:1],5,5h[8:1],6^1[8:1]*q2[8:1],6,,
,,38,47,5>1[8:1]/6,,7-3[8:1],,
8,,2,2,4,3<1[8:3],4,35,
,,,,1h[4:1]/6,,6,5,
24,,2/3-6[8:1],2,23,2,2/3-6[8:1],2,
23,2,2/3q6[8:3],2,23,2,2,,
1>5[8:1],,7,,8,,26,2b/6b,
,18,18,,{16}4,5,{8}4,3-1-7-5[2:1]/7,,
6,,5>1[8:1],,7,,8,8,
12,,78,,25,,5/7^4[8:1],,
3,,2,2,4,3p6[4:1]*>7b[4:1],4,3,
,,5,,45,45,{16}3,4,3,4,
{8}3>7[8:1],,4,,5q1[8:1],5,4,,
3>7[8:1],,4,,5q1[8:1],5,4,,
3h[8:1],4h[8:1],5h[8:1],6h[8:1],4,,28,2^5-1[8:5]/8^5s1[8:5],
{4},,,,

2b/8b,2h[32:1]/7h[16:1],4h[16:1]/6h[32:1],{8}5,6,
3,3,{16}5,4,5,,2h[8:1],,4,5,6,7,18,,
2,,3,4,3,,5,,3,4,3,,5,,1/5h[4:1],,
,,2,3,4h[8:1],,6,7,8h[4:1],,1,,1,,,,
7,,5,6,5,,,,47,,5,6,5,,47,,
4-1[8:1]/7-4[8:1],,,,,,,,2h[8:3],,4,5,6,7,{8}8,
3,3,7,7,4,6,5,47,
,56,47,38,{16}2,1,{8}2,37,,
{48}2/D7,A6,D6,A5,D5,A4,{8}D4,{4}1b-5[8:1],8-4[8:1],2-6[8:1],
7p3[8:1],4v1[8:1],7v2[8:1],2,
{16}3x/8x,,2,1,2,,8,1,8,,2,1,2,,38,,
,,6,,6,,8,7,8,7,{8}8,1b,,
36,,45,45,45,45,45,45,
46,46,37,3/7h[8:3],,{16}2,1,{8}8>4[1:1]*<4[1:1],,
{2}8x,,
,{16}36,,,4,5,,4,,
{4}6x/7x,2x/3x,5x-2[8:1]*-8[8:1]/6x,5bw1b[2:1],
,,,4pp1^3[8:5]/5,

4x/8x,7x,{8}6-4-8[4:1],6,,,
,,4,4,5>1[8:1]/6,,7-3[8:1],,
8,,2,2,4,3pp8[8:3],4,35,
,,,,1h[4:1]/6,,6,5,
24,,2/3-6[8:1],2,23,2,2/3q7[8:1],2,
23,2,2/3q5^8[2:1],2,23,2,2,,
1>5[8:1],,8,,7,,36,36,
,18,1b/8b,,{16}5,4,5,4,6,3,6,3,
{8}2b-5[8:1]/7b,,8-4[8:1],8,1-5[8:1],1,6-2[8:1],6,
3-5[8:1],3,7-4[8:1],7,2-6[8:1],2,8-3[8:1]*-5[8:1],,
,,2x/6x,,3,3>6[4:1]*p6b[4:1],5,{36},D3,A2,D2,A1,
D1,A8,D8,A7,{16},,,,,,4,5,4,5,4^1[8:1],5,{8}4,
4x/6h[8:5],,,,5,5,,38,
,46,46,46,5-1[8:1],,{24}5x/D5/D6,B4/B6,B2/B8,{8}D1/D2,
3bh[2:1]/7bh[2:1],,,,,,,6/Cfh[8:7],
{4},,,6-2[8:1],

6x,,{8}12,12,,47,
,{16}6,5,6,,4,5,{8}4,7,7,,
38,,5h[4:1]/6,,4,4,,15,
,{16}3,4,3,,5,4,5,,3,,{4}3-8[8:1]/5,
34,3-8[8:1]/5,34,3-8[8:1]/6,
34,3-8[8:1]/6,34,3>4[8:3]/7,
3b/Cf,,,{8}38,38,
,45,4V28[4:1]/5V37[4:1],,4x/5x,,,,
56,,56,5,56,5,56,5,
56,5,5^3[8:1]/6,5,56,,6,,
34,,34,4,34,4,34,4,
34,4,3/4^6[8:1],4,34,,{16}4,5,{8}4,
3/7-4[8:1],,1,,2-5[8:1]/5,6,7,,
3/8-4[8:1],,1,,2-5[8:1]/5,6,7,,
38,{16}2,1,2,,7,8,7,,2,1,{8}2,3b/8b,
,2b/5b,,5b-8[8:1]/6b,,1b/5b,,,
{80}D1f,A1/A8,D2/D8,A2/A7,D3/D7,A3/A6,D4/D6,A4/A5,,,{8},,,{1},

{8}1,1,{4},
5/6z2[4:5],5,5,5,
5,5,5,5,
3s7[4:5]/5,5,5,5,
5,5-1[8:1],,,
2h[4:1]/4h[4:1],,5h[4:1]/7h[4:1],{8},6x/7x,
,2x/3x,,4-8[8:1]/5-1[8:1],,,,,{1},E

Re:MASTER


名前:
コメント:

タグ:

+ タグ編集
  • タグ:
最終更新:2026年04月05日 22:14