アットウィキロゴ

ジングルベル〈でらっくす〉

アーティスト SEGA Sound Unit [H.]

BPM BASIC ADVANCED EXPERT MASTER Re:MASTER
100 5 7+ 10+ 14+ -

EXPERT MASTER Re:MASTER
譜面制作者 翠楼屋 舞舞10年ズ 〜ファイナル〜 -

BASIC


ADVANCED


EXPERT


MASTER

(100)
{64}E8,A8/B8/E1/D1,A1/B1/E2/D2,A2/B2/E3/D3,A3/B3/E4/D4,,,,,,,,
E7,A7/B7/E8/D8,A8/B8/E1/D1,A1/B1/E2/D2,A2/B2/E3/D3,,,,,,,,
E6,A6/B6/E7/D7,A7/B7/E8/D8,A8/B8/E1/D1,A1/B1/E2/D2,,,,,,,,
{16},Chf[8:1],,{4}B3/B4/B5/B6/A3/A4/A5/A6,

{8}28,D5/A5/D6/E5/E6/B5,7/1V73-5^4V62[8:3],D5/A4/D4/E5/E4/B4,,,,8,
71,D5/A4/D4/E5/E4/B4,2/8V26-4^5V37[8:3],D5/A5/D6/E5/E6/B5,,,,1,
35,D1/A8/D8/E1/E8/B8,6/4V62-8^1V73[8:3],D1/A1/D2/E1/E2/B1,,,,5,
64,D1/A1/D2/E1/E2/B1,6/5s1^8z4[16:5],{16}47,56,{2},
{8}71,D5/A4/D4/E5/E4/B4,2/8V62-4^3V51[8:3],D3/A3/D4/E3/E4/B3,,,,2,
38,D5/A5/D6/E5/E6/B5,7/1V37-5^6V48[8:3],D7/A6/D6/E7/E6/B6,,,,7,16,47,38,25,
{64}D1/D7,A1/A6,D2/D6,A2/A5,,,,,E1/E7,B1/B6,B2/B5,E3/E5,,,,,
D1/D3,A8/A3,D8/D4,A7/A4,,,,,E1/E3,B8/B3,B7/B4,E7/E5,,,,,
{16}15,15,26,26,37,37,48,48,{64}15,4,3,2,1,8,7,6,{8}5/Cf,,,

1b^3b[16:1]/4bx,8b^6b[16:1]/5bx,1b-4b[16:1]/4bx,8b-5b[16:1]/5bx,
1b^3b[16:1]/4bx,8b^6b[16:1]/5bx,1b-4b[16:1]/4bx,8b-5b[16:1]/5bx,
1b^3b[16:1]/4bx,8b/5bx,1bs5[8:1]/4bx,{16},8x,8x,,6b,6b,7b,7b,8b,8b,
7hb[2:1]/1,1,2,2,3,3,{64}2,1,8,,6,5,4,3,{16}2hb[2:1],8,7,7,6,6,{64}7,8,1,,3,4,5,6,
{16}7b,38,38,14,25,14,38,27,{64}1,8,7,6,5,4,3,2,1,8,7,6,{16}5b/Cf,,,,,
{8}8b^6b[16:1]/5bx,1b^3b[16:1]/4bx,8b-5b[16:1]/5bx,1b-4b[16:1]/4bx,
8b^6b[16:1]/5bx,1b^3b[16:1]/4bx,8b-5b[16:1]/5bx,1b-4b[16:1]/4bx,
8b^6b[16:1]/5bx,1b/4bx,8bz4[8:1]/5bx,{16},1x,1x,,3b,3b,2b,2b,1b,1b,
2hb[2:1]/8,8,7,7,6,6,{64}7,8,1,,3,4,5,6,{16}7hb[2:1],1,2,2,3,3,{64}2,1,8,,6,5,4,3,
{16}2b,17,{64}8,7,6,5,4,3,2,1,8,7,6,5,4,3,2,1,{8}8,
{64}A1,A2,A3,A4,A5,A6,A7,A8,B1,B2,B3,B4,B5,B6,B7,B8,{1}B1f,

{4}E1/E2/E3/E4/E5/E6/E7/E8/B1/B2/B3/B4/B5/B6/B7/B8/Cf,
{8}1h[32:7],{64}7h[32:7],,,,,,,2x,3h[32:7],,,,,,,6x,5h[32:5],,,,,,,2x,
{64}1h[32:3],,,6x,7h[32:3],,,2x,3h[32:3],,,8x,1h[32:3],,,4x,5h[64:7],,,8x,7h[16:1],,,,{8}4bx,
{8}8h[32:7],{64}2h[32:7],,,,,,,7x,6h[32:7],,,,,,,3x,4h[32:5],,,,,,,7x,
{64}8h[32:3],,,3x,2h[32:3],,,7x,6h[32:3],,,1x,8h[32:3],,,5x,4h[64:7],,,1x,2h[16:1],,,,{8}5bx,
{8}1h[32:7],{64}7h[32:7],,,,,,,2x,3h[32:7],,,,,,,6x,5h[32:5],,,,,,,2x,
{64}1h[32:3],,,6x,7h[32:3],,,2x,3h[32:3],,,8x,1h[32:3],,,4x,5h[64:7],,,8x,7h[16:1],,,,{8}4bx,
{16}4h[64:3]/8h[64:3],3h[64:3]/7h[64:3],2h[64:3]/6h[64:3],1h[64:3]/5h[64:3],
4h[64:3]/8h[64:3],1h[64:3]/5h[64:3],2h[64:3]/6h[64:3],3h[64:3]/7h[64:3],
{4}4b^1b[16:1]/8b^5b[16:1],{64}4b/8b,D8/D4,D7/D3,D6/D2,,,,,,,,,,,,,

{8}1h[32:7],{64}7h[32:7],,,,,,,2x,3h[32:7],,,,,,,6x,5h[32:5],,,,,,,2x,
{64}1h[32:3],,,6x,7h[32:3],,,2x,3h[64:7],,,8x,1h[64:3],,,,
{16}4h[64:3]/8h[64:3],3h[64:3]/1h[64:3],4b/8b,,
{8}8h[32:7],{64}2h[32:7],,,,,,,7x,6h[32:7],,,,,,,3x,4h[32:5],,,,,,,7x,
{64}8h[32:3],,,3x,2h[32:3],,,7x,6h[64:7],,,1x,8h[64:3],,,,
{16}5h[64:3]/1h[64:3],6h[64:3]/8h[64:3],5b/1b,,
{8}1h[32:7],{64}7h[32:7],,,,,,,2x,3h[32:7],,,,,,,6x,5h[32:5],,,,,,,2x,
{64}1h[32:3],,,6x,7h[32:3],,,2x,3h[64:7],,,8x,1h[64:3],,,,
{16}4h[64:3]/8h[64:3],3h[64:3]/1h[64:3],4b/8b,,
{16}1h[64:3]/4h[64:3],8h[64:3]/3h[64:3],7h[64:3]/2h[64:3],6h[64:3]/1h[64:3],
5h[64:3]/8h[64:3],6h[64:3]/1h[64:3],7h[64:3]/2h[64:3],8h[64:3]/3h[64:3],
{4}4-1b[16:1]/1-6b[16:1],4b/1b,

{16}E1/E2/E3/E4/E5/E6/E7/E8/B1/B2/B3/B4/B5/B6/B7/B8/Cf,,,
E1/E2/E3/E4/E5/E6/E7/E8/B1/B2/B3/B4/B5/B6/B7/B8/Cf,,,
E1/E2/E3/E4/E5/E6/E7/E8/B1/B2/B3/B4/B5/B6/B7/B8/Cf,,
D3f,D2/A2/E3/A3/D4,,,D7f,D8/A7/E7/A6/D6,,,

{24}1xv6[16:1],,1x,8,,8,1xv4[16:1],,1x,2,,2,1xv6[16:1],,1x,8,,8,1xv4[16:1],,1x,2,,2,
1xv6[16:1],,1x,8,,8,1x,,1x,2,,2,1x,4,3,8x,5,6,3x,4,1,6x,5,7,
8xv3[16:1],,8x,1,,1,8xv5[16:1],,8x,7,,7,8xv3[16:1],,8x,1,,1,8xv5[16:1],,8x,7,,7,
8xv3[16:1],,8x,1,,1,8xq1b[8:1],,8x,7,,7,{4},A3/A4/A5/A6/D4/D5f/D6/E4/E5/E6/B3/B4/B5/B6/C,
{24}1^4[16:1],,1,6bx,,6,8^5[16:1],,8,3bx,,3,1^4[16:1],,1,6bx,,6,8^5[16:1],,8,3bx,,3,
1^4[16:1],,1,6bx,,6,8,,8,3bx,,3,7x,5,8,2bx,4,1,7x,6,8,2bx,3,1,
5^8[16:1],,5,2bx,,2,4^1[16:1],,4,7bx,,7,5^8[16:1],,5,2bx,,2,4,,4,7bx,,7,
3,4,3,6,5,6,E3f,E4,E2,E7,E6,E8,3,4,2,6,5,7,E3f,E4,E2,E7,E6,E8,
2,1,2,7,8,7,E3f,E4,E2,E7,E6,E8,3,4,3,1,2,1,E2f,E8,E1,E6,E4,E5,
{32}2,4,2,4,7,5,7,5,3,4,3,4,6,5,6,5,3,4,2,4,6,5,7,5,
{64}4,3,2,1,8,7,6,5,4,3,2,1,8,7,6/Cf,,{4},{16}5^8b[16:1],8-5b[16:1],1^4b[16:1],4-1b[16:1],
{8},,,{64}1b/5b,2b/6b,3b/7b,{1}4b/8b,,,,E

Re:MASTER


  • 追加しました。修正等ありましたらよろしくお願いします。 -- けもがみ (2022-12-25 04:02:21)
名前:
コメント:

タグ:

+ タグ編集
  • タグ:
最終更新:2026年04月09日 19:52