| アーティスト |
SEGA Sound Unit [H.] |
EASY
BASIC
ADVANCED
EXPERT
MASTER
(100){96}
7/8b,,,,,,1,,,,,,8,,,,,,8/1b,,,,,,2,,,,,,1,,,,,,1/2b,,,,,,3,,,,,,2,,,,,,,,,,,,3,,,2,,,1,,,,,,7b,,,,,,,,7b,,,,,,,,7b,,,,,,,,
{16}
6,,3,,7,,2,,6,1,7,3,7,2,5,1,
8,,7,,1,,2,,8,1,7,2,6,3,5,4,
1,,2,,8,,7,,4,5,3,6,2,7,1,8,
{48}
2,,,2,,,7,,,7,,,4,,,4,,,8,,,8h[4:1],,,,,,,,,,,,,,,{64}1,2,3,4b,,,,,,,,,,,,,
{16}
1,1,6,6,3,3,8,8,1,5,2,6,3,7,4,8,
7,7,4,4,5,5,2,2,8,4,7,3,6,2,5,1,
7,2,3,6,8,5,4,1,84,8,83,8,82,8,81,8,
{48}
8/1h[2:1],,,8,,,6,,,6,,,5,,,5,,,4,,,4,,,3,,,,,,{64}5,6,7,8b,,,,,,,,,,,,,,,,,,,,,
{8}
1^4[16:1],8^5[16:1],1-4[16:1],8-5[16:1],1-5[16:1],8-4[16:1],1-6[16:1],8-3[16:1],
{16}
1^4[16:1],,8^5[16:1],,1,,,2,3,,31,38,31,38,31,38,
1,1,2,2,3,3,4,4,8,8,7,7,6,6,5,5,
{48}
1,,,2,,,3,,,4,,,5,,,6,,,7,,,8,,,18,,,,,,,,,{64}2,1,8,7b,,,,,,,,,,,,,,,,,
{8}
8^5[16:1],1^4[16:1],8-5[16:1],1-4[16:1],8-4[16:1],1-5[16:1],8-3[16:1],1-6[16:1],
{16}
8^5[16:1],,1^4[16:1],,8,,,7,6,,63,62,63,62,63,62,
37,6,4,8,27,1,5,3,18,2,5,3,14,8,4,6,
{48}
18,,,72,,,63,,,54,,,54,,,36,,,27,,,18,,,8/1^4[16:1],,,,,,,,,,,,{64}8,7,6,5b,,,,,,,,,,,,,
{4}
,,,2b/7b,
{16}
7h[8:1],1,3,8,6h[8:1],2,3,4,8/4h[8:3],8,7,7,8,8,7,7,
2h[8:1],8,6,1,3h[8:1],7,6,5,1/5h[8:3],1,2,2,1,1,2,2,
4h[8:1],7,6,3,5h[8:1],2,3,6,5/3h[8:3],5,4,4,5,5,4,4,
{48}
15,,,15,,,26,,,26,,,37,,,37,,,48,,,48,,,5/1^4[16:1],,,,,,,,,,,,{64}8,7,6,5b,,,,,,,,,,,,,
{16}
2h[8:1],6,6h[8:1],1,1h[8:1],8,8h[16:1],1,6/3h[8:3],7,6,7,6,7,6,7,
7h[8:1],3,3h[8:1],8,8h[8:1],1,1h[16:1],6,3/6h[8:3],2,3,2,3,2,3,2,
3h[8:1],2,2h[8:1],1,1h[8:1],8,8,8,7/8h[16:7],6,7,6,7,6,7,6,
{48}
87,,,67,,,56,,,45,,,34,,,23,,,12,,,18,,,1/8^5[16:1],,,,,,,,,,,,{64}1,2,3,4b,,,,,,,,,,,,,
{16}
3/4b,5,4,4/5b,6,5,5/6b,7,6,2h[16:3],,,6,2h[16:3],,,
{24}
8,,8,7,,7,1,,1,7,8,7,2,,2,1,,1,3,,3,8,1,8,
2,,2,1,,1,8,,8,7,,7,6,7,6,8,7,8,8,1,8,2,1,2,
7,,7,6,,6,5,,5,4,5,4,5,,5,6,,6,7,,7,8,7,8,
{48}
1,,,,2,,3,,,,4,,5,,,,6,,7,,,,8,,1^4[16:1],,,,,,,,,,,,{64}8,7,6,5b,,,,,,,,,,,,,
{24}
1,,1,7,,7,3,,3,8,3,8,2,,2,5,,5,4,,4,8,1,8,
2,,2,7,,7,3,,3,6,,6,4,5,4,6,3,6,2,7,2,8,1,8,
3,,3,4,,4,1,,1,6,1,6,8,,8,5,,5,6,,6,3,4,3,
8,1,8,2,7,2,6,3,6,4,5,4,5,4,5,3,6,3,7,2,7,1,8,1,
6,7,6,8,7,8,1,2,1,3,2,3,5,4,5,7,6,7,8-5[16:1],1,2,1-4[16:1],8,7,
{8}
8-4[16:1],1-5[16:1],8-3[16:1],1-6[16:1],8-4[16:1],1-5[16:1],8-5[16:1],,
{48}
,,,4,,,3,,,,,,8^5[16:1],,,1^4[16:1],,,5-8[16:1],,,4-1[16:1],,,,,,,,,,,,,,,,,,,,,{64}18,27,36,4b/5b,,,,,
{1}
,
,
E
Re:MASTER
(100){16}
4b/8b,7,6,1b/5b,2,3,4b/8b,,,,1-5[200#8:1],8,1b/7b,,,,
78,,23,,56,,12,,1-3[200#8:1],5,1-7[200#8:1],5,1-5[200#8:1],5,1,,
12,,67,,34,,78,,8-6[200#8:1],4,8-2[200#8:1],4,8-4[200#8:1],4,8,,
78,,23,,56,,12,,1-3[200#8:1],5,1-7[200#8:1],5,1-5[200#8:1],5,1,,
12,,67,,34,,2>6[200#4:1]/6<2[200#4:1],26,,,,,3b/7b,,,,
8,8,3,3,1,1,2,2,1^6[200#8:1],2^5[200#8:1],1,2,7^4[200#8:1],8^3[200#8:1],7,8,
5,5,2,2,4,4,3,3,4^7[200#8:1],3^8[200#8:1],4,3,6^1[200#8:1],5^2[200#8:1],6,5,
7,7,1,1,8,8,2,2,8h[32:1],1h[32:1],8h[32:1],1h[32:1],8h[32:1],1h[32:1],8h[32:1],1h[32:1],
8,2,7,3,37,26,15,48,{8}3<3[200#4:1]/7>7[200#4:1],,,,
1-3[200#8:1]/8-4[200#8:1],1-5[200#8:1]/8-6[200#8:1],1-3[200#8:1]/8-4[200#8:1],1-5[200#8:1]/8-6[200#8:1],1^3[200#8:1]/8-3[200#8:1],1-6[200#8:1]/8^6[200#8:1],1^3[200#8:1]/8v3[200#8:1],1v6[200#8:1]/8^6[200#8:1],
1^4[200#8:1]/8q4[200#8:1],1p5[200#8:1]/8^5[200#8:1],18,{16},37,1^4[200#8:1]*-4[200#8:1],,1b^6[200#8:1]*-6[200#8:1],,1bw5[200#8:1],,1b,,
23,1,8,1,67,8,1,8,23,4,5,4,67,5,4,5,
26,26,37,37,48,48,15,15,{8}2<2[200#4:1]/6>6[200#4:1],,,,
8-6[200#8:1]/1-5[200#8:1],8-4[200#8:1]/1-3[200#8:1],8-6[200#8:1]/1-5[200#8:1],8-4[200#8:1]/1-3[200#8:1],8^6[200#8:1]/1-6[200#8:1],8-3[200#8:1]/1^3[200#8:1],8^6[200#8:1]/1v6[200#8:1],8v3[200#8:1]/1^3[200#8:1],
8^5[200#8:1]/1p5[200#8:1],8q4[200#8:1]/1^4[200#8:1],81,{16},62,8^5[200#8:1]*-5[200#8:1],,8b^3[200#8:1]*-3[200#8:1],,8bw4[200#8:1],,8b,,
76,1,8,1,32,8,1,8,76,4,5,4,32,5,4,5,
{32}1,,38,,2,1,2,1,2,,38,,1,8,1,8,1,,7,8,7,8,7,,{64}18,27,36,45,{16},2b/7b,,
{4},,,2b/7b,
{16}3h[8:1],,4h[8:1],,2h[8:1],,5h[8:1],,3h[8:1],1b,4h[8:1],1b,3h[8:1],1b,4h[8:1],1b,
2h[8:1],,1h[8:1],,3h[8:1],,8h[8:1],,2h[8:1],4b,1h[8:1],4b,2h[8:1],4b,1h[8:1],4b,
3h[8:1],,4h[8:1],,2h[8:1],,5h[8:1],,3h[8:1],1b,4h[8:1],1b,3h[8:1],1b,4h[8:1],1b,
1h[8:1],,7h[8:1],,5h[2:1],,3h[16:1],,1h[4:1],,,,{64},4b/8b,3b/7b,2b/6b,{16}1b/5b,,,
4h[8:1],,5h[8:1],,3h[8:1],,6h[16:1],,2h[16:1]/8b,8b,6h[16:1]/8b,8b,2h[16:1]/8b,8b,6h[16:1]/8b,8b,
1h[8:1],,8h[8:1],,2h[8:1],,7h[16:1],,3h[16:1]/5b,5b,7h[16:1]/5b,5b,3h[16:1]/5b,5b,7h[16:1]/5b,5b,
4h[8:1],,5h[8:1],,3h[8:1],,6h[2:1],,1b,1b,1b,1b,1b,1b,1b,1b,
1b/5b,1b/5b,1b/6b,1b/6b,1b/7b,1b/7b,1b/8b,1b/8b,1b/8b,,,,{64}18,27,36,4b/5b,{16},,,
4b/8b,3,2,1b/5b,6,7,4b/8b,,3^1[200#8:1]/7^1[200#8:1],3h[16:1]/7h[16:1],,,2^8[200#8:1]/6^8[200#8:1],2h[16:1]/6h[16:1],,,
12,,1qq6[200#8:3]/2q5[200#8:3],,,,,,34,,5p2[200#8:3]/6pp1[200#8:3],56,,,,,
7h[1:1]/8,,1,,2,,,2,{64}1,2,3,4,5,6,,8,1,2,3,4,5,6,,8,1,2,3,4,5,6,,8,1,2,3,4,5,6,,8,
{24}1,,1,2,,2,3,,3,4-1[200#12:1],5,4,8,,8,7,,7,6,,6,5-8[200#12:1],4,5,
4p7[200#12:1],,4,5q2[200#12:1],,5,3p7[200#12:1],,3,6q2[200#12:1],,6,2,,,,,,{64}7b,68,15,24,{16}3b,,,
78,,7p4[200#8:3]/8pp3[200#8:3],,,,,,56,,3qq8[200#8:3]/4q7[200#8:3],34,,,,,
2h[1:1]/1,,8,,7,,,7,{64}8,7,6,5,4,3,,1,8,7,6,5,4,3,,1,8,7,6,5,4,3,,1,8,7,6,5,4,3,,1,
{24}8,,8,7,,7,6,,6,5-8[200#6:1],4,5,1,,1,2,,2,3,,3,4,5,4,
{4}5q2[200#8:1]/6^1[200#8:1],3^8[200#8:1]/4p7[200#8:1],1^6[200#8:1]/2p5[200#8:1],7q4[200#8:1]/8^3[200#8:1],
{8}8^5[200#8:1],1^4[200#8:1],8-5[200#8:1],1-4[200#8:1],8-4[200#8:1],1-5[200#8:1],8-3[200#8:1],1,
{16}1-3[200#8:1],8-4[200#8:1],1-5[200#8:1],8-6[200#8:1],1^3[200#8:1],8q4[200#8:1],1p5[200#8:1],8^6[200#8:1],1-3[200#8:1],8-4[200#8:1],1-5[200#8:1],8-6[200#8:1],1^3[200#8:1],8q4[200#8:1],1,8,
,3,6,,4,4,5,5,2V47[200#4:1]/6V83[200#4:1],26,,,,,{64}2b/6,1/5b,4/8b,3b/7,2/6b,1b/5,4b/8,3/7b,
{1},E
- maipadでやるとスライドでないです -- 名無しさん (2019-01-29 15:41:49)
- Re:MASTER譜面の[200#16:1]→[200#12:1]の箇所の修正を行いました。 -- けもがみ (2026-04-22 12:27:38)
最終更新:2026年10月04日 20:58