| アーティスト |
SOUND HOLIC feat. Nana Takahashi |
EASY
BASIC
ADVANCED
EXPERT
(160){4}
3h[0.6:1],4,4,4,4,4,4,4,6h[1.2:1],5,5,5,1b,,,,8,3,8,
{10}1,,1,,1,{4}7,4,7,{10}6,,6,,6,{4}1,6,1,
{10}8,,8,,8,{4}2,5,2,3-8[4:1],,1,1,4,4,7,5,2,4,8,8,5,
5,8,6,4,2,8,8,5,5,2,4,7,5,1,1,4,4-7[4:1],,,{12},
{8}
8,6,{6}2h[2.4:1],{4},3,7h[4:1],6,1,2,3,4,7h[4:1],6,
2h[4:1],3,8,7,6,5,4,4,3/5,4/6,5,5,4/6,3/5,7,5,2,
{8}4,4,,{4}6,3,6,{10},{4}2h[2:1],3,7,4,7h[2:1]
,6,2,5,3h[4:1],4,7h[4:1],6,1h[4:1],2,8h[4:1],,2h[2:1]/7,3,
7,1,2/7h[2:1],6,2,8,2,4/5,7,4/5,2,6/8,2/8,6/8,{24},
{4}
5,1/2,6,1/8,5,1/2,7/8,1/2,8,2/3,1,6/7,1/2,
8-3[4:1]/7-4[4:1],,,4,7/8,3,1/8,4,7/8,1/2,7/8,1,4/8,7,
1^4[2:1]/5^8[2:1],,,,,5,1/2,6,1/8,5,1/2,7/8,1/2,8,2/3,
1,6/7,1/2,8-3[4:1]/7-4[4:1],,,4,7/8,3,1/8,4,7/8,1/2,7/8,
1,4/8,7,5^2[2:1]/1^6[2:1],,,,,1,1,4,4,7,5,2,4,8,8,5,5,
8,6,4,2,8,8,5,5,2,4,7,5,1,1,4,4-7[4:1],,,{12},{8}1,6,3,
{4}
8,3,6,1,4,7,2,5,8,3,6,1,4,7h[2:1],2h[4:1],,
{4}1,6b,3,8b,5,2b,7,4b,1,6b,3,8b,5,1-4[4:1]/8-5[4:1],,,
{32},{4}5,1/2,6,1/8,5,1/2,7/8,1/2,8,2/3,1,6/7,1/2,
8-3[4:1]/7-4[4:1],,,4,7/8,3,1/8,4,7/8,1/2,7/8,1,4/8,7,
1^4[2:1]/5^8[2:1],,,,,5,1/2,6,1/8,5,1/2,7/8,1/2,8,2/3,
1,6/7,1/2,8-3[4:1]/7-4[4:1],,,4,7/8,3,1/8,4,7/8,1/2,7/8,
1,4/8,7,5^2[2:1]/1^6[2:1],,,,,1,1,4,4,7,5,2,4,8,8,5,5,
8,6,4,2,8,8,5,5,2,4,7,5,1,1,4,4-7[4:1],,{3},{8}8,6,2b,
{1},,E
MASTER
(160){8}
1-5[16:1]/3,2,3-7[16:1],,5,2-6[16:1],,8-3[16:1],
,1,2-5[16:1],,4,6h[8:3],,,
7-3[16:1],8,1-5[16:1],,7,2,,56,
{16}23,,,68,,,13,,7b/8b,,,,,,,,
3,4,3,4,3,5,3,5,3,6,3,6,3h[8:3],,,4,,,6b,,
6,5,6,5,6,4,6,4,6,3,6,3,6h[8:3],,,5,,,3b,,
3,4,3,5,3,6,3,7,3,8,3,1,3h[8:3],,,1,,,7b,,
7,8,7,1,7,2,7,3,7,4,7,5,7h[8:3],,,,,,3b,,
{8}
2,1,8h[8:3],,6,1h[4:3],,3,
4,5,4,5h[2:1],,7,8,1,
1-5[8:1],1,4,,3,2,1^6[4:1],1,
6^3[4:1],,3^8[4:1],,8^5[8:1],,5-1[4:1],,
1,2,3,,4,5,,8,
7,6,5,4,,8,1,2,
{16}1,2,1,2,7,8,7,8,6,5,6,5,7,8,7,,
{8},15,15,,,26,37,4b/8b,
,4,3,2,2^7[16:1],6^1[16:1],,,
,5,6,7,7^2[16:1],3^8[16:1],,,
,5,7,1,3,5,7,1-6[16:1],
1,8-3[16:1],8,2-7[16:1],2,4-8[16:1],4b,,
,5,6,7,8^3[16:1],4-8[16:1],,,
,6,5,4,3^8[16:1],7-3[16:1],,,
,4,5,6,57,6,7,1-5[16:1],
,2-6[16:1],,3-7[16:1],,,,,
{16}
15,,,37,,,12,,48,,,26,,,34,,
56,,,78,,,12,,1-6[16:1]/7-3[16:1],,,,,,,,
16,,,37,,,68,,25,,,38,,,13,,
36,,,48,,,13,,3-8[16:1],,3,,,,,,
2h[16:3],,,3h[16:3],,,4,,1,,8,,7,,6,,
7h[16:3],,,6h[16:3],,,5,,8,,1,,2,,,,
5h[16:3],,,7h[16:3],,,1h[8:1],,2h[16:3],,,8h[16:3],,,6,,
{4}37,15,2-6[16:1]/8-4[8:1],,
{8}
1,5,3,8-4[16:1],,8b,,6,
,6,5,4,3-8[16:1],,3b,,
8,6,4,6,8,{16}1,8,{8}1-6[16:1],1,
8-3[16:1],,2-5[16:1],,7-4[16:1],,6-1[16:1],,
7,8,1,2-6[16:1],,2b,,3h[4:1],
,6,5,4,3-8[16:1],,3b,,
1,2,1,8,7,{16}3,2,{8}1,8,
8b,,1-5[8:1],,5-1[8:1],,,,
8,4,6,1-5[16:1],,1b,,3,
,3,4,5,6-1[16:1],,6b,,
1,3,5,3,1,{16}8,1,{8}8-3[16:1],8,
1-6[16:1],,7-4[16:1],,2-5[16:1],,3-8[16:1],,
2,1,8,7-3[16:1],,7b,,6h[4:1],
,3,4,5,6-1[16:1],,6b,,
8,7,8,1,2,{16}6,7,{8}8,1,
1b,,2^7[8:1],,6^1[8:1],,,,
3h[4:1],,1h[8:3],,,6,,{16}8,1,
{8}2h[4:1],,4,8h[4:1],,6,4,2,
,{16}7,8,{8}7,,1,6-2[16:1],,8-4[16:1],
,2-6[16:1],,,,3,8,,
6h[2:1],,2h[4:1],,,4h[4:1],,{16}8,7,
{8}6h[4:1],,4,5h[4:1],,3,2,1,
{16}8,7,8,7,2,1,2,1,3,4,3,4,2,1,2,,
,,6,7,{8}8h[8:3],,,1,2,3,
{4}
23,68,13,67,
34,17,56,28,
34,16,78,25,
56,78,1b/2b,,
{8}
78,78,18,18,12,12,18,18,
34,34,45,45,56,56,45,,
78,56,34,12,18,23,45,67,
27,,1b/8b,,,,,8,
4,2,6,3-8[16:1],,7^4[16:1],,2-6[16:1],
,3,1,7,8-3[16:1],,4,,
35,4,2,8,46,{16}2,1,{8}8-4[16:1],8,
8^5[16:1],,8^3[16:1],,4-8[16:1],,4^1[16:1],,
8,7,6,6-1[16:1],6,,,8,
,7,8,1,2-5[16:1],,,,
3,4,3,4,1h[4:1],{16}8,7,{8}6,2,
8-3[8:1],,1-6[8:1],,4-7[8:1],,5-2[8:1],,
4,6,2,8-3[16:1],,1^6[16:1],,2-6[16:1],
,3,1,7,1-5[16:1],,8,,
57,6,4,2,68,{16}7,8,{8}1-5[16:1],1,
1^4[16:1],,1^6[16:1],,5-1[16:1],,5^8[16:1],,
1,2,3,3-8[16:1],3,,,6,
,4,5,6,7-4[16:1],7,,,
2,1,7,8,1h[4:1],{16}2,3,{8}4,6^1[8:3],
,,,,,,,,
6h[4:1],,8h[8:3],,,3,,{16}1,8,
{8}7h[4:1],,5,1h[4:1],,3,5,7,
,{16}2,1,{8}2,,8,3-7[16:1],,1-5[16:1],
,7-3[16:1],,,,6,1,,
3h[2:1],,7h[4:1],,,5h[4:1],,{16}1,2,
{8}3h[4:1],,5,4h[4:1],,6,7,8,
{16}4,3,4,3,6,5,6,5,7,8,7,8,6,5,6,,
,,3,2,{8}1h[8:3],,,8b,7b,6b,
{1},,
E
最終更新:2021年05月02日 20:41