EASY
BASIC
(94.0){2}1,(95.0)1,
(97.0){4}1,1,(98.0)1,,
(102.0){2}2,2,
(106.0){4}2,2,2,,
(110.0){2}3,3,
(114.0){4}3,3,3,,
(118.0){2}4,4,
(122.0){4}4,4,4,,
(126.0){4}5,5,4,4,
{4}5,5,4/5,,
{4}4,4,5,5,
{4}4,4,4b/5b,,
{4}5,5,5,,
{4}6,6,6,,
{4}7,7,7,,
{4}8,8,1/8,,
{4}1,1,1,,
{4}2,2,2,,
{1}2-5[4:3],,
{4}4,4,4,,
(128.0){4}3,3,3,,
(130.0){4}2,2,2,,
(132.0){4}1,1,1,,
(134.0){4}8,8,8,,
(136.0){4}7,7,7,,
(138.0){4}6,6,6,,
(140.0){4}5,5,5,,
(142.0){4}4,4,5,5,
{4}4,4,4/5,,
{4}5,5,4,4,
{4}5,5,4b/5b,,
{4}4,4,4,,
{4}3,3,3,,
{4}2,2,2,,
{4}1,1,1/8,,
{4}8,8,8,,
{4}7,7,7,,
{1}7-4[4:3],,
(136.0){4}5,5,5,,
(130.0){4}6,6,6,,
(124.0){4}7,7,7,,
(118.0){4}8,8,8,,
(112.0){4}1,1,(110.0)1,,
(108.0){4}2,2,(106.0)2,,
(100.0){4}3,3,(98.0)3,,
(96.0){4}4,4,(94.0)4,,
(88.0){1}4/5,
(128.0){4}4,4,5,5b,
{4}4,4,4,,
(132.0){4}3,3,3,,
(136.0){4}2,2,2,,
(140.0){4}1,1,1,,
(144.0){4}8,8,8,,
(146.0){4}7,7,(148.0)7,,
(152.0){4}6,6,6,,
(156.0){4}5,5,5,,
(160.0){2}3/4,3/4,
{2}5/6,5/6,
{2}3/5,3/5,
{2}4/6,4/6,
{2}5,5,
{2}6,6,
{2}7,7,
(152.0){4}8h[2:1],(146.0),(130.0),(116.0),
(120.0){4}1,1,1,,
(114.0){4}2,2,2,,
(108.0){4}3,3,3,,
(102.0){4}4,4,(98.0)4,(88.0),
{1}4h[1:1]/5h[1:1],,
E
ADVANCED
(94.0){4}4/5,3/4,(95.0)4/5,3/4,
(97.0){4}4/5,5/6,(98.0)4/5,3/6,
(102.0){4}4/5,2/3,4/5,2/3,
(106.0){4}4/5,6/7,4/5,3/6,
(110.0){4}3/4,1/2,3/4,1/2,
(114.0){4}5/6,7/8,5/6,4/7,
(118.0){4}3/4,1/8,3/4,1/8,
(122.0){4}5/6,1/8,5/6,4/7,
(126.0){4}8b,7,6,5,
{4}4,3,2,,
{4}1,2,3,4,
{4}5,6,7,,
{1}6^3[8:3],
{1}2^7[8:3],
{1}5^8[8:3],
{1}1^4[8:3],
{1}5q2[8:3]/6^1[8:3],
{1}1q6[8:3]/2^5[8:3],
{1}7^4[8:3],
{4}3/4,4/5,5/6,,
{4}4b/5b,5/6,4/5,5/6,
(128.0){4}4/5,3/4,4/5,3/6,
(130.0){4}4/5,5/7,4/5,5/7,
(132.0){4}4/5,2/4,4/5,3/6,
(134.0){4}5/6,7/8,5/6,7/8,
(136.0){4}3/4,1/2,3/4,2/5,
(138.0){4}5/6,2/8,5/6,2/8,
(140.0){4}3/4,1/7,3/4,2/5,
(142.0){4}1b,2,3,4,
{4}5,6,7,,
{4}8,7,6,5,
{4}4,3,2,,
{1}4^1[8:3],
{1}8^5[8:3],
{1}3^6[8:3],
{1}7^2[8:3],
{1}3q8[8:3]/4^7[8:3],
{1}7q4[8:3]/8^3[8:3],
{1}2^5[8:3],
{4}5/6,4/5,3/4,,
(136.0){4}3b/4b,1/7,3/4,1/7,
(130.0){4}5/6,2/8,5/6,4/7,
(124.0){4}3/4,1/2,3/4,1/2,
(118.0){4}5/6,7/8,5/6,4/7,
(112.0){4}4/5,2/4,(110.0)4/5,2/4,
(108.0){4}4/5,5/7,(106.0)4/5,3/6,
(100.0){4}4/5,3/4,(98.0)4/5,3/4,
(96.0){4}4/5,5/6,(94.0)4/5,3/6,
(88.0){1}1^4[8:3]/8^5[8:3],
(128.0){4}4,5,4,3b/6b,
{4}4/5,2/3,4/5,2/3,
(132.0){4}4/5,6/7,4/5,3/6,
(136.0){4}4/5,1/3,4/5,1/3,
(140.0){4}4/5,6/8,4/5,3/6,
(144.0){4}4/5,1/2,4/5,1/2,
(146.0){4}4/5,7/8,(148.0)4/5,3/6,
(152.0){4}4/5,2/7,4/5,2/7,
(156.0){4}4/5,1/8,4/5,3/6,
(160.0){4}1b/2b,1/2,3/4,3/4,
{4}5/6,5/6,7/8,7/8,
{4}1/8,1/8,6/7,6/7,
{4}4/5,4/5,2/3,2/3,
{4}1h[4:1],2h[4:1],3h[4:1],,
{4}8h[4:1],7h[4:1],6h[4:1],,
{4}2h[4:1],3h[4:1],4h[4:1],,
(152.0){4}7h[4:1],(146.0)6h[4:1],(130.0)5h[4:1],(116.0),
(120.0){4}4/5,1/3,4/5,1/3,
(114.0){4}4/5,6/8,4/5,3/6,
(108.0){4}4/5,2/3,4/5,2/3,
(102.0){4}4/5,6/7,(98.0)4/5,(88.0)3/6,
{1}2/7z3[4:3],,
E
EXPERT
(94.0){4}3h[4:1],4h[4:1],(95.0)5,4/5,
(97.0){4}6h[4:1],5h[4:1],(98.0)4,4/5,
(102.0){4}3h[4:1],4h[4:1],5,5/6,
(106.0){4}6h[4:1],5h[4:1],4,3/4,
(110.0){4}3h[4:1],4h[4:1],5,5/7,
(114.0){4}6h[4:1],5h[4:1],4,2/4,
(118.0){4}3h[4:1],4h[4:1],5,6/8,
(122.0){4}6h[4:1],5h[4:1],4,1/3,
(126.0){4}6,5/7,3,2/4,
{4}6/8,1/3,4/5,2/7,
{4}3,2/4,6,5/7,
{4}1/3,6/8,4/5,2/7,
{4}5-1[4:1]/6-1[4:1],,,7/8,
{4}3-8[4:1]/4-8[4:1],,,1/2,
{4}7-4[4:1]/8-4[4:1],,,5/6,
{4}1-5[4:1]/2-5[4:1],,,3/4,
{2}7-4[8:1],2-5[8:1],
{2}7^4[8:1],2^5[8:1],
{1}8<1[2:1],
{4}1/3,6/8,4/5,2b/7b,
{4}2h[4:1],4h[4:1],5,5/6,
(128.0){4}7h[4:1],5h[4:1],4,3/4,
(130.0){4}2h[4:1],4h[4:1],5,4/6,
(132.0){4}7h[4:1],5h[4:1],4,3/5,
(134.0){4}2h[4:1],4h[4:1],5,6/8,
(136.0){4}7h[4:1],5h[4:1],4,1/3,
(138.0){4}2h[4:1],4h[4:1],6,1/8,
(140.0){4}7h[4:1],5h[4:1],3,1/8,
(142.0){4}6,5/7,3,2/4,
{4}6/8,1/3,4/5,2/7,
{4}3,2/4,6,5/7,
{4}1/3,6/8,4/5,2/7,
{4}3q8[4:1]/4^7[4:1],,,1/2,
{4}5^2[4:1]/6p1[4:1],,,7/8,
{4}1^6[4:1]/2p5[4:1],,,3/4,
{4}7q4[4:1]/8^3[4:1],,,5/6,
{2}3-8[8:1],6-1[8:1],
{2}3^8[8:1],6^1[8:1],
{1}4>5[2:1],
{4}6/8,1/3,4/5,2b/7b,
(136.0){4}6h[4:1],8h[4:1],1,1/2,
(130.0){4}3h[4:1],1h[4:1],8,7/8,
(124.0){4}6h[4:1],8h[4:1],1,2/8,
(118.0){4}3h[4:1],1h[4:1],8,1/7,
(112.0){4}6h[4:1],8h[4:1],(110.0)1,2/4,
(108.0){4}3h[4:1],1h[4:1],(106.0)8,5/7,
(100.0){4}6h[4:1],8h[4:1],(98.0)2,4/5,
(96.0){4}3h[4:1],1h[4:1],(94.0)7,4/5,
(88.0){1}1q1[2:1],
(128.0){4}1,2,3,1b/8b,
{4}8/7h[4:1],5h[4:1],4,1/6,
(132.0){4}1/2h[4:1],4h[4:1],5,3/8,
(136.0){4}8/7h[4:1],5h[4:1],3,1/6,
(140.0){4}1/2h[4:1],4h[4:1],6,3/8,
(144.0){4}8/6h[4:1],5h[4:1],3,1/6,
(146.0){4}1/3h[4:1],4h[4:1],(148.0)6,3/8,
(152.0){4}1/7h[4:1],5h[4:1],3,1/6,
(156.0){4}8/2h[4:1],4h[4:1],6,3/8,
(160.0){4}6,5/7,3,2/4,
{4}6/8,1/3,4/5,2/7,
{4}3,2/4,6,5/7,
{4}1/3,6/8,4/5,2/7,
{4}5/6,4/7,3/4,2/5,
{4}3/8,1/6,1/8,2/7,
{4}3/4,2/5,5/6,4/7,
(152.0){4}1/6,(146.0)3/8,(130.0)1/8,(116.0)2/7,
(120.0){4}7^4[8:1],1,2^5[8:1],8,
(114.0){4}7p3[8:1],8,2q6[8:1],1,
(108.0){4}7^4[8:1],1,2^5[8:1],8,
(102.0){4}7p3[8:1],8,(98.0)2q6[8:1],(88.0)1,
{1}7z3[4:3],,
E
MASTER
(94.0){4}3,3/4,(95.0)6,5/6,
(97.0){4}3,3/4,(98.0)7/8,2/5,
(102.0){4}6,5/6,3,3/4,
(106.0){4}6,5/6,1/2,4/7,
(110.0){8}2,1/3,7,6/8,2,1/3,7,6/8,
(114.0){8}3,2/4,6,5/7,3,4,2/5,,
(118.0){8}7,6/8,2,1/3,7,6/8,2,1/3,
(122.0){8}6,5/7,3,2/4,6,5,4/7,,
(126.0){8}3h[4:1],1,4h[4:1],1,3h[4:1],1,4h[4:1],1,
{8}3h[4:1],1,4h[4:1],1,3,3,2/5,,
{8}6h[4:1],8,5h[4:1],8,6h[4:1],8,5h[4:1],8,
{8}6h[4:1],8,5h[4:1],8,6,6,4/7,,
{2}4-2[8:1]/5-1[8:1],4-8[8:1]/5-7[8:1],
{8}2/5,2/5,3q8[4:1]/4<8[4:1],,,,,,
{2}1-3[8:1]/8-4[8:1],1-5[8:1]/8-6[8:1],
{8}1/6,1/6,7q4[4:1]/8>4[4:1],,,,,,
{4}2h[2:1],1,7h[2:1],8,
{4}2h[4:1],4h[4:1],5h[4:1],7>6[8:5],
{8},,,,,,,1/6,
{4}1/6,5/6,3b/8b,1b/6b,
{2}6-3[8:1]/7-2[8:1],6-3[8:1]/7-2[8:1],
(128.0){8}5/7,6,2/4,3,4/8,6,1/5,3,
(130.0){2}6-3[8:1]/7-2[8:1],6-3[8:1]/7-2[8:1],
(132.0){8}2/4,3,5/7,6,1/5,3,4/8,6,
(134.0){2}6-4[8:1]/7-3[8:1],6-2[8:1]/7-1[8:1],
(136.0){8}6/8,7,1/3,2,4/8,6,1/5,3,
(138.0){2}6-4[8:1]/7-3[8:1],6-2[8:1]/7-1[8:1],
(140.0){8}1/8,2/7,6/3^6[8:1],,,,1b/8b,,
(142.0){8}3h[4:1],1,5h[4:1],1,3h[4:1],1,5h[4:1],1,
{8}3h[4:1],1,5h[4:1],1,3,3,2/6,,
{8}6h[4:1],8,4h[4:1],8,6h[4:1],8,4h[4:1],8,
{8}6h[4:1],8,4h[4:1],8,6,6,3/7,,
{4}1h[8:1]/6h[8:1],3h[8:1]/8h[8:1],1h[8:1]/6h[8:1],3h[8:1]/8h[8:1],
{2}5^2[8:1]/6p1[8:1],3q8[8:1]/4^7[8:1],
{4}4h[8:1]/7h[8:1],2h[8:1]/5h[8:1],4h[8:1]/6h[8:1],3h[8:1]/5h[8:1],
{2}1^6[8:1]/2p5[8:1],7q4[8:1]/8^3[8:1],
{8}4/6-1[8:1],3,2,,4/5-1[8:1],3,2,,
{8}5/3-8[8:1],6,7,,5/4-8[8:1],6,7,,
{8}4/5,,3/6,,2/7,,1/8,1/8,
{4}2/4,6/8,5b/7b,1b/3b,
(136.0){2}7-5[8:1]/8-4[8:1],1-5[8:1]/2-4[8:1],
(130.0){4}6h[4:1],4h[4:1],3,2/5,
(124.0){2}1-5[8:1]/2-4[8:1],7-5[8:1]/8-4[8:1],
(118.0){4}3h[4:1],5h[4:1],6,4/7,
(112.0){4}8h[4:1],6h[4:1],(110.0)4h[4:1],2h[4:1],
(108.0){4}8h[4:1],6h[4:1],(106.0)4h[4:1],2h[4:1],
(100.0){4}8h[4:1],7h[4:1],(98.0)6h[4:1],5h[4:1],
(96.0){4}4h[4:1],3h[4:1],(94.0)2h[4:1],1<2[4:3],
(88.0){1},
(128.0){4}1b,2b,3b-1[8:1]*-7[8:1],,
{2}5^3[8:1]/6p2[8:1],6p2[8:1]/7pp1[8:1],
(132.0){8}1/5,3,4/8,6,1/5,3,4/8,6,
(136.0){2}5^3[8:1]/6p2[8:1],6p2[8:1]/7pp1[8:1],
(140.0){8}4/8,6,1/5,3,4/8,6,1/5,3,
(144.0){2}5-2[8:1]/6-1[8:1],5-2[8:1]/6-1[8:1],
(146.0){8}1/5,3,4/8,6,(148.0)1/5,3,4/8,6,
(152.0){2}5-3[8:1]/6-1[8:1],5-2[8:1]/6-8[8:1],
(156.0){8}5/7,6,2/4,3,4/5,3/6,2/7,,
(160.0){8}3h[4:1],1,5h[4:1],1,4h[4:1],1,6h[4:1],1,
{8}3h[4:1],1,4h[4:1],1,3,3,2/5,,
{8}6h[4:1],8,4h[4:1],8,5h[4:1],8,3h[4:1],8,
{8}6h[4:1],8,5h[4:1],8,6,6,4/7,,
{8}4-2[8:1],4,8-6[8:1],8,5-1[8:1],5,8b,,
{8}5-7[8:1],5,1-3[8:1],1,4-8[8:1],4,1b,,
{8}2-6[8:1],2,7-1[8:1],7,3-5[8:1],3,8b,,
(152.0){8}8h[8:1],6h[8:1],(146.0)8h[8:1],1h[8:1],(130.0)3h[8:1],1h[8:1],(116.0)8b,,
(120.0){4}2,1/3,7,6/8,
(114.0){4}3,2/4,6,5/7,
(108.0){4}3h[2:1],4,6h[2:1],5,
(102.0){4}4h[4:1],5,(98.0)3/6,(88.0)2/7z3[1:1],{1},,
E
Re:MASTER
(94.0){4}1-3[4:1],3-5[4:1],(95.0)5-7[4:1],7-1[4:1],
(97.0){4}1-3[4:1],3,(98.0)5,6/4-1[4:1],
(102.0){4}1-6[4:1],6-3[4:1],3-8[4:1],8-5[4:1],
(106.0){4}5-2[4:1],2,7,6/8^3[4:1],
(110.0){4}3^6[4:1],6^1[4:1],1^4[4:1],4^7[4:1],
(114.0){4}7^2[4:1],2,5,6/4>8[4:1],
(118.0){4}8<4[4:1],4>8[4:1],8<4[4:1],4>8[4:1],
(122.0){4}8<4[4:1],4,8,1/8,
(126.0){8}2/7,2/7,,6/8,,1/3,,5/7,
{8},2/4,,4/5,4/5,,3/6,,
{8}1/8,1/8,,1/3,,6/8,,2/4,
{8},5/7,,4/5,4/5,,2b/7b,,
{8}4,3,1/2,,5,6,7/8,,
{8}6,5,3-8[16:3]/4-7[16:3],,,,,,
{8}1,2,3/4,,8,7,5/6,,
{8}4,3,1-6[4:1]/2-5[4:1],,,,,,
{8}4/5,3/6,2V41[16:5]/7V58[16:5],,,,,,
{8}7,7,6/8,,2,2,3/1>8[8:5],,
{8},,,,,,,1,
{4}1/8,6/7,2/3,1/8,
{4}8-6[4:1],6-4[4:1],4-2[4:1],2-8[4:1],
(128.0){8}8-6[4:1],,6,,4,4,3/5-8[4:1],,
(130.0){4}8-3[4:1],3-6[4:1],6-1[4:1],1-4[4:1],
(132.0){8}4-7[4:1],,7,,2,2,3/1^6[4:1],,
(134.0){4}6^3[4:1],3^8[4:1],8^5[4:1],5^2[4:1],
(136.0){8}2^7[4:1],,7,,4,4,3/5<1[4:1],,
(138.0){4}1>5[4:1],5<1[4:1],1>5[4:1],5<1[4:1],
(140.0){4}1>5[4:1],5,1,1/8,
(142.0){8}2/7,2/7,,6/8,,1/3,,5/7,
{8},2/4,,4/5,4/5,,3/6,,
{8}2/7,2/7,,1/3,,6/8,,2/4,
{8},5/7,,4/5,4/5,,2b/7b,,
{8}6/5h[4:1],7,8,,3/4h[4:1],2,1,,
{8}5/6h[4:1],4,3-7[4:1]*-8[4:1],,,,,,
{8}2/1h[4:1],3,4,,7/8h[4:1],6,5,,
{8}1/2h[4:1],8,7-3[4:1]*-4[4:1],,,,,,
{8}4,3/5,2-7[4:1]/6-3[4:1],,,,,,
{8}1,2,3/8,,8,7,6/1<2[8:5],,
{8},,,,,,,8,
{4}1/8,2/3,6/7,1/8,
(136.0){4}4<8[4:1],8>4[4:1],4<8[4:1],8>4[4:1],
(130.0){4}4<8[4:1],8,4,5/3^8[4:1],
(124.0){4}8^5[4:1],5^2[4:1],2^7[4:1],7^4[4:1],
(118.0){4}4^1[4:1],1,6,5/7-2[4:1],
(112.0){4}2-5[4:1],5-8[4:1],(110.0)8-3[4:1],3-6[4:1],
(108.0){4}6-1[4:1],1,(106.0)4,5/3-1[4:1],
(100.0){4}1-7[4:1],7-5[4:1],(98.0)5-3[4:1],3-1[4:1],
(96.0){4}1-7[4:1],7,(94.0)5,4/6qq3[8:7],
(88.0){1}6,
(128.0){4}1b,2b,3b,1b/8b,
{4}7-1[4:1],1-3[4:1],3-5[4:1],5-7[4:1],
(132.0){8}7-1[4:1],,1,,3,3,5/1-6[4:1],,
(136.0){4}6-3[4:1],3-8[4:1],8-5[4:1],5-2[4:1],
(140.0){8}2-7[4:1],,7,,4,4,2/6^1[4:1],,
(144.0){4}1^4[4:1],4^7[4:1],7^2[4:1],2^5[4:1],
(146.0){8}5^8[4:1],,8,,(148.0)3,3,5/1<5[4:1],,
(152.0){4}5>1[4:1],1<5[4:1],5>1[4:1],1<5[4:1],
(156.0){8}5>1[4:1],,1,,5,5,1/8,,
(160.0){8}2/7,2/7,,6/8,,1/3,,5/7,
{8},2/4,,4/5,4/5,,3/6,,
{8}2/7,2/7,,1/3,,6/8,,2/4,
{8},5/7,,4/5,4/5,,2b/7b,,
{16}2,1,2,1,3,8,3,8,4-1[8:1],7,4,7,4,,,,
{16}7,8,7,8,6,1,6,1,5-8[8:1],2,5,2,5,,,,
{16}3,8,3,8,4,7,4,7,5-2[8:1],6,5,6,5,,,,
(152.0){16}6,1,6,1,(146.0)5,2,5,2,(130.0)4-7[8:1],3,4,3,(116.0)4b,,,,
(120.0){4}1b<5[4:1],5>1[4:1],1<5[4:1],5p1[4:1],
(114.0){4}1<5[4:1],5p1[4:1],1p5[4:1],5^2[4:1],
(108.0){4}2-5[4:1],5-1[4:1],1-6[4:1],6b,
(102.0){4}7-2[4:1],2-6[4:1],(98.0)6-3[4:1],(88.0)3,
{1}2b,
E
最終更新:2026年10月03日 22:13