EASY
BASIC
(180.0){1},,,,,
{1}1,
{1}1,
{1}8,
{1}8-5[4:3],,
{1}1-4[4:3],,,
{2}8,8,
{1}7,
{2}6,6,
{1}4/5,
{2}4,4,
{1}3,
{1}2h[1:1],,
{2}1,1,
{1}2,
{2}3,3,
{1}4/5,
{2}5,5,
{1}6,
{1}7-4[4:3],,
{1}3h[2:1]/4h[2:1],
{2}3/4,3/4,
{1}5h[2:1]/6h[2:1],
{2}5/6,5/6,
{1}7h[2:1]/8h[2:1],
{2}7/8,7/8,
{1}1h[1:1],,
{2}8,8,
{1}8b,
{2}1,1,
{2}2,2,
{4}3,3,3,,
{1}4/5,
{1}5h[2:1]/6h[2:1],
{1}3h[2:1]/4h[2:1],
{2}4/5,4/5,
{1}3b/6b,
{2}5,5,
{2}6,6,
{4}7,7,7,,
{1}1b/8b,
{1}1-4[4:3],,
{1}8-5[4:3],,
{2}1,1,
{2}8,8,
{2}7,7,
{1}5/6,
{2}5,5,
{2}4,4,
{2}3,3,
{1}1/2,
{2}1,1,
{2}2,2,
{4}3,3,3,,
{1}3/4,
{1}3h[2:1]/4h[2:1],
{1}3/4,
{1}5h[2:1]/6h[2:1],
{1}5/6,
{2}7,7,
{2}6,6,
{2}5,5,
{1}4/5,
{2}3,3,
{2}2,2,
{2}1,1,
{2}1/8,1/8,
{2},1h[2:7]/8h[2:7],{1},,,,,
(140.0){1}1,
{1}2,
{1}3,
{1}4,
{2}4/5,4/5,
{4}5,4,5,
E
ADVANCED
(180.0){1},
{4}6,6,5,,
{4}3,3,4,,
{4}6,6,5,5,
{4}4,4,3/5,,
{4}3,3,4,,
{4}6,6,5,,
{4}3,3,3,4,
{4}4,4,5,5,
{4}5,6,6,6,
{4}5,5,5,4/5,
{4}4/5,6b/3bq5[8:9],,,{1},
{4}6h[2:1],,5,5,
{4}6,6,5,,
{4}3h[2:1],,4,4,
{4}3,3,4,,
{4}5h[2:1],,4,4,
{4}5,4,5,,
{4}6,5,4,4h[4:3]/5h[4:3],{1},
{4}3h[2:1],,4,4,
{4}3,4,3/4,,
{4}6h[2:1],,5,5,
{4}6,5,5/6,,
{4}3h[2:1],,4,4,
{4}3,4,3/4,,
{4}5,4,4/5,3h[4:3]/6h[4:3],{1},
{4}7,6,5/6,5/6,
{4}4,3,3/4,,
{4}2,3,3/4,3/4,
{4}5,6,5/6,,
{4}6,6,7,7,
{4}8,8,1,1,
{1}1>7[8:11],,
{4}8,8,1,2b/7b,{1},
{4}7,7/8,2,1/2,
{4}3,4,5,6,
{4}7,8,1,1,
{1}8^5[2:1],
{4}4,4/5,6,5/6,
{4}3,3/4,2,2,
{1}1^4[2:1],
{1}5^8[2:1],
{4}2,1/2,7,7/8,
{4}6,5,4,3,
{4}2,1,8,8,
{1}1^4[2:1],
{4}5,4/5,3,3/4,
{4}6,5/6,7,7,
{4}8,1,2,1/2,
{1}8b/3b^6[2:1],
{2}7h[2:1],6,
{2}2h[2:1],3,
{2}7h[2:1],8,
{2}2h[2:1],1,
{2}7h[2:1],8h[2:1],
{2}1h[2:1],2,
{2}2h[2:1],1h[2:1],
{2}8,1/7,
{4}7,7/8,2,1/2,
{4}3,4,5,6,
{4}7,7/8,2,1/2,
{1}3/8^5[2:1],
{1}4-8[2:1],
{1}7-2[2:1],
{1}3-6[2:1],
{1}7-4[2:1],
{4}3,3,2/4,,
{4}6,6,5/7,,
{4}7,7,8,8,
{4}1,1/8,2/7,,
{4}8,8,1/7,,
{4}1,1,2/8,,
{4}8,8,1,1,
{4}2,2,1/2,3b/8b,
{2},2b/7b>6[8:35],{1},,,,,
(140.0){1}6h[1:1],
{1}5h[1:1],
{1}4h[1:1],
{2}3,3/4,
{1}4h[1:1],
{4}5,4/5,3b/6b,
E
EXPERT
(180.0){1},
{4}3,4,6,4/6,
{4}6,5,3,3/5,
{4}3,5,6,4/6,
{8}3/5,,4,4,5h[4:1],,4,,
{4}6,5,3,2/4,
{4}3,4,6,5/7,
{4}6-4[4:1],,,3-1[4:1],
{2},8-4[4:1],
{4},3-8[4:1],,,
{4}7-4[4:1],,,2-7[4:1],
{4},,6b/5h[1:1],6,
{4}6,6,6,4/5,
{8}3/5,,4,4,5,,6h[4:1],,
{4}5,4/5,3/4,,
{8}4/6,,5,5,4,,3h[4:1],,
{4}4,4/5,3/6,,
{8}3/5,,4,4,5,,4/6h[2:1],,
{4}5,4,3/6,7/2^5[2:1],
{4},,,4/6,
{8}5,5,4,,4/5,,3/6,,
{8}2/4,,3,3,5,,6h[4:1],,
{4}5,7,4/7,,
{8}5/7,,6,6,4,,3h[4:1],,
{4}4,2,2/5,,
{8}2/5,,4,4,6,,5/7h[2:1],,
{4}6,5,4,5h[4:3]/4qq4[2:1],
{4},,,4/5,
{8}4h[4:1]/5h[4:1],,,,3/6,3/6,,3h[8:3],
{8},4,4,,2/5,,3,3,
{8}4,,2,,3/5,,6,6h[8:3],
{8},5,5,,4/7,,6,6,
{8}5,,7,,4/6,,5,5h[8:3],
{8},4,4,,3h[4:1],,4h[4:1],,
{4}5h[4:1],6h[4:1],8,1pp5[1:1]/8qq4[1:1],{1},
{2},3/6,
{4}2/5h[1:1],2,3,3,
{4}4,6,7,1/8,
{8}2b/7b,,3,3,4,,5/6h[4:1],,
{8}7,,1/8,,2/7,,6,6,
{8}5,,2,2,4,,7,7,
{8}8,,1/6,,2/7,,6,6,
{8}4/6,,3,3,3/5,,5/6,,
{4}4/3h[4:1],2,1/8<3[2:1],,
{8},,2,2,1/2,,8/1>6[2:1],,
{4},,,1/8,
{8}3b/6b,,7,7,5,,4/3h[4:1],,
{4}2,5/6h[4:1],7,7/8,
{2}1-5[8:1]/2-5[8:1],7-4[8:1]/8-4[8:1],
{4}1/2,3/4,2b/7b,,
{4}7/4h[4:1],5,6/3h[4:1],4,
{8}2/5,,3/4,,5,5,4,,
{4}7h[4:1],5h[4:1],4h[4:1],3V15[2:1],
{4},,,2/7,
{4}6b^3[2:1],,2,2,
{4}3^6[2:1],,7,7,
{4}7^4[2:1],,3,3,
{2}3h[4:1]/4h[4:1],2/5,
{4}5h[4:1]/7h[4:1],,5/7,6,
{4}2h[4:1]/4h[4:1],,2/4,3,
{2}4h[4:1]/6h[4:1],3h[4:1]/5h[4:1],
{1}2^7[2:1]/6q3[2:1],
{8}4b/5b,,2,2,1,,8/7h[4:1],,
{4}5,1/2h[4:1],4,4/5,
{2}7-5[8:1]/8-4[8:1],1-5[8:1]/2-4[8:1],
{4}7/8,4/5,1b/8b,,
{8}7/2h[4:1],,4,4,3,,2/5,,
{8}2/7h[4:1],,5,5,6,,4/7,,
{4}1/2,3/8,7/8,6/1w5[4:1],
{4},,3/6,3/6,
{8}4/3h[4:1],,2,,8,8,1,,
{8}8/7h[4:1],,6,,4,4,5,,
{4}2,2/4,7,5/7,
{8}3/6,,4/5,4/5,3/6,,3/6,,
{8}8/7h[4:1],,6,,5,5,4/6,,
{8}4/3h[4:1],,2,,1,1,2/8,,
{4}4/6,8,3/5,1,
{8}3/6,,1/8,1/8,2/7,,4/5,,
{2},2b<5[4:17]/7b>4[4:17],{1},,,,,
(140.0){2}6h[4:7],5,
{2}4,3h[4:9],
{2}6,5,
{2}4,5,
{2}4/5h[1:1],4h[4:3],
{2},4/5,
E
MASTER
(180.0){1},
{16}2/6h[16:3],,,5,7,,7,,7h[16:3],,,6h[16:3],,,5,,
{8}4,4,5,5,3,4,5,6,
{16}7/3h[16:3],,,4,2,,2,,2h[16:3],,,3h[16:3],,,4,,
{8}5^8[8:1],,1^4[8:1],1,8h[4:1],,4,,
{16}2/6h[16:3],,,5,7,,7,,7h[16:3],,,6h[16:3],,,5,,
{8}4,4,5,5,3,4,5,6,
{8}4,5,3,4,2,6,5,7,
{8}3,4,2,6,5,7,3,4,
{8}1,6,5,8,3,4,1,6,
{8}5,8,2,3,1,7,6,8,
{8}1,1,1-5[1:1],,6,,6,,
{8}6,,6,,6,,4/5,6,
{8}7h[4:1],,6,5,4h[4:1],,5,6,
{4}4^1[8:1],7^4[8:1],1,4,
{8}2h[4:1],,3,4,5h[4:1],,4,3,
{4}5^8[8:1],2^5[8:1],8,5,
{8}7h[4:1],,6,5,4h[4:1],,5,6,
{4}4^1[8:1],7^4[8:1],1,4qq5[2:1],
{8}6,,,7,7,,3/6,,
{8}3,3,4,5,6,6,4/5,,
{8}2h[4:1],,8,7,6h[4:1],,5,4,
{4}6^1[8:1],3^6[8:1],1,6,
{8}7h[4:1],,1,2,3h[4:1],,4,5,
{4}3^8[8:1],6^3[8:1],8,3,
{8}2h[4:1],,8,7,6h[4:1],,5,4,
{4}6^1[8:1],3^6[8:1],1,5pp4[2:1],
{8}3,,,2,2,,3/6,,
{8}1/8,7,5/6,4,3b/4b,3b/4b,,1/8,
{8},4/5,4/5,,6/4-8[8:1],,6,,
{8}6/8-4[8:1],,6,,4/6,5,4,3/5,
{8},4/5,4/5,,3/5-1[8:1],,3,,
{8}3/1-5[8:1],,3,,3/5,4,5,4/6,
{8},4/5,4/5,,6/4-8[8:1],,6,,
{4}6/8-4[8:1],6,6/4-8[8:1],6<5[2:3],
{1}1b,,
{4}1,2,3,4z8[4:3],
{4},,,5b,
{8}3^8[8:1],,6,7^4[8:1],,4,3,2,
{8}1-4[8:1],,6-2[8:1],,1-5[8:1],,6,7,
{8}8-4[8:1],,3,2,1>6[4:1],,6,7,
{8}8h[4:1],,2,,1,1^4[8:1],5pp8[2:1],5,
{8},,4,3,2^5[8:1],,5,6,
{4}7-4[8:1],3h[4:1],4<2[4:1],2b,
{8},,3/4,2/5,6/1-5[8:1],,8<1[2:1],8,
{4}4b,,,4/5,
{8}6^1[8:1],,3,2^5[8:1],,5,6,7,
{4}8qq8[4:1],3,1pp1[4:1],6,
{8}8-4[8:1],,1,2,3-7[8:1],,7,6,
{2}5-1[8:1],2h[4:3],
{4}7h[4:1],,7/8,5/6,
{8}1/2,,3/4-8[8:1],,3,2,1-5[8:1],,
{8}6-8[8:1],,2-6[8:1],,7-3[8:1],7,4qq5[8:3],,
{8}8,,,,{12}6,{995}6,,,,,,,,,,,,,,,,,,,,,,,,,,,,,,,,,,,,,,,,,,,,,,,,,,,,,,,,,,,,,,,,,,,,,,,,,,,,,,,,,,,{12}5,6,,,
{8}8-4[2:7],,,3,3,,2,,
{4}5,5,3,3,
{4}5,5,3,3,
{4}5,5,3,2,
{4}1-5[2:7],,6,6,
{4}4,4,6,6,
{4}3,3,7,7,
{4}4,6,7,8,
{8}3b/6b^1[8:1],,3,2^5[8:1],,5,6,7,
{4}8-4[8:1],2-6[8:1],6,3/7,
{8}5/1-5[8:1],,8,7,6-2[8:1],,2,3,
{2}4-1[8:1],6h[1:1],
{4}3h[2:3],,,5,
{4}5^8[4:1],,,4,
{4}4^1[4:1],,6,7,
{4}8^5[4:1],,4,4/5,
{16}7/3h[16:3],,,4,2,,2,,2h[16:3],,,3h[16:3],,,4,,
{8}5,6,4,3,6,5,3,4,
{16}2/6h[16:3],,,5,7,,7,,7h[16:3],,,6h[16:3],,,5,,
{8}4^1[8:1],,8^5[8:1],8,1h[4:1],,5,,
{16}7/3h[16:3],,,4,2,,2,,2h[16:3],,,3h[16:3],,,4,,
{8}5,6,4,3,6,5,3,4,
{16}2/6h[16:3],,,5,7,,7,,7h[16:3],,,6h[16:3],,,5,,
{8}4^1[8:1],,8^5[8:1],8,1h[4:1],,5-8[2:1],,
{2},1b>8[4:19],{1},,,,,
(140.0){1}6h[4:3],
{1}6^3[2:1],
{2}3h[2:1],4h[2:1],
{2}5h[2:1],6,
{2}4^1[4:1],8^5[4:1],
{2}1^4[4:1],5,
E
Re:MASTER
最終更新:2026年10月01日 21:20