| アーティスト |
きくお×cosMo@暴走Pfeat.影縫英 |
BASIC
ADVANCED
EXPERT
MASTER
(180)
{1}Cf/B1/B2/B3/B4/B5/B6/B7/B8/E1/E2/E3/E4/E5/E6/E7/E8/D1/D2/D3/D4/D5/D6/D7/D8,,,,
A3f/E3/E4/B2/B3/B4/7bx,A6f/E7/E6/B7/B6/B5/2bx,
{2}A1f/E2/E1/B2/B1/B8/5bx,A8f/E8/E1/B7/B8/B1/4bx,
{6}5x/6x,4x/3x,1x/2x,4x/3x,5x/6x,1x-4[12:5]/8x-5[12:5],{4}2b/7b,,,,,,
{16}4,5,4,5,4,5,4,5,4b,,
7,5,7,,7,5,7,,7,3,7,,7,2,7,,7,1,7,,7,8,7,,7,6,7,,7,5,7,,
7,4,7,,7,3,7,,7,2,7,,7,1,7,,7,8,7,,7,6,7,,67,,58,,,,2bx/6bx,,
2,5h[8:1],2,,2,4h[8:1],2,,2,3h[8:1],2,,2,1h[8:1],2,,
2,8h[8:1],2,,2,7hx[8:1],2,,2,6h[8:1],2,,2,5h[8:1],2,,
2,4h[8:1],2,,2,3h[8:1],2,,2,1h[8:1],2,,2,,
2b/8b,,28,,3b/7b,,37,,4x,6,4x,6,4x,6,4x,6,
{2}5h[2:1],4h[2:1],8w4[4:2],,{24}A4,E4/E5,B3/B4/B5,B2/C/E7,E2/B8/B6,A1/D1/A8/D8/A7,{2},
{8}25,,3hx[4:1]/4bx,,2h[8:3],,,C,4h[4:1],,6h[4:1],,7h[8:3],,,C,
5h[4:1],,2h[4:1],,3h[8:3],,,C,8h[4:1],,1h[4:1],,3h[8:3],,,C,
D2/E3/D4,,7h[4:1]/8,,5h[8:3],,,C,4h[4:1],,2h[4:1],,4h[8:3],,,C,
5h[4:1],,6h[4:1],,8h[8:3],,,C,1h[4:1],,{16}8,,,36,,,{8}4h[4:1]/5h[4:1],,,{16}1bx,8bx,1bx,,
3x,4,3,4,3,5,3,5,4,6,4,6,4,7,4,7,3,6,3,6,2,5,2,5,3,6,3,6,4h[4:1],,,,
6x,5,6,5,6,4,6,4,5,4,5,4,5,3,5,3,4,2,4,2,5,3,5,3,5,6,7,8,1x,,,,
2x,4,2,4,3,5,3,5,4,6,4,6,5h[4:1],,,,7,5,7,5,6,4,6,4,5,3,5,3,4h[4:1],,,,
2,5,3,4,3,4,3,4,2,6,4,5,4,5,4,5,3,7,5,6,5,6,5,6,{32}4x,3x,2x,1x,8x,7x,6x,5x,{4}8b,
{8}1x/7x,,2h[4:1]/5,,3,3,14,,2,2,1/3h[16:3],{16},2,{8}3,3,14,,
35,,2/4h[4:1],,3,3,24,,15,1,{16}2,4,,4,{8}3-6[8:1],3,7,,
5x/6x,,4/7h[4:1],,6,6,58,,7,7,8/6h[16:3],{16},7,{8}6,6,58,,
64,,7/5h[4:1],,6,6,5/7h[4:1],,4,{16}6,5,6,,45,,3,4,3,,2,1,2,,{8}3b/8b,,
47,,1,1,2/4h[4:1],,3,,2h[16:3]/3,{16},1,{8}2,2,13,,
24,,1/3h[4:1],,2,2,14,,25,25,{16}3,4,,4,{8}3^6[8:1],3,6,,
7x/8x,,57,,6,6,5/7h[4:1],,4,4,{16}6,5,,5,{8}7,7,
{4}8p3[4:1]/4,3^8[4:1],8<4[4:1],4>8[4:1],8xpp4[4:3]*qq4[4:3],{1},
{4}2x/8xqq6qq4[4:7],,4,3,2,,1,2,3qq1qq7[4:7],,8,,6,,5,4,
5xpp7pp1[4:7],,1h[4:1],,3h[4:1],,5h[4:1],,2pp4pp6[4:6],,5h[4:1],,7h[4:1],,1h[4:1],,
8xqq6qq4qq2qq8[4:15]/2x,,2,{8}3,3,{4}3h[4:1],,2,1,8h[4:1],,7h[4:1],,8h[4:1],,3,2,
1xs5[4:5],,7h[4:1],,3h[4:1],,{4}8-2[4:1],2-7[4:1],7-3[4:1],3-6[4:1],6-4[4:1],4pp8[4:3]*qq8[4:3],{1},
{12}1x/8x,2,3,8,1,2,7,8,1,6,7,8,5,6,7,4,5,6,3,4,5,2,3,4,1,2,3,8,1,2,7,8,1,6,7,8,5,6,7,4,5,6,3,4,5,2,3,4,
{16}1x,2,3,4,8,1,2,3,7,8,1,2,6,7,8,1,5,6,7,8,4,5,6,7,3,4,5,6,2,3,4,5,1,2,3,4,8,1,2,3,7,8,1,2,
{32}6,7,8,1,2,3,4,5,{1}6xV47[4:2]/2xV83[4:2],
{24}1x/8x,2x/7x,3x/6x,4x/5x,,,{4}2b/7b,4x-1b[8:1]/5x-8b[8:1],4x/5x,
{8}2x/7x,45,1x/8x,,{16}2x/4x,,,6,5x,,47,,1x/2x,,,3,4x,,25,,
{24}1x,2,3,4,,,{16}6x,5,6,5,4x/7x,,,,2x,1,2,1,8x/3x,,{24}2,3,4,5x,,,18,,,7x,6,5,1,2,3,
{8}4x/5x,6,7x/8x,78,{16}2x,1,2,,{8}3x/5x,46,2bx/7bx,,
{16}1x/3x,,,7,8x,,16,,{32}2x,{96}3,,,,,{24}4,8,7,6,{8}5x/4x,3,1x/8x,18,{24}2x,3,4,7,6,5,
{8}1x,,5x/7x,{16}3,4,3x,,{24}8,7,6,{8}5x/4x,3,1x/2x,{16}7,8,7x,,
{24}18,27,36,{8}4x-1b[8:1]/5x-8b[8:1],36,4bx/5bx,,
1x/7x,17,8x/2x,82,{32}1x,2,3,4,{8}56,4x/7x,,{32}8x,7,6,5,{8}43,2x,{32}1,2,3,4,{8}5x/6x,7,1x/8x,,
{32}1x,2,3,,5,,5,,1x,8,7,,5,,5,,2x,3,4,,7,6,5,,
{8}1x,28,3x/7x,{16}6,5,4x/7x,,3,4,5x/2x,,{32}1,2,3,4,
{8}5x/6x,78,1bx/6bx,16,3x/4x,34,6x/5x,65,4x/7x,47,{32}8x,7,6,5,{8}43,2x,{32}1,2,3,4,{8}5x/6x,7,
{16}8x,1,8,1,{8}2x/7x,36,4x/5x,{16},8,8x,,2,1,2x,,4,5,{8}4x,5x/7x,4x/8x,4x/8x,
{32}4x/8x,37,26,15,8x/4x,,,,4x/8x,51,62,73,8x/4x,,,,
{4}4hbx[4:1]/8bx,5h[4:1],6h[4:1],7h[4:1],8h[4:1],1h[4:1],2h[4:1],3,
4^2-8^6[4:3]/5,,6,6-8^2-4[4:3],5,5,5,5,
{16}3x,7,3x,7,4x,5,4x,5,2x,6,2x,6,3x,4,3x,4,2x,1,2x,1,5x,6,5x,6,8x,7,8x,7,2x,1,2x,1,
{24}2x,3,4,8x,7,6,1x,2,3,7x,6,5,8x,1,2,6x,5,4,8x,1,2,6x,5,4,
{32}2x,3x,4x,5x,6x,7x,8x,1x,2x,3x,4x,5x,6x,7x,8x,1x,
{64}2x,D3,3x,D4,4x,D5,5x,D6,6x,D7,7x,D8,8x,D1,1x,D2,2x,D3,3x,D4,4x,D5,5x,D6,6x,D7,7x,D8,8x,D1,1x,D2,
{1}2bx/Cf,,,,E
Re:MASTER
- 追加しました。修正等ありましたらよろしくお願いします。 -- けもがみ (2023-01-27 04:45:10)
- 補充:first値は1.42位です -- 名無しさん (2025-01-15 02:42:24)
最終更新:2026年10月17日 15:59